osu file format v14

[General]
AudioFilename: Joker [Full Destiny].mp3
AudioLeadIn: 0
PreviewTime: 31750
Countdown: 0
SampleSet: Soft
StackLeniency: 0.3
Mode: 0
LetterboxInBreaks: 0
WidescreenStoryboard: 0

[Editor]
Bookmarks: 31908,52778,94517
DistanceSpacing: 1
BeatDivisor: 8
GridSize: 4
TimelineZoom: 3.999999

[Metadata]
Title:Joker
TitleUnicode:Joker
Artist:D.J.Nero
ArtistUnicode:D.J.Nero
Creator:09kami
Version:Extra
Source:BMS
Tags:BOF2010 Lsahi JJburstOwO -[Hikari]- Digital Emergency Exit 2 RENAISSANCE DreaM117er m1223961117
BeatmapID:881417
BeatmapSetID:405524

[Difficulty]
HPDrainRate:6
CircleSize:4
OverallDifficulty:8.4
ApproachRate:9.2
SliderMultiplier:2.1
SliderTickRate:1

[Events]
//Background and Video events
0,0,"1.png",0,0
//Break Periods
2,75157,79604
2,80374,83517
//Storyboard Layer 0 (Background)
//Storyboard Layer 1 (Fail)
//Storyboard Layer 2 (Pass)
//Storyboard Layer 3 (Foreground)
//Storyboard Sound Samples

[TimingPoints]
5827,326.086956521739,4,2,1,60,1,0
11044,-100,4,3,1,60,0,0
31913,-133.333333333333,4,3,1,40,0,0
52783,-200,4,2,1,80,0,0
53109,-100,4,2,1,80,0,0
55392,-200,4,2,1,80,0,0
55718,-100,4,2,1,80,0,0
58000,-200,4,2,1,80,0,0
58326,-100,4,2,1,80,0,0
59957,-100,4,2,1,40,0,0
60609,-200,4,2,1,80,0,0
60935,-100,4,2,1,80,0,0
73000,-100,4,2,1,60,0,0
73653,-100,4,2,1,40,0,0
74957,-100,4,2,1,5,0,0
84087,-100,4,1,20,30,0,0
91913,-100,4,2,1,60,0,0
94522,-80,4,2,1,80,0,0
98272,-80,4,2,1,50,0,0
98435,-80,4,2,1,80,0,0
104957,-80,4,2,1,80,0,1
108585,-80,4,2,1,50,0,1
108870,-80,4,2,1,80,0,1
118979,-80,4,2,1,50,0,1
119142,-80,4,2,1,80,0,1
123218,-80,4,2,1,60,0,1
123870,-80,4,2,1,80,0,1
125826,-80,4,2,1,60,0,0
129413,-80,4,2,1,40,0,0

[Colours]
Combo1 : 255,153,153
Combo2 : 136,136,136
Combo3 : 17,136,255

[HitObjects]
112,136,5827,5,2,0:0:0:0:
216,160,5990,1,0,0:0:0:0:
216,160,6153,1,0,0:0:0:0:
456,156,6316,1,0,0:0:0:0:
480,348,6642,1,0,0:0:0:0:
216,160,7131,5,2,0:0:0:0:
112,136,7294,1,0,0:0:0:0:
112,136,7457,1,0,0:0:0:0:
456,156,7620,1,0,0:0:0:0:
480,348,7946,1,0,0:0:0:0:
112,136,8435,5,6,0:0:0:0:
216,160,8598,1,10,0:0:0:0:
328,64,8762,1,10,0:0:0:0:
456,156,8925,1,6,0:0:0:0:
480,348,9088,1,10,0:0:0:0:
456,156,9251,1,10,0:0:0:0:
216,160,9740,5,6,0:0:0:0:
112,136,9903,1,10,0:0:0:0:
328,64,10066,1,10,0:0:0:0:
456,156,10229,1,6,0:0:0:0:
480,348,10392,2,0,L|368:360,1,105,10|10,0:0|0:0,0:0:0:0:
375,359,10718,1,10,0:0:0:0:
368,168,10881,1,0,0:0:0:0:
368,168,10962,1,0,0:0:0:0:
368,168,11044,5,0,0:0:0:0:
442,242,11207,1,0,0:0:0:0:
368,316,11370,1,4,0:0:0:0:
293,242,11533,1,0,0:0:0:0:
96,276,11696,6,0,P|139:267|188:214,1,105,8|0,0:0|0:0,0:0:0:0:
296,40,12022,2,0,P|252:48|203:101,1,105,4|0,0:0|0:0,0:0:0:0:
368,168,12348,5,8,0:0:0:0:
468,199,12511,1,0,0:0:0:0:
499,98,12674,1,4,0:0:0:0:
398,68,12837,1,0,0:0:0:0:
136,52,13000,6,0,P|92:60|36:104,1,105
300,312,13326,2,0,P|344:304|400:260,1,105,4|0,0:0|0:0,0:0:0:0:
181,182,13653,5,8,0:0:0:0:
136,52,13816,1,0,0:0:0:0:
265,8,13979,1,4,0:0:0:0:
310,137,14142,1,0,0:0:0:0:
56,344,14305,6,0,P|72:288|104:240,1,105,8|0,0:0|0:0,0:0:0:0:
480,136,14631,2,0,P|464:192|432:240,1,105,4|0,0:0|0:0,0:0:0:0:
230,333,14957,5,8,0:0:0:0:
209,262,15120,1,0,0:0:0:0:
280,242,15283,1,4,0:0:0:0:
300,312,15446,1,0,0:0:0:0:
230,333,15609,5,4,0:0:0:0:
292,294,15772,1,0,0:0:0:0:
253,232,15935,1,4,0:0:0:0:
190,271,16098,1,0,0:0:0:0:
216,104,16261,6,0,P|232:60|288:24,1,105,8|0,0:0|0:0,0:0:0:0:
50,189,16587,2,0,P|92:160|112:112,1,105,4|0,0:0|0:0,0:0:0:0:
390,102,16913,6,0,P|432:131|452:180,1,105,8|0,0:0|0:0,0:0:0:0:
436,360,17239,2,0,P|393:330|374:282,1,105,4|0,0:0|0:0,0:0:0:0:
456,280,17566,5,8,0:0:0:0:
456,280,17729,1,0,0:0:0:0:
172,312,17892,1,4,0:0:0:0:
172,312,18055,1,0,0:0:0:0:
264,376,18218,6,0,P|280:320|272:264,1,105,8|0,0:0|0:0,0:0:0:0:
68,138,18544,2,0,P|64:190|80:240,1,105,4|0,0:0|0:0,0:0:0:0:
294,147,18870,5,8,0:0:0:0:
220,221,19033,1,0,0:0:0:0:
145,147,19196,1,4,0:0:0:0:
220,73,19359,1,0,0:0:0:0:
294,147,19522,5,8,0:0:0:0:
241,56,19685,1,0,0:0:0:0:
150,108,19848,1,4,0:0:0:0:
203,199,20011,1,0,0:0:0:0:
113,244,20174,6,0,P|137:220|213:200,1,105,12|0,0:0|0:0,0:0:0:0:
498,204,20501,2,0,P|447:193|408:160,1,105,4|0,0:0|0:0,0:0:0:0:
204,192,20826,6,0,P|153:203|114:237,1,105,12|0,0:0|0:0,0:0:0:0:
408,168,21152,2,0,P|447:201|498:212,1,105,4|0,0:0|0:0,0:0:0:0:
484,120,21479,5,8,0:0:0:0:
392,336,21642,1,0,0:0:0:0:
484,120,21805,1,4,0:0:0:0:
392,336,21968,1,0,0:0:0:0:
376,248,22131,5,8,0:0:0:0:
468,280,22294,1,0,0:0:0:0:
376,248,22457,1,4,0:0:0:0:
468,280,22620,1,0,0:0:0:0:
208,296,22783,6,0,P|136:312|96:304,1,105,8|0,0:0|0:0,0:0:0:0:
44,92,23109,2,0,P|116:76|156:84,1,105,4|0,0:0|0:0,0:0:0:0:
310,169,23435,5,8,0:0:0:0:
208,296,23598,1,0,0:0:0:0:
323,284,23761,1,4,0:0:0:0:
196,182,23924,1,0,0:0:0:0:
411,180,24087,6,0,P|339:164|299:172,1,105,8|0,0:0|0:0,0:0:0:0:
106,307,24413,2,0,P|158:311|208:296,1,105,4|0,0:0|0:0,0:0:0:0:
310,169,24740,5,8,0:0:0:0:
298,55,24903,1,0,0:0:0:0:
183,67,25066,1,4,0:0:0:0:
196,182,25229,1,0,0:0:0:0:
310,169,25392,5,4,0:0:0:0:
196,152,25555,1,0,0:0:0:0:
213,37,25718,1,4,0:0:0:0:
327,55,25881,1,0,0:0:0:0:
310,169,26044,5,4,0:0:0:0:
355,63,26207,1,0,0:0:0:0:
250,16,26370,1,4,0:0:0:0:
204,123,26533,1,0,0:0:0:0:
377,108,26696,6,0,L|497:97,1,105,8|0,0:0|0:0,0:0:0:0:
128,138,27022,2,0,L|8:149,1,105,4|0,0:0|0:0,0:0:0:0:
441,228,27348,6,0,L|337:238,1,105,8|0,0:0|0:0,0:0:0:0:
98,260,27674,2,0,L|202:250,1,105,4|0,0:0|0:0,0:0:0:0:
328,280,28000,5,8,0:0:0:0:
286,352,28163,1,0,0:0:0:0:
216,304,28326,1,4,0:0:0:0:
256,232,28490,1,0,0:0:0:0:
376,352,28653,5,8,0:0:0:0:
136,348,28816,1,0,0:0:0:0:
376,352,28979,1,4,0:0:0:0:
136,348,29142,1,0,0:0:0:0:
34,166,29305,6,0,P|30:107|54:54,1,105,8|0,0:0|0:0,0:0:0:0:
284,178,29631,2,0,P|288:237|264:290,1,105,4|0,0:0|0:0,0:0:0:0:
194,224,29957,5,8,0:0:0:0:
482,225,30120,1,0,0:0:0:0:
194,224,30283,1,4,0:0:0:0:
482,225,30446,1,0,0:0:0:0:
484,87,30609,5,8,0:0:0:0:
372,64,30772,1,2,0:0:0:0:
372,64,30854,1,2,0:0:0:0:
372,64,30935,1,4,0:0:0:0:
272,83,31098,1,0,0:0:0:0:
174,65,31261,6,4,L|70:50,1,105,0|0,0:0|0:0,0:0:0:0:
401,154,31587,2,0,L|279:171,1,105,4|0,0:0|0:0,0:0:0:0:
56,265,31913,5,2,0:0:0:0:
432,299,32240,1,2,0:0:0:0:
382,370,32566,5,0,0:0:0:0:
299,343,32729,1,0,0:0:0:0:
299,256,32892,1,0,0:0:0:0:
382,229,33055,1,0,0:0:0:0:
432,299,33218,5,2,0:0:0:0:
299,343,33381,1,0,0:0:0:0:
432,299,33544,1,2,0:0:0:0:
212,232,33707,1,0,0:0:0:0:
432,299,33870,5,6,0:0:0:0:
224,108,34196,1,12,0:0:0:0:
95,74,34522,5,2,0:0:0:0:
454,84,34848,1,2,0:0:0:0:
404,13,35174,5,0,0:0:0:0:
321,40,35337,1,0,0:0:0:0:
321,127,35500,1,0,0:0:0:0:
404,154,35663,1,0,0:0:0:0:
454,84,35826,5,2,0:0:0:0:
254,84,35990,1,0,0:0:0:0:
272,240,36153,2,0,P|318:254|356:248,1,78.7500030040742,2|0,0:0|0:0,0:0:0:0:
132,337,36479,6,0,P|160:309|196:296,1,78.7500030040742,6|0,0:0|0:0,0:0:0:0:
481,272,36805,2,0,P|453:299|417:312,1,78.7500030040742,12|0,0:0|0:0,0:0:0:0:
404,154,37131,5,2,0:0:0:0:
119,111,37457,1,2,0:0:0:0:
169,40,37783,5,8,0:0:0:0:
252,67,37946,1,0,0:0:0:0:
252,154,38109,1,0,0:0:0:0:
169,181,38272,1,0,0:0:0:0:
119,111,38435,5,2,0:0:0:0:
328,112,38598,1,0,0:0:0:0:
104,218,38761,2,0,P|131:190|169:181,1,78.7500030040742,6|0,0:0|0:0,0:0:0:0:
335,204,39087,5,6,0:0:0:0:
233,286,39250,1,8,0:3:0:0:
233,286,39332,1,8,0:3:0:0:
233,286,39413,1,6,0:0:0:0:
104,218,39576,1,0,0:0:0:0:
232,384,39740,5,2,0:0:0:0:
223,45,40066,1,2,0:0:0:0:
350,107,40392,6,0,P|393:105|421:71,1,78.7500030040742,8|0,0:0|0:0,0:0:0:0:
125,120,40718,2,0,P|87:127|54:107,1,78.7500030040742
110,41,41044,5,2,0:0:0:0:
64,220,41207,1,8,0:0:0:0:
53,257,41288,1,4,0:0:0:0:
43,295,41370,2,2,L|19:378,1,78.7500030040742,6|0,0:0|0:0,0:0:0:0:
160,226,41696,6,0,L|136:309,1,78.7500030040742,6|0,0:0|0:0,0:0:0:0:
279,151,42022,2,0,L|255:234,1,78.7500030040742,6|0,0:0|0:0,0:0:0:0:
409,67,42348,5,2,0:0:0:0:
385,147,42674,1,2,0:0:0:0:
462,293,43000,6,0,L|438:210,1,78.7500030040742,8|0,0:0|0:0,0:0:0:0:
296,333,43326,2,0,L|272:250,1,78.7500030040742
483,368,43652,6,0,L|459:285,1,78.7500030040742,2|0,0:0|0:0,0:0:0:0:
274,257,43979,2,0,L|250:174,2,78.7500030040742,6|0|6,0:0|0:0|0:0,0:0:0:0:
483,368,44631,1,10,0:0:0:0:
139,66,44957,5,2,0:0:0:0:
163,146,45283,1,2,0:0:0:0:
86,292,45609,6,0,L|110:209,1,78.7500030040742
252,332,45935,2,0,L|276:249,1,78.7500030040742,4|0,0:0|0:0,0:0:0:0:
65,367,46261,6,0,L|89:284,1,78.7500030040742,2|0,0:0|0:0,0:0:0:0:
274,256,46588,2,0,L|298:173,1,78.7500030040742,6|0,0:0|0:0,0:0:0:0:
192,96,46913,6,0,L|216:13,1,78.7500030040742,6|0,0:0|0:0,0:0:0:0:
26,55,47240,2,0,L|48:131,1,78.7500030040742,10|0,0:0|0:0,0:0:0:0:
352,64,47566,5,2,0:0:0:0:
48,131,47892,1,2,0:0:0:0:
0,202,48218,5,8,0:0:0:0:
50,272,48381,1,0,0:0:0:0:
133,245,48544,1,0,0:0:0:0:
133,158,48707,1,0,0:0:0:0:
50,131,48870,5,2,0:0:0:0:
208,202,49033,1,0,0:0:0:0:
50,131,49196,1,6,0:0:0:0:
268,143,49359,1,0,0:0:0:0:
338,95,49522,5,6,0:0:0:0:
416,65,49685,1,8,0:0:0:0:
416,65,49767,1,8,0:0:0:0:
416,65,49848,1,10,0:0:0:0:
491,73,50011,1,0,0:0:0:0:
268,143,50174,5,2,0:0:0:0:
293,329,50500,1,2,0:0:0:0:
393,325,50826,6,0,P|371:273|345:254,1,78.7500030040742,8|0,0:0|0:0,0:0:0:0:
233,260,51153,2,0,P|206:288|194:325,1,78.7500030040742
293,329,51479,5,2,0:0:0:0:
76,224,51642,1,8,0:0:0:0:
76,224,51723,1,8,0:0:0:0:
76,224,51805,1,2,0:0:0:0:
46,353,51968,1,2,0:0:0:0:
199,154,52131,6,0,P|223:107|216:66,1,78.7500030040742,2|0,0:0|0:0,0:0:0:0:
94,24,52457,2,0,P|70:71|77:112,1,78.7500030040742,6|0,0:0|0:0,0:0:0:0:
312,102,52783,6,0,L|370:84,1,52.5,4|0,0:0|0:0,0:0:0:0:
486,146,53109,6,8,P|406:147|376:164,1,105
130,336,54087,5,8,0:0:0:0:
74,210,54250,1,2,0:0:0:0:
199,154,54413,1,8,0:0:0:0:
254,279,54576,1,2,0:0:0:0:
130,336,54740,5,8,0:0:0:0:
244,261,54903,1,2,0:0:0:0:
170,146,55066,1,8,0:0:0:0:
55,221,55229,1,2,0:0:0:0:
251,357,55392,6,0,L|318:352,1,52.5,4|0,0:0|0:0,0:0:0:0:
450,304,55718,6,8,P|370:303|340:286,1,105
400,17,56696,5,8,0:0:0:0:
456,143,56859,1,2,0:0:0:0:
331,199,57022,1,8,0:0:0:0:
276,74,57185,1,2,0:0:0:0:
400,17,57349,5,8,0:0:0:0:
286,92,57512,1,2,0:0:0:0:
360,207,57675,1,8,0:0:0:0:
466,125,57838,1,2,0:0:0:0:
267,190,58000,6,0,L|212:176,1,52.5,4|0,0:0|0:0,0:0:0:0:
25,214,58326,1,2,0:0:0:0:
75,95,58490,6,0,P|119:134|24:343,1,315,10|8,0:0|0:0,0:0:0:0:
25,214,59305,5,8,0:0:0:0:
129,206,59468,1,8,0:0:0:0:
233,195,59631,1,8,0:0:0:0:
337,184,59794,1,8,0:0:0:0:
259,110,59957,5,8,0:0:0:0:
332,104,60120,1,8,0:0:0:0:
405,96,60283,1,8,0:0:0:0:
477,87,60446,1,8,0:0:0:0:
493,170,60609,6,0,L|425:190,1,52.5,4|0,0:0|0:0,0:0:0:0:
361,270,60935,6,0,P|413:257|476:267,2,105,8|0|4,0:0|0:0|0:0,0:0:0:0:
120,297,61424,1,8,0:0:0:0:
217,356,61587,1,2,0:0:0:0:
234,306,61669,1,2,0:0:0:0:
233,253,61750,1,2,0:0:0:0:
173,165,61913,6,0,P|156:109|174:58,1,105,4|0,0:0|0:0,0:0:0:0:
182,144,62240,2,0,P|180:85|211:41,1,105
465,38,62566,2,0,P|482:94|464:145,1,105,4|0,0:0|0:0,0:0:0:0:
455,58,62893,2,0,P|456:116|426:161,1,105
120,297,63218,6,0,P|209:276|319:311,1,210,4|0,0:0|0:0,0:0:0:0:
277,288,63626,1,0,0:0:0:0:
251,249,63707,1,0,0:0:0:0:
246,202,63789,1,0,0:0:0:0:
263,158,63870,1,0,0:0:0:0:
299,127,63952,1,0,0:0:0:0:
345,116,64034,1,0,0:0:0:0:
391,128,64115,1,0,0:0:0:0:
426,160,64197,1,4,0:0:0:0:
442,205,64278,1,0,0:0:0:0:
435,251,64360,1,0,0:0:0:0:
408,290,64441,1,0,0:0:0:0:
366,311,64523,5,4,0:0:0:0:
319,311,64605,1,0,0:0:0:0:
70,215,64848,5,2,0:0:0:0:
70,215,65174,2,0,L|128:218,2,52.5
127,130,65500,2,0,L|185:133,2,52.5
77,48,65826,5,2,0:0:0:0:
180,26,65990,1,2,0:0:0:0:
280,56,66153,5,0,0:0:0:0:
316,52,66234,1,0,0:0:0:0:
352,48,66316,1,0,0:0:0:0:
392,42,66397,1,0,0:0:0:0:
400,48,66479,1,0,0:0:0:0:
408,52,66560,1,0,0:0:0:0:
416,57,66642,1,0,0:0:0:0:
422,65,66723,1,0,0:0:0:0:
423,77,66805,2,0,P|436:132|480:172,1,105,2|0,0:0|0:0,0:0:0:0:
392,232,67131,5,2,0:0:0:0:
412,279,67212,1,0,0:0:0:0:
409,331,67294,2,0,L|369:370,1,52.5
297,302,67457,5,8,0:0:0:0:
277,349,67538,1,0,0:0:0:0:
239,384,67620,2,0,L|183:383,1,52.5
189,298,67783,5,2,0:0:0:0:
141,317,67864,1,0,0:0:0:0:
90,314,67946,2,0,L|51:274,1,52.5
109,214,68109,5,8,0:0:0:0:
61,193,68190,1,0,0:0:0:0:
27,155,68272,2,0,L|27:99,1,52.5
88,20,68435,5,2,0:0:0:0:
248,147,68598,1,8,0:0:0:0:
168,203,68761,1,2,0:0:0:0:
366,178,68924,1,2,0:0:0:0:
69,153,69250,5,2,0:0:0:0:
455,122,69413,1,6,0:0:0:0:
76,20,69740,5,2,0:0:0:0:
229,155,69903,1,8,0:0:0:0:
160,224,70066,1,2,0:0:0:0:
351,165,70229,1,2,0:0:0:0:
68,192,70555,5,2,0:0:0:0:
443,95,70718,1,6,0:0:0:0:
68,20,71044,5,4,0:0:0:0:
220,165,71207,1,0,0:0:0:0:
164,245,71370,1,0,0:0:0:0:
340,152,71533,2,0,L|228:184,1,105,0|4,0:0|0:0,0:0:0:0:
65,222,71859,1,0,0:0:0:0:
457,129,72022,2,0,L|516:112,2,52.5
457,129,72348,5,4,0:0:0:0:
415,96,72430,1,0,0:0:0:0:
367,75,72511,1,0,0:0:0:0:
315,64,72593,1,0,0:0:0:0:
263,57,72674,1,0,0:0:0:0:
210,58,72756,1,0,0:0:0:0:
158,64,72837,1,0,0:0:0:0:
108,81,72919,1,0,0:0:0:0:
75,121,73000,5,4,0:0:0:0:
59,171,73082,1,0,0:0:0:0:
65,222,73163,1,0,0:0:0:0:
85,270,73245,1,0,0:0:0:0:
121,307,73326,1,0,0:0:0:0:
171,322,73408,1,0,0:0:0:0:
223,319,73490,1,0,0:0:0:0:
262,284,73571,1,0,0:0:0:0:
252,228,73653,6,0,B|324:168|324:168|224:140|224:140|152:172|152:172|57:164|57:164|80:112|112:80|112:80|160:60|216:48|268:52|316:56|368:64|416:88|464:136,1,840,4|0,0:0|0:0,0:0:0:0:
192,120,80174,5,0,0:0:0:0:
187,117,84087,5,0,0:0:0:0:
272,144,84413,1,8,0:0:0:0:
272,144,84576,1,2,0:0:0:0:
56,176,84740,5,0,0:0:0:0:
187,117,85066,1,8,0:0:0:0:
187,117,85229,1,2,0:0:0:0:
352,184,85555,5,0,0:0:0:0:
272,144,85718,1,8,0:0:0:0:
252,64,85881,1,2,0:0:0:0:
112,76,86044,5,8,0:0:0:0:
156,296,86370,1,2,0:0:0:0:
360,280,86696,5,0,0:0:0:0:
276,252,87022,1,8,0:0:0:0:
276,252,87185,1,2,0:0:0:0:
408,356,87348,5,0,0:0:0:0:
156,296,87674,1,8,0:0:0:0:
156,296,87837,1,2,0:0:0:0:
187,117,88163,5,2,0:0:0:0:
187,117,88327,1,8,0:0:0:0:
120,64,88490,1,0,0:0:0:0:
280,248,88653,5,8,0:0:0:0:
342,46,88979,1,0,0:0:0:0:
359,77,89060,1,0,0:0:0:0:
376,109,89142,1,0,0:0:0:0:
393,141,89223,1,0,0:0:0:0:
409,169,89305,6,8,P|320:148|303:124,1,105
103,169,89631,2,8,P|192:148|209:124,1,105
459,182,89957,6,8,P|367:184|344:165,1,105
53,182,90283,2,8,P|144:184|167:165,1,105
512,191,90609,6,8,P|424:217|397:205,1,105
0,191,90935,2,8,P|87:217|114:205,2,105
256,364,91424,1,8,0:0:0:0:
255,337,91506,1,8,0:0:0:0:
255,310,91587,2,8,L|256:199,1,105
269,34,91913,5,4,0:0:0:0:
242,59,91995,1,0,0:0:0:0:
273,43,92076,1,0,0:0:0:0:
237,51,92158,1,0,0:0:0:0:
272,53,92240,1,4,0:0:0:0:
236,41,92322,1,0,0:0:0:0:
270,63,92403,1,0,0:0:0:0:
244,34,92485,1,0,0:0:0:0:
258,68,92566,5,4,0:0:0:0:
249,29,92648,1,0,0:0:0:0:
247,69,92729,1,0,0:0:0:0:
258,30,92811,1,0,0:0:0:0:
240,63,92892,1,4,0:0:0:0:
269,34,92974,1,0,0:0:0:0:
258,30,93055,1,0,0:0:0:0:
234,54,93136,1,0,0:0:0:0:
273,43,93218,5,12,0:0:0:0:
309,43,93299,1,0,0:0:0:0:
340,60,93381,1,8,0:0:0:0:
364,88,93462,1,0,0:0:0:0:
384,120,93544,1,8,0:0:0:0:
392,156,93625,1,0,0:0:0:0:
392,192,93707,1,8,0:0:0:0:
384,228,93788,1,0,0:0:0:0:
360,256,93870,5,8,0:0:0:0:
332,276,93951,1,0,0:0:0:0:
300,296,94033,1,8,0:0:0:0:
264,300,94114,1,0,0:0:0:0:
228,292,94196,1,8,0:0:0:0:
196,272,94278,1,0,0:0:0:0:
172,244,94359,1,8,0:0:0:0:
164,208,94441,1,0,0:0:0:0:
164,164,94522,6,0,L|228:180,1,65.625,4|0,0:0|0:0,0:0:0:0:
456,336,94685,2,0,L|390:332,1,65.625
386,137,95011,6,0,L|394:71,1,65.625
264,32,95174,2,0,L|272:98,1,65.625
164,164,95337,2,0,L|156:98,1,65.625
40,40,95501,2,0,L|58:118,1,65.625
0,196,95664,2,0,L|64:209,1,65.625
134,294,95827,2,0,L|195:272,1,65.625
164,164,95990,2,0,L|244:176,1,65.625
316,228,96153,6,0,L|382:224,1,65.625
307,152,96356,1,0,0:0:0:0:
386,137,96479,2,0,L|454:157,2,65.625
232,40,96805,2,0,L|298:36,2,65.625
74,75,97131,5,0,0:0:0:0:
124,87,97212,1,0,0:0:0:0:
166,118,97294,1,0,0:0:0:0:
202,154,97375,1,0,0:0:0:0:
247,180,97457,1,0,0:0:0:0:
298,190,97538,1,0,0:0:0:0:
350,188,97620,5,0,0:0:0:0:
400,173,97701,1,0,0:0:0:0:
424,140,97783,1,0,0:0:0:0:
420,100,97865,1,0,0:0:0:0:
396,68,97946,1,0,0:0:0:0:
356,64,98028,1,0,0:0:0:0:
320,80,98109,2,0,L|236:80,1,65.625
166,118,98272,6,0,L|160:156,1,32.8125
156,120,98354,2,0,L|150:158,1,32.8125
148,120,98435,2,0,L|56:144,2,65.625
40,264,98761,5,0,0:0:0:0:
30,279,98843,2,0,L|103:276,1,65.625
252,344,99087,5,0,0:0:0:0:
267,326,99169,2,0,L|194:329,1,65.625
396,296,99413,5,0,0:0:0:0:
376,283,99495,2,0,L|449:286,1,65.625
312,152,99740,5,0,0:0:0:0:
331,156,99821,1,0,0:0:0:0:
350,154,99903,1,0,0:0:0:0:
368,148,99984,1,0,0:0:0:0:
395,129,100066,5,0,0:0:0:0:
369,108,100147,1,0,0:0:0:0:
337,96,100229,1,0,0:0:0:0:
304,96,100310,1,0,0:0:0:0:
260,112,100392,1,0,0:0:0:0:
227,118,100473,1,0,0:0:0:0:
194,110,100555,1,0,0:0:0:0:
168,89,100636,1,0,0:0:0:0:
148,47,100718,5,0,0:0:0:0:
120,64,100799,1,0,0:0:0:0:
92,80,100881,1,0,0:0:0:0:
64,96,100962,1,0,0:0:0:0:
84,136,101044,5,0,0:0:0:0:
80,168,101125,1,0,0:0:0:0:
76,200,101207,1,0,0:0:0:0:
72,232,101288,1,0,0:0:0:0:
56,276,101370,5,0,0:0:0:0:
88,276,101451,1,0,0:0:0:0:
117,290,101533,1,0,0:0:0:0:
143,310,101615,1,0,0:0:0:0:
191,328,101696,5,0,0:0:0:0:
243,328,101778,1,0,0:0:0:0:
293,315,101859,1,0,0:0:0:0:
339,289,101941,1,0,0:0:0:0:
373,250,102022,5,0,0:0:0:0:
391,200,102104,1,0,0:0:0:0:
398,148,102185,1,0,0:0:0:0:
385,96,102267,1,0,0:0:0:0:
360,49,102348,6,0,B|344:26|344:26|309:11,1,65.625
232,69,102593,1,0,0:0:0:0:
104,49,102756,2,0,B|120:26|120:26|166:7,1,65.625
200,200,103000,5,0,0:0:0:0:
246,174,103082,1,0,0:0:0:0:
294,156,103163,1,0,0:0:0:0:
345,146,103245,1,0,0:0:0:0:
398,148,103326,2,0,P|431:151|461:165,1,65.625
406,248,103490,5,0,0:0:0:0:
360,274,103572,1,0,0:0:0:0:
312,292,103653,1,0,0:0:0:0:
261,302,103735,1,0,0:0:0:0:
208,300,103816,2,0,P|175:297|145:283,1,65.625
76,231,103979,5,0,0:0:0:0:
116,196,104061,1,0,0:0:0:0:
150,158,104142,1,0,0:0:0:0:
176,113,104224,1,0,0:0:0:0:
185,62,104305,5,0,0:0:0:0:
179,11,104386,1,0,0:0:0:0:
163,61,104468,1,0,0:0:0:0:
176,113,104549,1,0,0:0:0:0:
204,172,104631,5,0,0:0:0:0:
223,238,104712,1,0,0:0:0:0:
208,300,104794,1,0,0:0:0:0:
166,351,104875,1,0,0:0:0:0:
117,381,104957,6,0,P|78:365|69:340,1,65.625,2|0,0:3|0:0,0:0:0:0:
168,313,105120,2,0,P|145:278|152:251,1,65.625,0|0,0:3|0:0,0:0:0:0:
249,292,105283,2,0,P|250:250|271:232,1,65.625,2|0,0:3|0:0,0:0:0:0:
333,296,105446,2,0,P|357:262|385:260,1,65.625,0|0,0:3|0:0,0:0:0:0:
350,213,105609,5,2,0:0:0:0:
361,161,105691,1,0,0:0:0:0:
371,109,105772,1,0,0:0:0:0:
383,57,105854,1,0,0:0:0:0:
344,20,105935,2,0,L|324:104,1,65.625,2|0,0:0|0:0,0:0:0:0:
380,260,106099,2,0,L|400:176,1,65.625
446,93,106262,6,4,L|519:93,2,65.625,4|0|4,0:0|0:0|0:0,0:0:0:0:
244,36,106587,2,0,L|179:36,1,65.625,2|0,0:3|0:0,0:0:0:0:
41,102,106750,2,0,L|106:102,1,65.625,0|0,0:3|0:0,0:0:0:0:
149,132,106914,1,8,0:0:0:0:
169,180,106995,1,0,0:0:0:0:
162,231,107076,1,2,0:0:0:0:
129,272,107158,1,0,0:0:0:0:
181,263,107240,5,8,0:0:0:0:
231,276,107321,1,0,0:0:0:0:
269,311,107403,1,2,0:0:0:0:
293,357,107484,1,0,0:0:0:0:
333,323,107566,6,0,P|359:309|408:316,2,65.625,12|0|0,0:0|0:0|0:3,0:0:0:0:
129,272,107892,2,0,P|97:273|68:258,2,65.625,2|0|0,0:3|0:0|0:0,0:0:0:0:
149,132,108136,1,0,0:0:0:0:
365,82,108381,2,0,P|333:81|304:96,2,65.625,8|0|0,0:0|0:0|0:0,0:0:0:0:
360,92,108585,2,0,L|391:99,1,32.8125
355,101,108667,2,0,L|388:106,1,32.8125
264,312,108870,5,2,0:0:0:0:
277,304,108951,2,8,L|259:226,1,65.625
112,128,109196,5,2,0:0:0:0:
101,115,109277,2,8,L|119:37,1,65.625
464,212,109522,5,2,0:0:0:0:
472,226,109604,2,8,L|454:304,1,65.625
88,328,109848,5,2,0:0:0:0:
75,316,109930,2,8,L|93:238,1,65.625
312,185,110174,6,0,L|239:168,1,65.625,2|0,0:3|0:0,0:0:0:0:
256,252,110337,2,0,L|183:235,1,65.625,8|0,0:0|0:0,0:0:0:0:
248,340,110500,2,0,L|175:323,1,65.625,2|0,0:3|0:0,0:0:0:0:
32,292,110663,2,0,L|94:272,1,65.625,8|0,0:0|0:0,0:0:0:0:
312,185,110826,6,0,L|240:206,1,65.625,2|0,0:3|0:0,0:0:0:0:
36,200,110990,2,0,L|98:180,1,65.625,8|0,0:0|0:0,0:0:0:0:
129,135,111153,1,2,0:0:0:0:
166,98,111234,1,0,0:0:0:0:
213,75,111316,1,8,0:0:0:0:
264,69,111397,1,0,0:0:0:0:
316,84,111479,1,2,0:0:0:0:
368,96,111560,1,0,0:0:0:0:
420,96,111642,5,8,0:0:0:0:
437,88,111723,1,0,0:0:0:0:
448,71,111805,1,2,0:3:0:0:
445,51,111886,1,0,0:0:0:0:
422,35,111968,5,8,0:0:0:0:
395,41,112049,1,0,0:0:0:0:
374,67,112131,1,2,0:3:0:0:
368,96,112212,1,0,0:0:0:0:
364,148,112294,5,8,0:0:0:0:
376,200,112375,1,0,0:0:0:0:
380,252,112457,1,2,0:3:0:0:
372,304,112538,1,0,0:0:0:0:
336,344,112620,1,8,0:0:0:0:
284,344,112701,1,0,0:0:0:0:
244,312,112783,6,0,L|238:246,1,65.625,2|0,0:3|0:0,0:0:0:0:
450,328,112946,2,0,L|457:241,1,65.625,12|0,0:0|0:0,0:0:0:0:
148,272,113109,2,0,L|141:185,2,65.625,8|0|12,0:0|0:0|0:0,0:0:0:0:
111,135,113435,5,2,0:0:0:0:
139,118,113517,1,0,0:0:0:0:
150,87,113598,1,2,0:0:0:0:
139,56,113680,1,0,0:0:0:0:
110,40,113761,1,2,0:0:0:0:
78,46,113843,1,0,0:0:0:0:
57,71,113924,1,2,0:0:0:0:
57,104,114006,1,0,0:0:0:0:
78,129,114087,6,0,P|84:168|76:212,1,65.625,6|0,0:0|0:0,0:0:0:0:
172,211,114250,2,0,P|160:248|135:285,1,65.625,6|0,0:0|0:0,0:0:0:0:
226,84,114413,2,0,P|232:123|224:167,1,65.625,6|0,0:0|0:0,0:0:0:0:
320,166,114576,2,0,P|308:203|283:240,1,65.625,6|0,0:0|0:0,0:0:0:0:
450,328,114740,2,0,P|454:288|474:248,1,65.625,6|0,0:0|0:0,0:0:0:0:
400,208,114903,2,0,P|421:175|455:147,1,65.625,6|0,0:0|0:0,0:0:0:0:
344,348,115066,2,0,P|315:320|274:302,1,65.625,6|0,0:0|0:0,0:0:0:0:
295,226,115229,2,0,P|257:213|212:213,1,65.625,6|0,0:0|0:0,0:0:0:0:
107,348,115392,5,8,0:0:0:0:
110,195,115555,1,12,0:0:0:0:
70,275,115718,1,8,0:0:0:0:
97,112,115881,1,12,0:0:0:0:
137,41,116044,5,2,0:0:0:0:
188,48,116125,1,2,0:0:0:0:
240,55,116207,1,2,0:0:0:0:
291,62,116288,1,2,0:0:0:0:
342,73,116370,1,2,0:0:0:0:
394,70,116451,1,2,0:0:0:0:
404,121,116533,1,2,0:0:0:0:
452,136,116615,1,2,0:0:0:0:
416,184,116696,5,8,0:0:0:0:
393,231,116778,1,0,0:0:0:0:
343,215,116859,1,12,0:0:0:0:
342,73,117022,1,8,0:0:0:0:
394,70,117103,1,0,0:0:0:0:
404,121,117185,1,12,0:0:0:0:
343,215,117348,5,2,0:0:0:0:
291,212,117429,1,2,0:0:0:0:
239,209,117511,1,2,0:0:0:0:
187,206,117592,1,2,0:0:0:0:
135,207,117674,1,2,0:0:0:0:
85,194,117755,1,2,0:0:0:0:
65,242,117837,1,2,0:0:0:0:
15,248,117919,1,2,0:0:0:0:
41,302,118000,5,8,0:0:0:0:
55,352,118082,1,0,0:0:0:0:
107,346,118163,1,12,0:0:0:0:
135,207,118326,1,8,0:0:0:0:
85,194,118407,1,0,0:0:0:0:
65,242,118490,1,12,0:0:0:0:
208,352,118653,5,4,0:0:0:0:
291,212,118816,2,8,L|276:144,1,65.625
168,92,118979,2,0,L|178:137,1,32.8125
160,92,119060,2,0,L|168:128,1,32.8125
152,92,119142,2,8,L|182:21,1,65.625
307,77,119305,6,0,P|277:91|262:119,1,65.625,2|0,0:0|0:0,0:0:0:0:
312,189,119468,2,0,P|291:214|289:246,1,65.625,8|0,0:0|0:0,0:0:0:0:
369,272,119631,2,0,P|361:303|372:333,1,65.625,2|0,0:0|0:0,0:0:0:0:
459,320,119794,2,0,P|465:351|488:374,1,65.625,8|0,0:0|0:0,0:0:0:0:
493,249,119957,6,0,P|494:216|476:189,1,65.625,2|0,0:0|0:0,0:0:0:0:
400,240,120120,2,0,P|387:210|359:192,1,65.625,8|0,0:0|0:0,0:0:0:0:
309,255,120283,2,0,P|284:233|252:229,1,65.625,2|0,0:0|0:0,0:0:0:0:
255,314,120446,2,0,P|224:304|193:314,1,65.625,8|0,0:0|0:0,0:0:0:0:
140,323,120609,5,2,0:0:0:0:
87,322,120691,1,0,0:0:0:0:
48,286,120772,1,8,0:0:0:0:
48,233,120854,1,0,0:0:0:0:
93,206,120935,5,2,0:0:0:0:
144,217,121017,1,0,0:0:0:0:
188,189,121098,1,8,0:0:0:0:
216,144,121180,1,0,0:0:0:0:
216,92,121261,5,2,0:0:0:0:
180,52,121343,1,0,0:0:0:0:
128,48,121424,1,8,0:0:0:0:
96,88,121506,1,0,0:0:0:0:
113,139,121587,5,2,0:0:0:0:
164,156,121669,1,0,0:0:0:0:
216,116,121750,1,8,0:0:0:0:
276,88,121832,1,0,0:0:0:0:
336,68,121913,5,2,0:0:0:0:
400,56,121995,1,0,0:0:0:0:
464,72,122076,1,8,0:0:0:0:
424,124,122158,1,0,0:0:0:0:
392,184,122240,5,2,0:0:0:0:
388,248,122321,1,0,0:0:0:0:
408,312,122403,1,8,0:0:0:0:
452,360,122484,1,0,0:0:0:0:
440,296,122566,5,2,0:0:0:0:
388,248,122647,1,0,0:0:0:0:
324,232,122729,1,8,0:0:0:0:
260,232,122810,1,0,0:0:0:0:
196,240,122892,5,2,0:0:0:0:
132,256,122973,1,0,0:0:0:0:
76,288,123055,1,8,0:0:0:0:
36,340,123136,1,0,0:0:0:0:
100,356,123218,6,12,L|177:339,1,65.625
252,336,123381,2,12,L|329:319,1,65.625
323,242,123544,2,12,L|246:225,1,65.625
175,225,123707,2,12,L|98:208,1,65.625
71,137,123870,5,2,0:0:0:0:
115,110,123951,1,2,0:0:0:0:
167,100,124033,1,2,0:0:0:0:
219,108,124115,1,2,0:0:0:0:
270,114,124196,1,2,0:0:0:0:
322,114,124278,1,2,0:0:0:0:
372,99,124359,1,2,0:0:0:0:
415,69,124441,1,2,0:0:0:0:
443,25,124522,5,6,0:0:0:0:
453,76,124604,2,0,P|453:117|439:146,1,65.625,2|0,0:0|0:0,0:0:0:0:
372,185,124767,1,2,0:0:0:0:
370,234,124848,2,0,P|381:266|421:295,1,65.625,2|0,0:0|0:0,0:0:0:0:
463,352,125011,1,2,0:0:0:0:
422,370,125093,1,0,0:0:0:0:
380,360,125175,6,0,L|315:364,1,65.625,2|8,0:0|0:0,0:0:0:0:
196,364,125338,2,0,L|168:296,1,65.625,2|8,0:0|0:0,0:0:0:0:
259,237,125500,2,0,L|324:233,1,65.625,2|8,0:0|0:0,0:0:0:0:
322,114,125663,2,0,L|257:118,1,65.625,2|8,0:0|0:0,0:0:0:0:
40,128,125827,6,0,L|434:155,1,393.75,4|0,0:0|0:0,0:0:0:0:
324,346,126805,2,0,P|349:277|476:269,1,196.875,4|0,0:0|0:0,0:0:0:0:
425,347,127131,6,0,L|206:11,1,393.75,4|0,0:0|0:0,0:0:0:0:
101,327,128109,2,0,P|133:261|52:163,1,196.875,4|0,0:0|0:0,0:0:0:0:
36,260,128435,6,0,L|430:190,1,393.75,4|0,0:0|0:0,0:0:0:0:
69,167,129413,2,0,P|131:238|101:331,1,196.875,4|0,0:0|0:0,0:0:0:0:
36,260,129740,1,8,0:0:0:0:
