osu file format v14

[General]
AudioFilename: Joker [Full Destiny].mp3
AudioLeadIn: 0
PreviewTime: 31750
Countdown: 0
SampleSet: Soft
StackLeniency: 0.3
Mode: 0
LetterboxInBreaks: 0
WidescreenStoryboard: 0

[Editor]
Bookmarks: 31908,52778,61908,94517,105930
DistanceSpacing: 0.8
BeatDivisor: 2
GridSize: 4
TimelineZoom: 1.800001

[Metadata]
Title:Joker
TitleUnicode:Joker
Artist:D.J.Nero
ArtistUnicode:D.J.Nero
Creator:09kami
Version:Easy
Source:BMS
Tags:BOF2010 Lsahi JJburstOwO -[Hikari]- Digital Emergency Exit 2 RENAISSANCE DreaM117er m1223961117
BeatmapID:901845
BeatmapSetID:405524

[Difficulty]
HPDrainRate:2
CircleSize:3
OverallDifficulty:2
ApproachRate:3
SliderMultiplier:0.7
SliderTickRate:1

[Events]
//Background and Video events
0,0,"1.png",0,0
//Break Periods
2,73853,82647
2,94722,103512
//Storyboard Layer 0 (Background)
//Storyboard Layer 1 (Fail)
//Storyboard Layer 2 (Pass)
//Storyboard Layer 3 (Foreground)
//Storyboard Sound Samples

[TimingPoints]
5827,326.086956521739,4,3,1,85,1,0
31914,-100,4,2,2,85,0,0
52783,-100,4,3,1,85,0,0
71044,-100,4,2,2,85,0,0
72919,-100,4,2,2,80,0,0
73653,-100,4,2,2,60,0,0
84087,-100,4,3,1,85,0,0
89305,-100,4,1,1,85,0,0
94522,-100,4,2,1,85,0,0
104957,-100,4,2,1,85,0,1
125826,-100,4,3,1,85,0,0

[Colours]
Combo1 : 255,153,153
Combo2 : 136,136,136
Combo3 : 17,136,255

[HitObjects]
144,88,5827,6,4,P|72:152|152:304,1,280,0|0,0:0|0:0,0:0:0:0:
360,304,8436,6,4,P|433:195|352:92,1,280,8|8,3:0|0:3,0:0:0:0:
164,216,11044,6,0,P|124:176|116:144,2,70,8|4|8,0:0|0:0|0:0,0:0:0:0:
272,192,12349,2,0,P|312:232|320:264,2,70,8|0|0,0:0|0:0|0:0,0:0:0:0:
220,292,13653,6,0,P|120:316|64:300,1,140,8|8,0:0|0:0,0:0:0:0:
72,196,14957,2,0,P|141:202|206:179,1,140,8|8,0:0|0:0,0:0:0:0:
248,76,16261,6,0,P|312:44|328:16,2,70,8|4|8,0:0|0:0|0:0,0:0:0:0:
336,144,17566,2,0,P|407:148|424:140,2,70,8|4|8,0:0|0:0|0:0,0:0:0:0:
296,240,18870,6,0,B|344:293|344:293|284:344,1,140,8|8,0:0|0:0,0:0:0:0:
188,296,20174,2,0,B|120:336|120:336|74:273,1,140,8|8,0:0|0:0,0:0:0:0:
144,192,21479,6,0,P|80:148|64:148,2,70,4|4|8,0:2|0:0|0:0,0:0:0:0:
184,88,22783,2,0,P|228:44|260:48,2,70,8|4|8,0:0|0:0|0:0,0:0:0:0:
256,176,24087,6,0,P|356:200|412:184,1,140,8|8,0:0|0:0,0:0:0:0:
456,104,25392,2,0,P|356:80|300:96,1,140,8|8,0:0|0:0,0:0:0:0:
256,176,26696,6,0,L|276:272,2,70,8|4|8,0:0|0:0|0:0,0:0:0:0:
168,244,28000,2,0,L|188:340,2,70,8|4|8,0:0|0:0|0:0,0:0:0:0:
76,312,29305,6,0,P|44:204|44:160,1,140,8|8,0:0|0:0,0:0:0:0:
116,92,30609,2,0,L|132:180,2,70,4|4|8,0:2|0:2|0:0,0:0:0:0:
216,40,31913,6,0,P|272:92|288:160,1,140,8|8,0:3|0:3,0:0:0:0:
260,260,33218,1,8,0:3:0:0:
180,336,33870,2,0,L|132:248,1,70,8|4,0:3|0:3,0:0:0:0:
120,224,34522,6,0,P|88:154|108:72,1,140,8|8,0:3|0:3,0:0:0:0:
192,152,35827,2,0,P|211:77|276:24,1,140,8|8,0:3|0:3,0:0:0:0:
312,132,37131,6,0,P|364:76|448:60,1,140,8|8,0:3|0:3,0:0:0:0:
480,156,38436,2,0,P|408:207|328:212,1,140,8|0,0:3|0:0,0:0:0:0:
276,292,39740,5,8,0:3:0:0:
168,328,40392,2,0,L|104:296,1,70,8|4,0:3|0:3,0:0:0:0:
64,260,41045,2,0,P|136:208|216:208,1,140,8|0,0:3|0:0,0:0:0:0:
192,92,42349,6,0,P|264:144|344:144,1,140,4|0,0:2|0:0,0:0:0:0:
404,84,43653,1,8,0:3:0:0:
428,192,44305,2,0,L|448:296,1,70,8|4,0:3|0:3,0:0:0:0:
404,304,44957,6,0,P|322:339|256:328,2,140,8|8|8,0:3|0:3|0:3,0:0:0:0:
328,220,46914,2,0,L|272:164,1,70,8|4,0:3|0:3,0:0:0:0:
264,116,47566,6,0,P|194:116|133:148,1,140,8|8,0:3|0:3,0:0:0:0:
36,200,48871,2,8,P|90:242|158:254,2,140,8|0|0,0:3|0:0|0:0,0:0:0:0:
80,96,50826,2,0,P|134:138|203:150,2,140,8|4|8,0:3|0:2|0:3,0:0:0:0:
36,204,52783,6,0,P|44:272|82:330,1,140,8|8,0:0|0:0,0:0:0:0:
196,328,54087,2,0,L|224:248,1,70,8|4,0:0|0:0,0:0:0:0:
240,212,54740,1,8,0:0:0:0:
276,108,55392,6,0,P|384:141|408:176,1,140,8|8,0:0|0:0,0:0:0:0:
460,252,56696,2,0,L|480:176,1,70,8|4,0:0|0:0,0:0:0:0:
492,132,57348,1,8,0:0:0:0:
424,44,58000,6,0,P|397:69|388:120,2,70,8|4|8,0:0|0:0|0:0,0:0:0:0:
312,40,59305,2,0,L|224:48,1,70,8|4,0:0|0:0,0:0:0:0:
188,52,59957,2,0,L|84:60,1,70,8|4,0:0|0:0,0:0:0:0:
68,80,60609,6,0,B|36:172|88:264|88:264|136:288|180:272,1,280,8|8,0:0|0:0,0:0:0:0:
252,192,62566,1,8,0:0:0:0:
332,116,63218,6,0,B|370:101|418:125|418:125|470:217|438:309,1,280,4|8,0:2|0:0,0:0:0:0:
328,316,65174,1,8,0:0:0:0:
216,316,65827,6,0,B|197:279|197:279|224:120|224:120|138:173|99:113|107:43|157:9|190:17|207:36|207:36|225:47|262:51|324:28,1,560,8|8,0:0|0:0,0:0:0:0:
392,180,69414,5,4,0:0:0:0:
432,220,69740,2,0,L|400:304,1,70,8|8,0:0|0:0,0:0:0:0:
352,272,70392,2,0,L|288:316,1,70,8|8,0:0|0:0,0:0:0:0:
256,192,71044,12,2,73653,3:0:0:0:
200,124,84087,6,0,L|128:56,2,70,8|4|8,0:0|0:0|0:0,0:0:0:0:
312,124,85392,2,0,L|384:56,2,70,0|4|8,0:0|0:0|0:0,0:0:0:0:
316,236,86696,6,0,L|388:304,2,70,8|4|8,0:0|0:0|0:0,0:0:0:0:
196,236,88001,2,0,L|124:304,2,70,0|0|8,0:0|0:0|0:0,0:0:0:0:
196,128,89305,6,0,B|229:16|376:46|376:46|387:227|387:227|304:168,1,490,8|8,0:3|0:3,0:0:0:0:
288,224,91914,6,0,B|364:264|364:264|198:336|198:336|105:219|195:136,1,490,8|2,0:3|0:2,0:0:0:0:
244,164,94522,5,2,0:0:0:0:
302,147,104957,6,0,P|296:96|312:52,2,70,0|4|8,0:3|0:3|0:3,0:0:0:0:
352,248,106261,1,8,0:3:0:0:
288,340,106913,1,8,0:3:0:0:
180,312,107566,6,0,L|88:340,2,70,8|4|8,0:3|0:3|0:3,0:0:0:0:
252,228,108870,1,8,0:3:0:0:
180,144,109522,1,8,0:3:0:0:
68,128,110174,6,0,L|48:212,2,70,8|4|8,0:3|0:3|0:3,0:0:0:0:
144,44,111479,2,0,B|271:32|424:71,1,280,8|8,0:3|0:3,0:0:0:0:
352,160,113436,2,0,B|225:148|72:187,1,280,8|8,0:3|0:3,0:0:0:0:
108,292,115392,5,8,0:3:0:0:
212,336,116044,2,0,L|284:328,2,70,8|4|8,0:3|0:3|0:3,0:0:0:0:
108,292,117348,6,0,B|124:240|124:240|288:152|288:152|284:100,1,280,8|8,0:3|0:3,0:0:0:0:
172,108,119305,2,0,L|88:152,2,70,8|4|8,0:3|0:3|0:3,0:0:0:0:
284,112,120609,5,8,0:3:0:0:
392,92,121261,1,8,0:3:0:0:
484,160,121913,1,8,0:3:0:0:
504,272,122566,1,8,0:3:0:0:
444,368,123218,6,0,P|399:366|372:344,1,70,8|0,0:3|0:0,0:0:0:0:
332,324,123870,1,8,0:3:0:0:
184,332,124522,6,0,B|205:295|166:247|166:161|216:136,1,210,4|4,0:3|0:3,0:0:0:0:
268,116,125826,5,8,0:0:0:0:
344,148,126316,1,8,0:0:0:0:
416,104,126805,6,8,B|368:44,1,70,8|8,0:0|0:0,0:0:0:0:
292,24,127620,1,8,0:0:0:0:
208,40,128109,6,8,B|160:96,1,70,8|4,0:0|0:2,0:0:0:0:
80,76,128924,1,8,0:0:0:0:
40,152,129413,6,8,B|80:216,1,70,8|8,0:3|0:0,0:0:0:0:
