osu file format v9

[General]
AudioFilename: HAERETICUSD_J_Amuro Vs MAX MAXIMIZERREFLEC BEAT limelight.mp3
AudioLeadIn: 0
PreviewTime: -1
Countdown: 1
SampleSet: Soft
StackLeniency: 0.7
Mode: 0
LetterboxInBreaks: 1

[Editor]
Bookmarks: 41654
DistanceSpacing: 0.3
BeatDivisor: 4
GridSize: 4

[Metadata]
Title:HAERETICUS
Artist:D.J.Amuro Vs MAX MAXIMIZER
Creator:Black Lotus
Version:1491
Source:
Tags:

[Difficulty]
HPDrainRate:6
CircleSize:4
OverallDifficulty:6
ApproachRate:9
SliderMultiplier:1.8
SliderTickRate:1

[Events]
//Background and Video events
0,0,"haereticus.jpg"
//Break Periods
2,61469,62977
2,82239,83746
//Storyboard Layer 0 (Background)
//Storyboard Layer 1 (Fail)
//Storyboard Layer 2 (Pass)
//Storyboard Layer 3 (Foreground)
//Storyboard Sound Samples
//Background Colour Transformations
3,100,163,162,255

[TimingPoints]
1270,288.461538461538,4,2,0,100,1,0
5741,-200,4,2,0,100,0,0
6462,-100,4,2,0,100,0,0
8048,-100,4,2,0,100,0,0
10212,-50,4,2,0,100,0,0
10500,-100,4,2,0,100,0,0
11654,-100,4,2,0,100,0,0
13673,-50,4,2,0,100,0,0
61269,-25,4,2,0,100,0,0
63577,-200,4,2,0,100,0,0
70500,-133.333333333333,4,2,0,100,0,0
82039,-25,4,2,0,100,0,0
83193,-12.5,4,2,0,100,0,0
84346,-100,4,2,0,100,0,1
102808,-6.25,4,2,0,100,0,0

[HitObjects]
448,64,1270,5,0
88,76,1846,2,0,B|48:140|112:208,1,135
216,120,2423,1,0
112,268,2712,1,0
292,288,3000,1,0
396,140,3289,1,0
232,212,3577,1,0
68,288,3866,5,0
232,212,4154,2,0,B|400:140,1,180
228,80,4731,2,0,B|84:212,1,180
95,201,5308,1,0
440,300,5885,5,0
364,256,6029,1,0
440,300,6173,1,0
360,344,6318,1,0
284,300,6462,2,0,B|92:300,1,180
100,120,7039,1,0
164,56,7183,1,0
100,120,7327,1,0
188,144,7471,1,0
284,296,7616,1,0
376,140,7760,1,0
188,144,7904,1,0
256,192,8048,12,0,9058
68,312,9346,6,0,B|100:132,1,180
68,312,9923,1,0
216,208,10068,1,0
360,100,10212,2,0,B|48:328,1,360
256,192,10644,12,0,12519
420,64,12808,5,0
244,104,12952,1,0
376,228,13096,1,0
200,188,13241,1,0
52,292,13385,1,0
220,352,13529,1,0
316,200,13673,6,0,B|144:128,1,180
332,136,13962,2,0,B|492:48,1,180
372,184,14250,2,0,B|496:328,1,180
308,340,14539,2,0,B|64:64,1,360
308,340,15116,1,0
488,28,15404,5,0
316,76,15548,1,0
68,336,15837,1,0
240,288,15981,1,0
16,8,16269,1,0
132,148,16414,1,0
448,316,16702,1,0
340,172,16846,1,0
176,248,17135,1,0
36,364,17423,5,0
168,128,17856,2,0,B|360:128,1,180
384,128,18144,2,0,B|384:336,1,180
384,344,18433,2,0,B|160:344,1,180
168,348,18721,2,0,B|168:132,1,180
168,132,19010,1,0
168,132,19154,1,0
20,28,19443,2,0,B|332:248,1,360
468,328,20019,5,0
484,240,20164,1,0
404,276,20308,1,0
404,188,20452,1,0
480,140,20596,1,0
404,88,20741,1,0
328,136,20885,1,0
80,96,21173,5,0
160,336,21462,1,0
396,256,21750,1,0
304,20,22039,1,0
256,88,22904,5,0
256,88,22976,1,0
256,88,23048,1,0
256,88,23120,1,0
184,136,23193,5,0
160,164,23337,1,0
140,196,23481,1,0
120,228,23625,1,0
104,260,23769,1,0
76,336,23986,5,0
92,336,24058,1,0
108,332,24130,1,0
124,328,24202,1,0
140,320,24274,1,0
156,312,24346,1,0
236,268,24491,6,0,B|320:236|352:116,1,180
368,48,24779,2,0,B|260:76|216:184,1,180
176,228,25068,2,0,B|80:184|64:92,1,180
64,8,25356,2,0,B|152:40|180:152,1,180
252,188,25644,2,0,B|424:248,1,180
421,247,25933,1,0
421,247,26077,5,0
304,112,26221,1,0
132,52,26366,1,0
252,188,26510,1,0
344,340,26654,6,0,B|440:320|468:200,1,180
452,36,26943,2,0,B|360:76|328:176,1,180
208,32,27231,2,0,B|112:80|80:176,1,180
68,340,27519,2,0,B|176:312|208:192,1,180
344,116,27808,1,0
292,288,28096,1,0
292,288,28385,5,0
124,220,28529,1,0
176,48,28673,1,0
344,116,28818,1,0
292,288,28962,5,0
256,288,29250,1,0
220,280,29539,1,0
188,264,29827,1,0
160,240,30116,1,0
100,152,30404,5,0
100,152,30476,1,0
100,152,30548,1,0
100,152,30620,1,0
100,152,30693,1,0
168,92,30837,1,0
256,72,30981,1,0
344,92,31125,1,0
420,136,31269,1,0
376,312,31558,5,0
268,168,31846,1,0
176,324,32135,1,0
84,168,32423,1,0
96,144,32495,1,0
116,124,32568,1,0
140,108,32640,1,0
172,108,32712,1,0
200,108,32784,1,0
228,116,32856,1,0
248,132,32928,1,0
268,152,33000,1,0
376,148,33289,1,0
336,48,33577,5,0
276,116,33721,1,0
216,184,33866,1,0
156,252,34010,1,0
96,320,34154,2,0,B|340:40,1,360
448,188,34731,1,0
360,344,35019,1,0
340,164,35308,5,0
188,256,35452,1,0
176,76,35596,1,0
24,176,35741,1,0
120,24,35885,5,0
120,24,36173,5,0
280,108,36318,1,0
280,108,36606,5,0
192,264,36750,1,0
192,264,37039,5,0
360,328,37183,1,0
360,328,37327,2,0,B|496:200|496:200|360:60,1,360
344,60,37760,5,0
308,48,37904,1,0
272,48,38048,1,0
236,52,38193,1,0
200,60,38337,1,0
100,96,38769,5,0
100,96,39058,1,0
144,152,39346,1,0
120,220,39635,1,0
124,292,39923,1,0
144,320,40068,1,0
176,336,40212,1,0
212,348,40356,1,0
248,352,40500,6,0,B|336:340|416:268|496:104,1,360
493,108,41077,1,0
493,108,41221,1,0
493,108,41366,1,0
392,80,41654,5,0
356,164,41798,1,0
304,88,41943,1,0
264,168,42087,1,0
320,240,42231,1,0
280,320,42375,1,0
228,244,42519,1,0
188,324,42664,1,0
188,324,42808,5,0
432,60,43385,1,0
68,56,43962,5,0
112,56,44034,1,0
152,80,44106,1,0
168,120,44178,1,0
140,156,44250,1,0
112,192,44322,1,0
104,236,44394,1,0
116,280,44467,1,0
156,304,44539,1,0
200,312,44611,1,0
244,296,44683,1,0
276,264,44755,1,0
280,220,44827,1,0
292,176,44899,1,0
332,156,44971,1,0
376,164,45044,1,0
408,196,45116,1,0
84,332,45693,5,0
72,288,45765,1,0
80,244,45837,1,0
96,200,45909,1,0
128,168,45981,1,0
168,144,46053,1,0
212,140,46125,1,0
256,144,46197,1,0
300,132,46269,1,0
472,76,46558,5,0
440,160,46702,1,0
400,240,46846,1,0
400,240,46919,1,0
400,240,46991,1,0
248,336,47279,5,0
220,304,47351,1,0
196,264,47423,1,0
192,220,47495,1,0
220,184,47568,1,0
260,164,47640,1,0
304,164,47712,1,0
344,180,47784,1,0
384,200,47856,1,0
428,212,47928,1,0
468,196,48000,1,0
144,36,48577,5,0
128,76,48649,1,0
116,120,48721,1,0
112,164,48794,1,0
128,208,48866,1,0
156,244,48938,1,0
196,264,49010,1,0
240,264,49082,1,0
284,248,49154,5,0
320,224,49226,1,0
364,212,49298,1,0
408,220,49370,1,0
444,248,49443,1,0
456,292,49515,1,0
440,336,49587,1,0
404,360,49659,1,0
364,340,49731,5,0
324,316,49803,1,0
288,288,49875,1,0
272,248,49947,1,0
284,204,50019,1,0
276,160,50092,1,0
252,120,50164,1,0
224,84,50236,1,0
184,60,50308,1,0
112,112,50452,5,0
68,188,50596,1,0
104,272,50741,1,0
148,192,50885,1,0
324,156,51173,2,0,B|468:32,2,180
116,104,52039,6,0,B|260:216,1,180
388,312,52616,1,0
256,128,53193,5,0
168,128,53337,1,0
256,128,53481,1,0
256,40,53625,1,0
256,128,53769,1,0
344,128,53914,1,0
256,128,54058,1,0
252,216,54202,1,0
252,304,54346,1,0
252,304,54923,1,0
252,304,55500,5,0
176,256,55644,1,0
248,204,55789,1,0
320,152,55933,1,0
248,100,56077,1,0
176,152,56221,1,0
248,204,56366,1,0
320,256,56510,1,0
392,204,56654,1,0
392,204,57231,1,0
392,204,57808,5,0
448,136,57952,1,0
376,84,58096,1,0
320,156,58241,1,0
256,220,58385,1,0
188,280,58529,1,0
128,212,58673,1,0
196,152,58818,1,0
264,96,58962,5,0
268,184,59106,1,0
344,140,59250,1,0
340,228,59394,1,0
420,188,59539,1,0
420,276,59683,5,0
344,324,59827,1,0
424,364,59971,1,0
496,312,60116,1,0
500,224,60260,6,0,B|340:136,1,180
340,228,60548,2,0,B|184:140,1,180
196,228,60837,1,0
196,228,60981,2,0,B|28:140,1,180
48,324,61269,1,0
56,40,63577,5,0
56,84,63866,1,0
56,128,64154,1,0
56,128,64443,1,0
56,172,64731,1,0
56,172,65019,1,0
56,172,65308,1,0
376,336,65885,5,0
376,336,66173,1,0
376,336,66462,1,0
376,292,66750,1,0
376,292,67039,1,0
376,248,67327,1,0
376,204,67616,1,0
376,160,67904,2,0,B|376:60,1,90
296,40,68769,5,0
280,52,68914,1,0
268,72,69058,1,0
264,92,69202,1,0
264,116,69346,1,0
272,136,69491,1,0
276,160,69635,1,0
276,184,69779,1,0
272,208,69923,1,0
260,224,70068,1,0
244,240,70212,1,0
224,252,70356,1,0
204,260,70500,1,0
84,196,71077,5,0
80,180,71149,1,0
80,164,71221,1,0
80,148,71294,1,0
84,132,71366,1,0
92,116,71438,1,0
100,100,71510,1,0
108,84,71582,1,0
120,72,71654,1,0
132,60,71726,1,0
148,52,71798,1,0
164,48,71870,1,0
180,48,71943,1,0
196,52,72015,1,0
212,60,72087,1,0
224,72,72159,1,0
232,88,72231,1,0
240,104,72303,1,0
248,120,72375,1,0
260,132,72447,1,0
276,140,72519,1,0
292,140,72592,1,0
308,140,72664,1,0
324,132,72736,1,0
336,120,72808,1,0
440,36,73096,6,0,B|488:112|452:192,1,135.000005149842,0|0
228,324,73962,5,0
212,316,74034,1,0
200,304,74106,1,0
192,288,74178,1,0
188,272,74250,5,0
188,256,74322,1,0
192,240,74394,1,0
204,228,74467,1,0
216,216,74539,5,0
228,204,74611,1,0
232,188,74683,1,0
232,172,74755,1,0
228,156,74827,5,0
220,140,74899,1,0
208,128,74971,1,0
196,116,75044,1,0
184,108,75116,5,0
168,104,75188,1,0
152,100,75260,1,0
136,100,75332,1,0
120,104,75404,5,0
104,112,75476,1,0
92,124,75548,1,0
80,136,75620,1,0
72,152,75693,5,0
68,168,75765,1,0
64,184,75837,1,0
64,200,75909,5,0
64,216,75981,1,0
68,232,76053,1,0
80,244,76125,1,0
92,252,76197,1,0
108,256,76269,5,0
124,260,76342,1,0
140,260,76414,1,0
156,260,76486,1,0
172,256,76558,5,0
188,248,76630,1,0
200,236,76702,1,0
212,228,76774,1,0
228,224,76846,5,0
244,224,76919,1,0
256,232,76991,1,0
268,244,77063,1,0
280,256,77135,5,0
296,260,77207,1,0
312,260,77279,1,0
328,252,77351,1,0
344,244,77423,5,0
356,232,77495,1,0
368,220,77568,1,0
380,208,77640,1,0
384,192,77712,5,0
380,176,77784,1,0
376,160,77856,1,0
368,144,77928,1,0
356,132,78000,1,0
236,68,78577,5,0
104,100,79154,1,0
60,228,79731,5,0
76,228,79803,1,0
92,224,79875,1,0
108,216,79947,1,0
124,208,80019,5,0
136,196,80092,1,0
148,184,80164,1,0
156,172,80236,1,0
168,160,80308,5,0
180,152,80380,1,0
192,144,80452,1,0
208,136,80524,1,0
224,128,80596,5,0
240,120,80669,1,0
256,116,80741,1,0
272,112,80813,1,0
288,108,80885,5,0
304,108,80957,1,0
320,108,81029,1,0
336,108,81101,1,0
352,112,81173,5,0
368,116,81245,1,0
384,124,81318,1,0
396,136,81390,1,0
408,148,81462,5,0
420,160,81534,1,0
428,176,81606,1,0
436,192,81678,1,0
444,208,81750,5,0
452,224,81822,1,0
456,240,81894,1,0
460,256,81967,1,0
460,272,82039,1,0
432,68,84346,5,0
448,156,84635,1,0
376,104,84923,1,0
392,192,85212,1,0
320,136,85500,1,0
336,224,85789,1,0
408,280,86077,5,0
364,284,86221,1,0
316,284,86366,1,0
272,288,86510,1,0
228,288,86654,1,0
208,200,86943,1,0
164,280,87231,1,0
148,192,87519,1,0
100,268,87808,1,0
88,176,88096,1,0
80,88,88385,5,0
92,44,88529,1,0
136,48,88673,1,0
152,92,88818,1,0
116,116,88962,1,0
204,120,89250,1,0
296,124,89539,1,0
384,124,89827,1,0
432,200,90116,1,0
372,268,90404,1,0
280,268,90693,5,0
244,292,90837,1,0
204,312,90981,1,0
164,292,91125,1,0
124,268,91269,1,0
64,200,91558,1,0
124,112,91846,1,0
236,56,92135,1,0
380,68,92423,1,0
472,200,92712,1,0
472,200,92784,1,0
472,200,92856,1,0
472,200,92928,1,0
472,200,93000,1,0
156,312,93577,5,0
136,232,93721,1,0
208,272,93866,1,0
188,192,94010,1,0
260,232,94154,1,0
240,152,94298,1,0
300,104,94443,5,0
228,72,94587,1,0
164,124,94731,1,0
176,204,94875,1,0
256,224,95019,1,0
324,176,95164,1,0
388,124,95308,6,0,B|28:184,1,360
88,240,96029,1,0
160,276,96173,1,0
236,304,96318,1,0
316,288,96462,1,0
384,240,96606,1,0
432,172,96750,1,0
312,60,97039,5,0
272,56,97111,1,0
232,68,97183,1,0
200,92,97255,1,0
172,120,97327,1,0
148,196,97471,5,0
208,252,97616,1,0
236,176,97760,1,0
304,132,97904,2,0,B|396:192|360:304,1,180
292,324,98337,5,0
204,308,98481,1,0
248,228,98625,1,0
160,224,98769,1,0
204,144,98914,5,0
116,148,99058,1,0
156,68,99202,1,0
244,76,99346,1,0
288,156,99491,5,0
324,76,99635,1,0
364,156,99779,1,0
404,76,99923,2,0,B|468:248,1,180
308,328,100500,5,0
296,328,100572,1,0
284,324,100644,1,0
272,316,100717,1,0
264,304,100789,5,0
256,292,100861,1,0
248,280,100933,1,0
244,268,101005,1,0
240,256,101077,5,0
240,244,101149,1,0
240,232,101221,1,0
240,220,101294,1,0
240,208,101366,5,0
244,196,101438,1,0
244,184,101510,1,0
244,172,101582,1,0
240,160,101654,5,0
232,148,101726,1,0
224,136,101798,1,0
212,128,101870,1,0
200,120,101943,5,0
188,112,102015,1,0
176,108,102087,1,0
164,104,102159,1,0
152,100,102231,5,0
140,100,102303,1,0
128,100,102375,1,0
116,104,102447,1,0
104,108,102519,5,0
92,116,102592,1,0
84,128,102664,1,0
76,140,102736,1,0
68,152,102808,1,2
