osu file format v9

[General]
AudioFilename: [IIDX 19 Lincle] F - D.J.Amuro [__].mp3
AudioLeadIn: 1996
PreviewTime: 83375
Countdown: 1
SampleSet: Normal
StackLeniency: 0.7
Mode: 0
LetterboxInBreaks: 1

[Editor]
Bookmarks: 7790,64698,102466
DistanceSpacing: 1.2
BeatDivisor: 4
GridSize: 8

[Metadata]
Title:F
Artist:D.J.Amuro
Creator:fartownik
Version:Normal
Source:beatmania IIDX
Tags:lincle 19 dj taka

[Difficulty]
HPDrainRate:4
CircleSize:4
OverallDifficulty:4
ApproachRate:5
SliderMultiplier:0.499999999999999
SliderTickRate:1

[Events]
//Background and Video events
0,0,"F.jpg"
//Break Periods
2,58640,63474
//Storyboard Layer 0 (Background)
//Storyboard Layer 1 (Fail)
//Storyboard Layer 2 (Pass)
//Storyboard Layer 3 (Foreground)
//Storyboard Sound Samples
//Background Colour Transformations
3,100,163,162,255

[TimingPoints]
778,389.61038961039,4,2,0,100,1,0
6970,-50,4,2,1,75,0,0
7063,-50,4,2,1,75,0,0
20940,-50,4,1,1,75,0,0
41431,-50,4,1,0,35,0,0
44365,-50,4,1,1,75,0,0
46015,-50,4,1,1,75,0,0
58453,-50,4,1,1,70,0,0
70853,-100,4,2,2,60,0,0
76886,-50,4,2,1,65,0,0
80209,-50,4,1,1,65,0,0
83375,-50,4,1,1,65,0,1
111427,-50,4,1,1,80,0,0

[Colours]
Combo1 : 165,0,200
Combo2 : 226,255,28
Combo3 : 240,156,0

[HitObjects]
320,328,778,2,0,B|320:304|320:304|296:272|296:272|296:232,1,99.9999999999998,4|2
192,56,2336,2,0,B|192:80|192:80|216:112|216:112|216:152,1,99.9999999999998,4|2
395,72,3894,6,0,B|339:72,1,49.9999999999999,4|0
300,148,4674,2,0,B|356:148,1,49.9999999999999,2|0
392,224,5453,2,0,B|392:272,2,49.9999999999999,4|0|2
336,224,6622,1,0
256,312,7011,6,0,B|208:304|176:256,1,99.9999999999998,0|2
256,168,7790,2,0,B|304:176|336:224,1,99.9999999999998,0|2
184,168,8570,5,2
112,168,8959,1,2
40,168,9349,2,0,B|24:240,2,74.9999999999999
48,112,10128,6,0,B|64:64|104:32,1,99.9999999999998,2|0
184,120,10907,2,0,B|168:168|128:200,1,99.9999999999998,2|0
256,120,11687,5,2
320,160,12076,1,2
312,232,12466,2,0,B|304:280,1,49.9999999999999,0|0
256,320,12855,2,0,B|256:272,1,49.9999999999999,2|0
200,232,13245,6,0,B|208:280,7,49.9999999999999,4|0|2|0|0|0|2|0
152,272,14803,6,0,B|191:300,7,49.9999999999999,4|0|2|0|0|0|2|0
144,336,16362,6,0,B|191:327,3,49.9999999999999,4|0|2|0
192,384,17141,2,0,B|220:344,3,49.9999999999999,4|0|2|0
264,384,17920,6,0,B|255:335,1,49.9999999999999,2|4
312,336,18310,2,0,B|272:308,1,49.9999999999999,2|4
320,272,18700,2,0,B|271:280,1,49.9999999999999,2|4
272,224,19090,2,0,B|244:264,1,49.9999999999999,2|4
216,208,19479,5,2
256,192,19674,12,4,21037
136,200,21427,5,2
256,208,21816,1,0
136,224,22206,1,2
256,248,22596,6,0,B|256:272|272:296|304:304|328:300,1,99.9999999999998,0|2
392,192,23375,2,0,B|392:168|376:144|344:136|320:142,2,99.9999999999998,2|2|4
272,184,24544,5,2
392,176,24933,2,0,B|400:152|392:128,1,49.9999999999999,0|2
336,96,25323,2,0,B|328:120|336:144,1,49.9999999999999,0|2
344,208,25713,6,0,B|360:256|344:312,1,99.9999999999998,0|2
304,352,26297,2,0,B|256:376|208:352,1,99.9999999999998,0|0
166,306,26881,2,0,B|152:256|168:208,1,99.9999999999998,2|4
176,88,27661,5,2
184,208,28050,1,0
200,88,28440,1,2
208,208,28829,6,0,B|256:208|296:152,1,99.9999999999998,0|2
296,48,29609,2,0,B|256:40|216:48,1,74.9999999999999,0|2
136,96,30193,2,0,B|104:192,1,99.9999999999998,2|0
104,248,30778,6,0,B|112:304|176:320,1,99.9999999999998,2|0
208,360,31362,2,0,B|256:328|304:362,1,99.9999999999998,2|0
344,317,31946,2,0,B|400:304|408:248,3,99.9999999999998,0|2|0|2
408,128,33505,6,0,B|352:128,1,49.9999999999999,4|0
304,104,33894,2,0,B|256:128|208:104,2,99.9999999999998,2|0|2
256,192,35063,6,0,B|304:200,1,49.9999999999999
248,216,35452,2,0,B|288:248,1,49.9999999999999,2|0
232,232,35842,2,0,B|240:288,1,49.9999999999999,0|2
216,232,36232,1,2
104,256,36622,6,0,B|160:256,1,49.9999999999999,4|0
208,280,37011,2,0,B|256:256|304:280,1,99.9999999999998,2|2
376,336,37693,1,2
392,248,37985,1,2
344,216,38180,6,0,B|304:184|304:128,1,99.9999999999998,0|2
208,128,38959,2,0,B|208:184|168:216,1,99.9999999999998,2|2
48,184,39739,5,4
104,80,40128,2,0,B|128:128,1,49.9999999999999,2|0
136,64,40518,2,0,B|160:112,1,49.9999999999999
168,48,40907,2,0,B|192:96,1,49.9999999999999,2|0
200,32,41297,1,0
344,48,41687,6,0,B|320:96,1,49.9999999999999,2|0
256,104,42076,2,2,B|256:152,1,49.9999999999999
200,192,42466,2,0,B|224:240,1,49.9999999999999,2|0
256,296,42855,5,4
256,192,43050,12,0,45583
288,272,45972,6,0,B|344:264|368:216,1,99.9999999999998,0|2
368,160,46557,2,0,B|344:113|288:105,1,99.9999999999998,0|0
226,107,47141,1,2
144,192,47531,6,0,B|96:200,1,49.9999999999999
152,216,47920,2,0,B|112:248,1,49.9999999999999,2|0
168,232,48310,2,0,B|160:288,1,49.9999999999999,0|2
184,232,48700,1,2
224,112,49089,6,0,B|168:120|144:168,1,99.9999999999998,0|2
144,224,49674,2,0,B|167:270|223:278,1,99.9999999999998,0|0
286,277,50258,2,0,B|336:256,1,49.9999999999999,2|0
384,280,50648,6,0,B|384:176,1,99.9999999999998,2|2
384,136,51232,1,2
288,64,51622,1,0
232,64,51816,2,0,B|192:96,1,49.9999999999999,2|0
152,136,52206,6,0,B|112:176|56:168,3,99.9999999999998,2|2|2|2
104,280,53765,2,0,B|144:240|200:248,3,99.9999999999998,2|2|2|2
256,80,55323,5,2
368,192,55713,1,2
256,304,56102,1,2
144,192,56492,1,2
256,192,56881,5,4
256,192,57076,12,4,58440
344,80,64674,5,4
224,104,65063,2,0,B|184:112|168:152,1,74.9999999999999
168,184,65453,2,0,B|168:288,2,99.9999999999998,2|2|0
288,152,66622,6,0,B|328:160|344:200,1,74.9999999999999
344,232,67012,2,0,B|344:336,1,99.9999999999998,2|0
463,321,67790,6,0,B|415:297,2,49.9999999999999,2|2|2
419,264,68375,2,0,B|467:240,2,49.9999999999999,2|2|2
464,200,68959,2,0,B|416:176,1,49.9999999999999,2|0
256,192,69349,12,4,70907
256,192,71687,5,2
112,208,72466,5,4
256,232,73245,1,2
392,256,74024,6,4,B|448:272,1,49.9999999999999,4|0
392,304,74803,2,0,B|344:320,1,49.9999999999999,2|0
281,302,75583,6,0,B|257:294|233:302,2,49.9999999999999,4|0|2
256,352,76752,1,0
224,240,77141,6,0,B|184:208|192:144,1,99.9999999999998,0|2
288,216,77920,2,0,B|328:248|320:312,1,99.9999999999998,0|2
256,152,78700,5,2
328,56,79089,1,2
448,64,79479,2,0,B|480:88|496:120,2,74.9999999999999,0|2|0
416,112,80258,6,0,B|384:152,3,49.9999999999999,0|0|0|0
328,176,81037,2,0,B|296:216,3,49.9999999999999,0|0|0|0
240,232,81816,2,0,B|208:272,3,49.9999999999999,0|0|2|0
152,296,82595,2,0,B|120:336,3,49.9999999999999,0|0|2|0
64,320,83375,6,0,B|48:272|0:240,3,99.9999999999998,6|2|2|2
3,141,84933,2,0,B|48:112|64:64,1,99.9999999999998,0|2
176,24,85713,2,0,B|200:72,1,49.9999999999999
256,96,86102,2,0,B|256:48,1,49.9999999999999,2|0
312,32,86492,6,0,B|288:80|312:128,2,99.9999999999998,2|2|0
408,120,87661,2,0,B|408:168,1,49.9999999999999,2|0
408,232,88050,5,0
316,312,88440,1,2
195,312,88829,1,0
104,232,89219,2,0,B|104:184,1,49.9999999999999,2|0
104,128,89609,6,0,B|152:152|200:128,3,99.9999999999998,4|2|0|2
312,96,91167,2,0,B|360:71|408:95,3,99.9999999999998,0|2|0|2
360,208,92726,6,0,B|352:256,1,49.9999999999999,2|0
320,312,93115,2,0,B|280:344,1,49.9999999999999,2|0
231,343,93505,2,0,B|192:312,1,49.9999999999999,2|0
160,257,93894,2,0,B|152:208,1,49.9999999999999,2|0
152,152,94284,5,4
256,88,94674,1,2
256,88,94868,2,0,B|312:88|352:120,1,99.9999999999998
376,176,95453,2,0,B|376:224,1,49.9999999999999,2|0
352,280,95842,6,0,B|312:312|256:296,1,99.9999999999998,4|2
168,216,96622,2,0,B|208:184|264:200,1,99.9999999999998,0|2
292,68,97401,6,0,B|257:103,1,49.9999999999999,2|0
291,140,97790,2,0,B|256:105,1,49.9999999999999,0|2
220,140,98180,2,0,B|255:105,1,49.9999999999999,2|0
220,69,98570,2,0,B|255:104,1,49.9999999999999,2|2
312,112,98959,6,0,B|360:112|360:112|384:88|408:112|408:112|464:112,1,150,4|0
432,168,99739,2,0,B|408:216,2,49.9999999999999,2|0|0
472,216,100323,1,0
432,264,100518,6,0,B|384:352,2,99.9999999999998,2|2|0
320,312,101687,2,0,B|349:261,1,49.9999999999999,2|0
360,240,102076,6,0,B|336:248|312:240,1,49.9999999999999,4|0
280,184,102466,2,0,B|256:176|232:184,1,49.9999999999999,2|0
200,240,102855,2,0,B|152:248|96:240,1,99.9999999999998,0|2
152,128,103635,6,0,B|176:136|200:128,1,49.9999999999999,0|0
232,80,104025,2,0,B|256:72|280:80,1,49.9999999999999,2|0
320,128,104414,2,0,B|344:136|368:128,3,49.9999999999999,2|2|2|2
304,192,105193,6,0,B|352:192,7,49.9999999999999,6|0|0|0|0|0|0|0
256,240,106752,6,0,B|256:288,7,49.9999999999999,6|0|0|0|0|0|0|0
208,192,108310,6,0,B|160:192,3,49.9999999999999,6|0|0|0
256,144,109089,2,0,B|256:96,3,49.9999999999999,2|0|0|0
256,32,109868,5,4
256,192,109966,12,4,111427
