osu file format v9

[General]
AudioFilename: [IIDX 19 Lincle] F - D.J.Amuro [__].mp3
AudioLeadIn: 1996
PreviewTime: 83375
Countdown: 1
SampleSet: Normal
StackLeniency: 0.7
Mode: 0
LetterboxInBreaks: 1

[Editor]
Bookmarks: 7790,64698,102466
DistanceSpacing: 1.2
BeatDivisor: 4
GridSize: 8

[Metadata]
Title:F
Artist:D.J.Amuro
Creator:fartownik
Version:Hyper
Source:beatmania IIDX
Tags:lincle 19 dj taka

[Difficulty]
HPDrainRate:6
CircleSize:4
OverallDifficulty:6
ApproachRate:7
SliderMultiplier:0.699999999999999
SliderTickRate:1

[Events]
//Background and Video events
0,0,"F.jpg"
//Break Periods
2,58640,63774
//Storyboard Layer 0 (Background)
//Storyboard Layer 1 (Fail)
//Storyboard Layer 2 (Pass)
//Storyboard Layer 3 (Foreground)
//Storyboard Sound Samples
//Background Colour Transformations
3,100,163,162,255

[TimingPoints]
778,389.61038961039,4,2,0,80,1,0
6970,-50,4,2,1,75,0,0
7063,-50,4,2,1,75,0,0
19576,-50,4,2,1,20,0,0
20999,-50,4,1,1,75,0,0
41431,-50,4,1,0,35,0,0
42758,-50,4,1,1,50,0,0
44365,-50,4,1,1,75,0,0
46015,-50,4,1,1,75,0,0
58453,-50,4,1,1,70,0,0
70859,-100,4,2,2,70,0,0
76886,-50,4,2,1,65,0,0
80209,-50,4,1,1,65,0,0
83375,-50,4,1,1,80,0,1
111427,-50,4,1,1,10,0,0
113667,-50,4,2,1,5,0,0

[Colours]
Combo1 : 165,0,200
Combo2 : 226,255,28
Combo3 : 240,156,0

[HitObjects]
72,104,778,2,0,B|120:104|120:104|152:136|152:136|208:136,1,140,4|2
440,280,2336,2,0,B|392:280|392:280|360:248|360:248|304:248,1,140,4|2
208,48,3894,6,0,B|208:120,1,69.9999999999999,4|2
304,224,4674,2,0,B|304:144,1,69.9999999999999,0|2
208,264,5453,2,0,B|208:336,2,69.9999999999999,4|2|2
256,144,6622,2,0,B|248:120,3,17.5,2|0|0|0
288,104,7011,6,0,B|320:128|352:136,1,69.9999999999999,0|2
416,192,7401,2,0,B|384:216|352:224,1,69.9999999999999,2|0
296,288,7790,6,0,B|328:312|360:320,1,69.9999999999999,2|0
384,312,8083,1,0
416,320,8180,2,0,B|455:314|482:298,1,69.9999999999999,2|0
296,288,8570,6,0,B|264:264|232:256,1,69.9999999999999,0|2
168,200,8960,2,0,B|200:176|232:168,1,69.9999999999999,2|0
256,88,9349,2,0,B|272:48,2,35,2|0|0
229,73,9641,2,0,B|189:73|157:57|141:25,1,105,2|2
141,25,10128,6,0,B|108:88,1,69.9999999999999,0|2
181,129,10518,2,0,B|149:193,1,69.9999999999999,2|0
117,273,10907,2,0,B|149:289|189:289,1,69.9999999999999,2|2
205,287,11200,1,0
225,281,11297,2,0,B|261:294,3,35,2|0|0|0
240,264,11687,6,0,B|256:232|288:216,1,69.9999999999999,2|2
368,176,12076,2,0,B|352:144|320:128,1,69.9999999999999,2|0
301,123,12368,1,0
282,115,12466,6,0,B|249:98|233:66,1,69.9999999999999,2|0
320,40,12855,2,0,B|352:56|368:88,1,69.9999999999999,2|0
440,136,13245,6,0,B|384:184,1,69.9999999999999,4|0
264,224,13635,2,0,B|320:176,1,69.9999999999999,2|0
248,144,14024,2,0,B|192:192,1,69.9999999999999,0|0
72,232,14414,2,0,B|128:184,1,69.9999999999999,2|0
72,232,14803,6,0,B|80:272|112:288,1,69.9999999999999,4|0
152,224,15193,2,0,B|192:216|208:184,1,69.9999999999999,2|0
144,144,15583,2,0,B|136:104|104:88,1,69.9999999999999,0|0
64,152,15973,2,0,B|24:160|8:192,1,69.9999999999999,2|0
144,144,16362,6,0,B|216:128,1,69.9999999999999,4|0
256,136,16654,1,0
299,128,16752,2,0,B|368:144,1,69.9999999999999,2|4
368,240,17141,6,0,B|299:255,1,69.9999999999999,4|0
256,248,17433,1,0
212,255,17531,2,0,B|144:240,1,69.9999999999999,2|4
88,320,17920,5,2
88,320,18115,1,4
64,256,18310,1,2
64,256,18505,1,4
88,192,18700,1,2
88,192,18894,1,4
64,128,19089,1,2
64,128,19284,1,4
88,64,19479,5,0
256,192,19576,12,4,21037
392,296,21427,6,0,B|368:272|336:256,1,69.9999999999999,2|0
256,224,21816,2,0,B|192:256|120:240,2,140,0|2|0
256,56,22985,2,0,B|240:128,1,69.9999999999999,2|0
320,88,23375,2,0,B|304:160,1,69.9999999999999,2|0
384,120,23765,1,2
368,200,23959,1,2
368,200,24154,5,4
120,88,24544,2,0,B|144:112|176:128,1,69.9999999999999,2|0
256,112,24933,1,0
248,192,25128,1,2
168,176,25323,1,0
176,256,25518,1,2
136,328,25713,6,0,B|96:320|72:296|56:272|48:232,1,140,0|2
47,153,26297,2,0,B|56:112|72:88|96:64|136:56,1,140,0|2
216,88,26881,1,2
232,96,26979,1,0
248,104,27076,1,0
264,96,27174,1,0
280,88,27271,5,4
416,192,27661,2,0,B|400:224|368:248,1,69.9999999999999,2|0
304,192,28050,1,0
96,192,28440,2,0,B|112:160|144:136,1,69.9999999999999,2|0
208,192,28829,6,0,B|232:216,3,35,0|2|0|0
280,216,29219,2,0,B|304:192,3,35,0|2|0|0
320,176,29609,2,0,B|352:200|384:200|416:176,1,105,0|2
368,56,30193,1,0
368,56,30290,1,2
288,80,30485,1,0
288,80,30583,6,0,B|256:64,3,35,2|0|0|0
224,184,31167,2,0,B|256:168,3,35,2|0|0|0
256,208,31557,2,0,B|224:224,3,35,2|0|0|0
256,248,31946,6,0,B|224:272,1,35,2|0
264,288,32141,2,0,B|240:320,1,35
288,312,32336,2,0,B|280:352,1,35,2|0
320,336,32531,2,0,B|328:376,1,35,0|0
360,344,32726,6,0,B|384:376,1,35,2|0
400,336,32920,2,0,B|432:352,1,35
424,312,33115,2,0,B|464:304,1,35,2|0
432,272,33310,2,0,B|464:256,1,35
480,216,33505,6,0,B|456:184|448:144,2,69.9999999999999,4|2|0
450,153,34089,2,0,B|376:152,1,69.9999999999999,2|0
424,80,34479,2,0,B|344:72,1,69.9999999999999,2|0
336,72,34771,1,2
256,88,34966,1,2
237,84,35063,6,0,B|208:112|176:120|136:120|104:104,3,140,0|2|0|2
56,168,36427,1,0
96,240,36622,6,0,B|88:280|64:304,2,69.9999999999999,6|0|2
160,192,37206,1,2
176,200,37303,1,0
192,208,37401,2,0,B|224:224|256:232|296:232,1,105,0|2
376,232,37888,2,0,B|360:272,2,35,0|2|0
384,216,38180,6,0,B|408:152,1,69.9999999999999,0|2
328,152,38570,2,0,B|336:80,1,69.9999999999999,0|2
280,16,38959,2,0,B|256:40,3,35,2|0|0|0
224,72,39349,2,0,B|208:112,3,35,2|0|0|0
224,144,39739,6,0,B|240:184|240:216,2,69.9999999999999,4|2|0
160,200,40323,1,2
192,280,40518,2,0,B|224:296|264:288,1,69.9999999999999
392,240,40907,2,0,B|360:224|320:232,1,69.9999999999999,2|0
336,312,41297,1,0
416,320,41492,5,2
416,320,41687,1,0
472,256,41881,1,2
472,256,42076,1,0
416,192,42271,5,2
472,128,42466,1,2
416,56,42661,1,2
336,56,42855,6,0,B|296:56,1,35
280,16,43050,2,0,B|243:31,1,35
216,8,43245,2,0,B|187:36,1,35
148,19,43440,2,0,B|133:56,1,35
96,48,43635,6,0,B|95:88,1,35
55,104,43830,2,0,B|70:140,1,35
47,168,44025,2,0,B|75:196,1,35
58,236,44220,2,0,B|95:250,1,35
104,288,44414,6,0,B|144:272,3,35,0|0|2|0
144,232,44803,2,0,B|176:216,3,35,0|0|2|0
176,176,45193,2,0,B|216:160,3,35,0|0|2|0
216,120,45582,2,0,B|248:104,3,35,0|0|2|0
232,72,45972,6,0,B|265:86|304:72,1,69.9999999999999,2|0
376,40,46362,1,0
360,120,46557,2,0,B|344:192,1,69.9999999999999,2|0
368,272,46946,1,0
368,272,47044,1,0
368,272,47141,2,0,B|384:304|416:320,2,69.9999999999999,2|0|2
304,320,47726,6,0,B|272:352,2,35,0|0|2
256,256,48115,1,0
208,320,48310,2,0,B|128:320,1,69.9999999999999,0|2
80,256,48700,1,2
72,240,48797,1,0
64,224,48894,1,0
56,208,48991,1,2
48,192,49089,6,0,B|32:160|8:128,2,69.9999999999999,2|0|2
88,120,49674,1,0
128,48,49868,2,0,B|144:80|168:112,2,69.9999999999999,2|0|2
88,120,50453,1,0
97,133,50550,1,0
105,144,50648,6,0,B|148:204,1,69.9999999999999,2|2
216,160,51037,1,0
224,240,51232,2,0,B|216:280|184:304,2,69.9999999999999,2|0|2
304,208,51816,1,2
320,200,51914,1,0
336,192,52011,1,0
352,184,52109,1,0
368,176,52206,5,2
448,208,52401,1,2
432,288,52596,2,0,B|368:325,1,69.9999999999999,0|2
296,288,52985,5,0
280,288,53083,1,0
264,288,53180,1,0
208,216,53375,1,2
224,216,53473,1,0
240,216,53570,1,0
304,144,53765,5,2
256,72,53959,1,0
208,144,54154,2,0,B|168:152|136:144,1,69.9999999999999,0|2
64,112,54544,1,0
32,192,54739,1,0
112,192,54933,1,0
120,208,55031,1,0
80,280,55226,1,0
72,264,55323,6,0,B|104:282|145:277,1,69.9999999999999,2|0
240,224,55713,2,0,B|208:206|167:211,1,69.9999999999999,2|0
304,272,56102,2,0,B|336:290|377:285,1,69.9999999999999,2|0
448,224,56492,2,0,B|416:206|375:211,1,69.9999999999999,2|0
256,192,56881,12,4,58440
304,152,64674,6,0,B|336:88|416:64,2,140,4|0|2
312,168,65550,1,0
344,248,65745,1,0
336,264,65842,1,2
256,296,66037,1,0
208,232,66232,6,0,B|176:296|96:320,2,140,0|0|2
200,216,67108,1,0
176,120,67303,2,0,B|194:88,4,35
256,40,67790,6,2,B|288:64|320:64,2,69.9999999999999,2|2|2
256,192,68375,2,2,B|224:216|192:216,2,69.9999999999999,2|2|2
336,160,68959,2,0,B|368:184,1,35
408,176,69154,2,0,B|408:216,1,35
424,248,69349,6,0,B|392:264,3,35
360,288,69739,2,0,B|328:264,3,35
296,248,70128,2,0,B|264:272,3,35,2|0|2|0
232,288,70518,2,0,B|200:304|160:288,1,69.9999999999999
104,240,70907,6,0,B|144:104,1,140,4|2
408,144,72466,2,0,B|368:280,1,140,4|2
192,216,74024,6,0,B|216:144,1,69.9999999999999,4|0
320,168,74803,2,0,B|296:240,1,69.9999999999999,2|0
256,192,75583,5,4
208,120,75972,1,0
304,120,76362,1,2
304,120,77141,6,0,B|336:136|360:168,1,69.9999999999999,0|2
392,280,77531,2,0,B|360:264|336:232,1,69.9999999999999,2|0
416,208,77920,1,2
464,272,78115,2,0,B|496:240,2,35,0|0|2
432,344,78505,1,0
360,328,78700,6,0,B|320:320|288:328,1,69.9999999999999,2|0
152,272,79089,2,0,B|192:280|224:272,1,69.9999999999999,2|2
296,232,79479,1,2
217,201,79674,1,0
217,185,79771,2,0,B|217:113,1,69.9999999999999,2|0
218,101,80063,1,2
218,85,80161,1,0
218,69,80258,6,0,B|248:48,1,35
240,88,80453,2,0,B|280:72,1,35
256,112,80648,2,0,B|304:112,1,35
256,136,80842,2,0,B|296:152,1,35
248,160,81037,2,0,B|272:192,1,35
224,176,81232,2,0,B|224:216,1,35
200,176,81427,2,0,B|184:216,1,35
176,168,81622,2,0,B|144:192,1,35
160,152,81816,6,0,B|120:144,3,35,2|0|0|0
80,144,82206,2,0,B|40:160,3,35,2|0|0|0
72,192,82596,6,0,B|80:208|80:208|64:224|64:224|80:240|80:240|64:256|64:256|80:272|80:272|64:288|64:288|80:304|80:304,2,140,0|2|4
184,64,83765,5,0
256,104,83959,1,0
328,64,84154,2,0,B|400:64,1,69.9999999999999,2|0
408,80,84446,1,0
400,96,84544,2,0,B|320:96,2,69.9999999999999,2|0|0
416,176,85128,5,0
392,256,85323,2,0,B|384:296|392:328,1,69.9999999999999,2|0
272,352,85713,1,2
296,272,85907,1,0
272,192,86102,2,0,B|256:160|272:120,1,69.9999999999999,2|0
304,48,86492,6,0,B|264:32,3,35,0|2|0|0
240,35,86881,2,0,B|208:48,3,35,2|0|0|0
192,88,87271,2,0,B|176:128,3,35,0|2|0|0
176,160,87661,2,0,B|184:200|176:232,2,69.9999999999999,2|0|0
88,224,88245,5,2
96,240,88342,1,0
104,256,88439,1,0
192,264,88635,1,2
200,280,88732,1,0
208,296,88829,2,0,B|224:328|224:368,2,69.9999999999999,0|2|2
256,224,89414,1,2
304,296,89609,5,4
464,256,89998,1,2
408,192,90193,1,0
464,128,90388,2,0,B|480:96|464:56,1,69.9999999999999,0|0
392,24,90778,2,0,B|320:32,1,69.9999999999999,2|0
256,80,91167,5,0
120,24,91557,2,0,B|192:32,1,69.9999999999999,2|0
256,80,91946,2,0,B|272:112,3,35
256,152,92336,2,0,B|272:184,3,35,2|0|0|0
256,224,92726,6,0,B|280:256,1,35,2|0
256,288,92920,2,0,B|280:320,1,35,2|0
256,352,93115,2,0,B|224:368|184:352,1,69.9999999999999,0|2
136,288,93505,2,0,B|112:264,1,35,2|0
144,240,93700,2,0,B|112:208,1,35,2|0
152,184,93894,2,0,B|128:160,3,35,2|0|0|0
104,128,94284,6,0,B|176:112|224:56,2,140,0|2|0
32,80,95258,1,0
24,160,95453,1,2
88,216,95648,1,0
168,192,95842,6,0,B|240:192,1,69.9999999999999,4|0
344,216,96232,2,0,B|272:216,1,69.9999999999999,2|0
168,232,96622,2,0,B|240:232|288:296,2,140,0|2|2
80,232,97596,5,0
72,248,97693,1,0
64,264,97790,1,2
120,320,97985,1,0
200,328,98180,2,0,B|272:328,1,69.9999999999999,2|0
304,256,98570,2,0,B|376:280,1,69.9999999999999,2|0
400,200,98959,6,0,B|424:224,3,35,2|0|0|0
448,184,99349,2,0,B|456:224,3,35,2|0|0|0
488,192,99739,2,2,B|496:232|480:264,2,69.9999999999999
456,112,100323,1,0
456,24,100518,5,2
440,32,100615,1,0
368,72,100810,1,0
352,64,100907,2,0,B|320:48|296:16,1,69.9999999999999,2|0
213,19,101297,2,0,B|192:48|160:64,1,69.9999999999999,2|0
88,112,101687,2,0,B|104:152,1,35,0|0
104,184,101881,2,0,B|136:200,1,35,2|2
160,232,102076,6,0,B|232:232,7,69.9999999999999,4|0|0|0|0|0|0|0
358,192,103635,6,0,B|288:192,7,69.9999999999999,4|0|0|0|0|0|0|0
224,144,105193,6,0,B|192:128,3,35,6|0|0|0
232,104,105583,2,0,B|208:72,3,35,2|0|0|0
256,72,105972,6,0,B|256:32,3,35,2|0|0|0
296,56,106362,2,0,B|312:24,3,35,2|0|0|0
352,48,106752,6,0,B|384:64,1,35,6|0
408,80,106946,2,0,B|376:96,1,35
352,112,107141,2,0,B|384:128,1,35,2|0
408,144,107335,2,0,B|376:160,1,35
352,176,107531,6,0,B|384:192,1,35,2|0
408,208,107725,2,0,B|376:224,1,35
352,240,107920,2,0,B|384:256,1,35,2|0
408,272,108114,2,0,B|376:288,1,35
344,304,108310,6,0,B|312:320,15,35,6|0|0|0|2|0|0|0|2|0|0|0|2|0|0|0
168,304,109868,6,0,B|200:320,15,35,6|2|2|2|2|2|2|2|2|2|2|2|2|2|2|2
256,352,111427,5,4
256,192,111524,12,0,113765
