osu file format v9

[General]
AudioFilename: [IIDX 19 Lincle] F - D.J.Amuro [__].mp3
AudioLeadIn: 1996
PreviewTime: 83375
Countdown: 1
SampleSet: Normal
StackLeniency: 0.7
Mode: 0
LetterboxInBreaks: 1

[Editor]
Bookmarks: 7790,64698,102466
DistanceSpacing: 1.2
BeatDivisor: 4
GridSize: 8

[Metadata]
Title:F
Artist:D.J.Amuro
Creator:fartownik
Version:Beginner
Source:beatmania IIDX
Tags:lincle 19 dj taka

[Difficulty]
HPDrainRate:2
CircleSize:3
OverallDifficulty:2
ApproachRate:3
SliderMultiplier:0.400000005960464
SliderTickRate:1

[Events]
//Background and Video events
0,0,"F.jpg"
//Break Periods
2,58640,63234
//Storyboard Layer 0 (Background)
//Storyboard Layer 1 (Fail)
//Storyboard Layer 2 (Pass)
//Storyboard Layer 3 (Foreground)
//Storyboard Sound Samples
//Background Colour Transformations
3,100,163,162,255

[TimingPoints]
778,389.61038961039,4,2,0,100,1,0
6970,-50,4,2,1,75,0,0
7063,-50,4,2,1,75,0,0
20599,-50,4,1,1,50,0,0
20999,-50,4,1,1,75,0,0
44365,-50,4,1,1,75,0,0
46015,-50,4,1,1,75,0,0
58453,-50,4,1,1,70,0,0
69252,-133.333333333333,4,1,1,70,0,0
70853,-100,4,2,2,60,0,0
76654,-100,4,1,2,60,0,0
76886,-50,4,2,1,65,0,0
80209,-50,4,1,1,65,0,0
83375,-50,4,1,1,65,0,1
111427,-50,4,1,1,80,0,0

[Colours]
Combo1 : 165,0,200
Combo2 : 226,255,28
Combo3 : 240,156,0

[HitObjects]
368,136,778,2,0,B|344:136|344:136|312:152|312:152|288:152,1,80.0000011920928,4|2
144,248,2336,2,0,B|168:248|168:248|200:232|200:232|224:232,1,80.0000011920928,4|2
216,136,3894,6,0,B|216:96,1,40.0000005960464,4|2
296,96,4674,2,0,B|296:136,1,40.0000005960464,0|2
256,168,5453,6,0,B|224:224|288:224|256:280,1,120.000001788139,4|2
184,344,7011,6,0,B|96:336|64:248,1,160.000002384186,0|2
184,40,8570,2,0,B|96:48|64:136,1,160.000002384186,0|2
136,192,9739,1,0
232,192,10128,6,0,B|392:192,2,160.000002384186,0|2|2
312,144,12076,1,2
312,240,12466,1,0
392,192,12855,1,2
424,280,13245,6,0,B|432:320|432:320|384:320,3,80.0000011920928,4|2|0|2
296,304,14803,2,0,B|256:296|216:304,3,80.0000011920928,4|2|0|2
120,328,16362,6,0,B|96:248,1,80.0000011920928,4|2
97,139,17141,2,0,B|119:62,1,80.0000011920928,4|2
216,40,17920,6,4,B|256:24|296:40,3,80.0000011920928
256,128,19479,1,2
256,128,21037,6,0,B|248:152|248:152|256:176|256:176|248:208,1,80.0000011920928,4|2
152,232,21816,2,0,B|160:256|160:256|152:280|152:280|160:312,1,80.0000011920928,0|2
248,352,22596,6,0,B|336:376|400:296,2,160.000002384186,0|2|0
296,272,24544,6,0,B|312:232|296:192,1,80.0000011920928,2|0
216,112,25323,2,0,B|200:152|216:192,1,80.0000011920928,2|0
296,112,26102,6,0,B|376:112,2,80.0000011920928,2|0|2
216,168,27271,6,0,B|192:176|192:176|160:168|160:168|136:176,1,80.0000011920928,4|2
96,264,28050,2,0,B|72:256|72:256|40:264|40:264|16:256,1,80.0000011920928,0|2
16,160,28829,2,0,B|0:112|24:48|72:16,1,160.000002384186,0|0
160,32,29998,2,0,B|240:48,1,80.0000011920928,2|0
336,8,30778,6,0,B|360:40|352:96|312:112,2,120.000001788139,2|2|0
256,64,32336,1,2
256,160,32726,1,0
256,256,33115,1,2
256,352,33505,6,0,B|296:344|336:352,1,80.0000011920928,4|2
392,280,34284,2,0,B|344:216,1,80.0000011920928,0|2
248,216,35063,2,0,B|200:280,3,80.0000011920928,2|2|2|2
256,352,36622,6,0,B|216:344|176:352,1,80.0000011920928,0|2
120,280,37401,2,0,B|160:232,2,60.0000008940696,2|2|2
72,280,38180,2,0,B|32:280|16:232,3,80.0000011920928,0|2|0|2
112,192,39739,5,4
208,192,40128,1,2
304,192,40518,1,0
400,192,40907,1,2
456,264,41297,6,2,B|432:304|360:328|312:304,2,160.000002384186,0|2|4
368,224,43245,5,0
272,224,43635,1,0
224,304,44024,1,0
256,192,44414,12,0,45972
336,80,46752,6,0,B|168:96,1,160.000002384186,2|0
176,288,48310,2,0,B|335:272,1,160.000002384186,2|0
424,232,49479,6,0,B|448:192|424:152,1,80.0000011920928,2|0
384,72,50258,2,0,B|344:64|304:72,1,80.0000011920928,2|0
208,72,51037,2,0,B|168:80|128:72,1,80.0000011920928,2|0
85,155,51816,1,2
128,240,52206,6,0,B|176:312|272:288,1,160.000002384186,0|2
384,144,53765,2,0,B|336:72|240:96,1,160.000002384186,0|2
256,272,55323,5,2
208,192,55713,1,2
304,192,56102,1,2
256,112,56492,1,2
256,192,56881,12,4,58440
168,272,64674,6,0,B|152:312|112:328,2,80.0000011920928,4|0|2
256,240,65842,1,2
344,272,66232,6,0,B|360:312|400:328,2,80.0000011920928,0|0|2
256,240,67401,1,0
256,144,67790,6,0,B|256:96,6,40.0000005960464,2|2|2|2|2|0|0
256,192,69349,12,4,70907
256,304,71687,5,2
368,192,72466,5,4
256,80,73245,1,2
144,192,74024,5,4
256,304,74803,1,2
368,192,75583,6,0,B|407:175|413:124|452:107,1,120.000001788139,4|0
416,16,77141,5,0
328,16,77531,1,0
296,104,77920,2,0,B|272:184,2,80.0000011920928,2|2|0
368,168,79089,5,0
328,256,79479,2,0,B|368:272|416:256,2,80.0000011920928,2|2|0
256,320,80648,5,0
256,320,81037,1,0
176,264,81427,1,0
176,264,81816,1,0
96,320,82206,1,0
16,264,82596,2,0,B|-24:296,2,40.0000005960464,0|0|2
72,192,83375,6,0,B|152:192|200:96,1,160.000002384186,4|0
256,32,84544,1,2
312,104,84933,6,0,B|355:191|435:191,1,160.000002384186,0|2
416,96,86102,1,2
368,176,86492,6,0,B|352:216|320:240,1,80.0000011920928,0|2
328,144,87271,2,0,B|288:128|264:96,1,80.0000011920928,0|2
168,96,88050,6,0,B|152:136|168:176,3,80.0000011920928,0|2|0|2
256,216,89609,6,0,B|320:272|320:272|360:264|400:272,1,160.000002384186,4|0
352,184,90778,1,2
256,216,91167,6,0,B|192:272,1,80.0000011920928,0|2
96,272,91946,2,0,B|35:219,1,80.0000011920928,2|2
88,136,92726,6,0,B|120:112|120:112|152:136|152:136|184:112|184:112|216:136,2,160.000002384186,2|0|0
152,64,94674,5,2
216,136,95063,2,0,B|232:176|216:224,1,80.0000011920928,0|2
176,304,95842,6,0,B|256:320|336:304,1,160.000002384186,4|2
432,288,97011,1,2
440,192,97401,2,0,B|432:152|408:120,1,80.0000011920928,2|0
320,160,98180,2,0,B|328:200|352:232,1,80.0000011920928,2|0
384,320,98959,6,0,B|296:304|232:368,2,160.000002384186,2|2|0
424,232,100907,1,2
344,176,101297,1,0
272,240,101687,1,2
192,184,102076,6,0,B|112:184,3,80.0000011920928,0|2|0|2
88,88,103635,2,0,B|176:88,3,80.0000011920928,0|2|0|2
168,192,105193,6,2,B|168:320,1,120.000001788139,4|2
256,192,106362,1,0
256,192,106752,6,2,B|384:192,1,120.000001788139,4|2
256,104,107920,1,0
256,104,108310,6,2,B|256:-16,1,120.000001788139,4|2
168,104,109479,5,0
256,192,109868,12,4,111427
