osu file format v5

[General]
AudioFilename: 109-d-tune_vs._sunincs_-_the_time-zzzz.mp3
AudioLeadIn: 0
PreviewTime: -1
Countdown: 1
SampleSet: Normal
StackLeniency: 0.7
Mode: 0
LetterboxInBreaks: 1
EditorBookmarks: 5180,32033,41054,68956,72942,99795,113221,127592,141753

[Metadata]
Title:The Time
Artist:D-Tune Vs. Sunics
Creator:Tri-Edge
Version:Hard
Source:
Tags:Trance

[Difficulty]
HPDrainRate:7
CircleSize:6
OverallDifficulty:6
SliderMultiplier:1.4
SliderTickRate:1

[Events]
//Background and Video events
0,0,"00495_ccg11.jpg"
//Break Periods
2,31969,41040
2,69156,72941
2,99785,113220
2,127687,141752
//Storyboard Layer 0 (Background)
//Storyboard Layer 1 (Failing)
//Storyboard Layer 2 (Passing)
//Storyboard Layer 3 (Foreground)
//Storyboard Sound Samples
//Background Colour Transformations
3,100,163,162,255

[TimingPoints]
5170,419.58041958042,4,1,0,100,1

[HitObjects]
168,144,3491,1,8
168,144,3806,1,8
168,144,4121,1,8
168,256,4540,1,4
336,280,5169,5,0
336,168,5589,1,0
336,112,5799,1,8
336,168,6009,1,0
192,176,6586,5,0
136,176,6848,2,8,C|136:324|136:320,1,140
137,316,7477,1,0
136,317,7687,1,0
360,320,8526,6,8,C|256:320,1,70
152,256,9103,1,0
152,256,9365,2,8,C|152:40,1,210,8|8
208,24,10204,6,0,C|376:24,1,140
424,80,10834,1,0
440,128,11044,1,0
424,184,11253,1,0
392,232,11463,1,0
336,240,11673,2,0,C|336:144,1,70
336,56,12302,2,8,C|240:56,2,70
208,168,13351,5,0
256,144,13561,1,0
336,176,13876,1,0
336,232,14190,1,0
336,232,14400,2,8,C|272:96,1,140
208,112,15082,5,0
192,152,15239,1,0
192,248,15607,1,0
216,304,15869,1,0
256,344,16079,1,0
368,216,16708,5,0
336,168,16918,1,0
272,120,17232,1,0
192,120,17547,1,0
192,176,17757,1,0
192,232,17967,1,0
248,232,18176,1,0
304,232,18386,1,0
304,288,18596,1,0
192,296,19016,5,0
136,296,19225,1,0
136,240,19435,1,0
224,96,20065,5,0
264,136,20274,1,0
312,200,20589,1,0
256,256,20904,1,0
312,256,21114,1,0
400,176,21743,5,0
360,136,21953,1,0
266,105,22320,1,0
200,128,22582,1,0
160,168,22792,1,0
280,280,23421,5,0
320,248,23631,1,0
376,152,24051,1,0
336,112,24260,1,0
280,112,24470,1,0
224,128,24680,1,0
176,160,24890,1,0
144,200,25100,1,0
120,248,25309,1,0
232,264,25729,5,0
248,208,25939,1,0
264,152,26149,1,0
291,86,26778,5,0
332,124,26988,2,8,C|204:124,1,105
143,129,27617,1,0
89,144,27827,1,0
48,219,28456,5,0
46,162,28666,1,0
47,77,28981,1,0
130,71,29295,1,0
132,127,29505,1,0
272,96,30135,5,0
272,152,30344,1,0
264,232,30659,1,0
176,232,30974,1,0
128,200,31183,1,0
104,152,31393,1,0
96,96,31603,1,0
112,40,31813,1,0
224,200,42093,6,8,C|96:136,1,140
99,137,42932,2,8,C|259:137,1,140
239,193,43561,6,8,C|239:277,1,70
240,152,44190,2,8,C|80:152,1,140
101,152,45030,6,8,C|29:152,2,70
216,152,45869,2,8,C|216:296,1,140,0|0
215,291,46708,6,8,C|143:291,2,70
214,292,47547,2,8,C|214:148,1,140
328,152,48386,6,8,C|400:152,2,70
216,152,49225,6,8,C|72:152,1,140
76,151,50065,6,8,C|76:71,2,70
75,151,50904,6,8,C|219:151,1,140
216,152,51743,2,8,C|216:72,2,70
216,152,52582,2,8,C|72:152,1,140
75,153,53421,6,8,C|75:225,2,70
76,152,54260,2,8,C|228:152,1,140
320,152,55100,6,8,C|320:80,2,70
320,152,55939,2,8,C|176:152,1,140
180,153,56778,6,8,C|180:225,2,70
180,153,57617,2,8,C|180:1,1,140
180,13,58456,2,8,C|108:13,2,70,8|8|8
180,13,59295,2,8,C|180:181,1,140,8|0
181,152,60135,6,8,C|109:152,2,70
182,152,60974,2,8,C|334:152,1,140
368,120,61603,1,0
328,80,61813,1,0
272,56,62023,1,0
216,48,62232,1,0
104,40,62652,5,0
104,152,63072,1,8
104,320,63701,5,0
160,320,63911,1,0
272,320,64330,1,0
384,320,64750,1,8
424,88,65379,5,0
368,88,65589,1,0
256,88,66009,1,0
200,88,66218,1,0
144,88,66428,1,0
32,88,66848,1,0
32,200,67267,1,0
32,256,67477,1,0
72,288,67687,1,0
120,312,67897,1,0
176,320,68107,1,8
200,320,68211,1,8
224,320,68316,1,8
248,312,68421,1,8
272,304,68526,1,8
296,296,68631,1,8
320,288,68736,1,8
344,280,68841,1,8
368,272,68946,1,0
256,192,73981,6,8,C|96:192,2,140
256,192,75239,2,8,C|256:120,2,70
256,192,76079,2,8,C|400:192,1,140
395,192,76918,6,8,C|395:120,2,70
392,304,77757,2,8,C|240:304,1,140
144,304,78596,6,8,C|144:232,2,70
144,192,79435,2,8,C|144:48,1,140
144,52,80274,6,8,C|64:52,2,70
144,53,81114,2,8,C|304:53,1,140
392,56,81953,6,8,C|392:136,2,70
392,56,82792,2,8,C|392:208,1,140
392,196,83631,6,8,C|440:268,2,70
393,196,84470,2,8,C|281:108,1,140
282,110,85309,6,8,C|362:46,2,70
168,112,86149,2,8,C|168:264,1,140
224,256,86778,6,8,C|312:258,3,70
295,258,87827,6,8,C|447:258,1,140
384,160,88666,2,8,C|312:104,2,70
368,205,89505,6,8,C|368:349,1,140
368,344,90344,2,8,C|312:272,2,70
369,345,91183,6,8,C|225:345,1,140
229,345,92023,2,8,C|181:257,2,70
229,345,92862,6,8,C|229:201,1,140
232,88,93701,2,8,C|160:88,2,70
344,96,94540,6,8,C|448:208,1,140
328,216,95379,2,8,C|264:168,2,70
224,176,96218,6,8,C|232:320,1,140
120,296,97058,2,8,C|48:248,2,70
208,224,97897,6,8,C|272:88,1,140
268,97,98736,2,8,C|340:97,2,70
152,96,99575,1,12
280,160,114260,5,0
168,168,114680,1,0
168,224,114890,1,0
224,224,115100,1,0
392,240,115729,5,0
360,192,115939,1,0
280,112,116306,1,0
224,128,116568,1,0
176,152,116778,1,0
128,312,117407,5,0
184,312,117617,1,0
296,312,118037,1,0
344,280,118246,1,0
376,232,118456,1,0
336,160,119086,5,0
288,128,119295,1,0
184,88,119715,5,0
136,120,119925,1,0
120,176,120135,1,0
120,232,120344,1,0
136,288,120554,1,0
184,320,120764,1,0
240,328,120974,1,0
352,320,121393,5,0
352,264,121603,1,0
352,208,121813,1,0
360,64,122442,5,0
304,80,122652,1,0
232,128,122967,1,0
176,192,123281,1,0
152,240,123491,1,0
152,72,124121,5,0
208,72,124330,1,0
320,88,124750,5,0
336,144,124960,1,0
352,200,125169,1,0
432,344,125799,5,0
376,344,126009,1,0
296,320,126323,1,0
232,264,126638,1,0
192,224,126848,1,0
152,184,127058,1,0
120,136,127267,1,0
104,80,127477,1,0
256,184,142792,6,8,C|256:328,2,140
256,184,144051,2,8,C|256:112,2,70
256,184,144890,2,8,C|256:40,1,140
256,43,145729,6,8,C|184:43,2,70
256,44,146568,2,8,C|336:172,1,140
330,164,147407,6,8,C|362:84,2,70
216,168,148246,2,8,C|216:328,1,140
104,312,149086,6,8,C|32:312,2,70
217,308,149925,2,8,C|105:212,1,140
110,217,150764,6,8,C|142:145,2,70,8|8|8
224,224,151603,2,8,C|384:232,1,140
363,231,152442,6,8,C|291:191,2,70
364,231,153281,2,8,C|212:231,1,140
225,232,154121,6,8,C|225:152,2,70
112,232,154960,1,8
112,232,155379,2,8,C|112:160,4,70
104,352,156638,6,8,C|248:352,1,140
245,352,157477,2,8,C|245:248,2,70
245,352,158316,6,8,C|245:208,1,140
245,212,159156,2,8,C|189:140,2,70
246,211,159995,6,8,C|342:91,1,140
224,64,160834,2,8,C|184:128,2,70
224,64,161673,2,8,C|216:216,1,140
217,203,162512,6,8,C|297:203,2,70
217,203,163351,2,8,C|81:115,1,140
208,96,164190,2,8,C|264:24,2,70
256,192,165030,2,8,C|344:320,1,140
224,328,165869,6,8,C|152:328,2,70
224,328,166708,2,8,C|336:240,1,140
335,241,167547,2,8,C|335:97,3,140
335,101,169016,6,8,C|279:53,2,70
336,101,169645,2,8,C|488:101,2,140
335,101,170904,6,8,C|335:29,1,70
335,31,171323,2,8,C|335:189,1,140
334,31,172582,6,8,C|246:31,2,70
336,144,173421,2,8,C|336:296,1,140
224,280,174260,2,8,C|224:192,1,70
224,210,174680,2,8,C|74:210,1,140
224,96,175939,6,8,C|224:8,2,70
216,208,176778,2,8,C|72:144,1,140
184,128,177617,2,8,C|232:72,1,70
228,76,178037,2,8,C|127:194,1,140
384,120,179295,6,8,C|392:40,2,70
272,128,180135,2,8,C|160:224,1,140
152,104,180974,2,8,C|152:16,3,70
240,104,182023,2,8,C|240:24,4,70
256,192,183176,12,4,183806
