osu file format v5

[General]
AudioFilename: 109-d-tune_vs._sunincs_-_the_time-zzzz.mp3
AudioLeadIn: 0
PreviewTime: -1
Countdown: 1
SampleSet: Normal
StackLeniency: 0.7
Mode: 0
LetterboxInBreaks: 1
EditorBookmarks: 5180,32033,41054,68956,72942,99795,113221,127592,141753

[Metadata]
Title:The Time
Artist:D-Tune Vs. Sunics
Creator:Tri-Edge
Version:Easy
Source:
Tags:Trance

[Difficulty]
HPDrainRate:4
CircleSize:3
OverallDifficulty:4
SliderMultiplier:1.4
SliderTickRate:1

[Events]
//Background and Video events
0,0,"00495_ccg11.jpg"
//Break Periods
2,31969,41040
2,69156,72671
//Storyboard Layer 0 (Background)
//Storyboard Layer 1 (Failing)
//Storyboard Layer 2 (Passing)
//Storyboard Layer 3 (Foreground)
//Storyboard Sound Samples
//Background Colour Transformations
3,100,163,162,255

[TimingPoints]
5170,419.58041958042,4,1,0,100,1

[HitObjects]
328,168,3491,5,0
216,168,3911,1,0
104,168,4330,1,0
96,328,5169,5,0
208,328,5589,1,4
320,328,6009,1,0
432,328,6428,1,4
432,216,6848,5,0
320,216,7267,1,4
208,216,7687,1,0
96,216,8107,1,4
96,104,8526,5,0
208,104,8946,1,4
320,104,9365,1,0
432,104,9785,1,4
432,216,10204,5,0
432,328,10624,1,4
320,336,11044,1,0
208,336,11463,1,4
96,336,11883,5,0
168,248,12302,1,4
248,168,12722,1,0
320,80,13142,1,4
432,80,13561,5,0
320,80,13981,1,4
208,80,14400,1,0
96,80,14820,1,4
96,192,15239,5,0
96,304,15659,1,4
208,304,16079,1,0
320,304,16498,1,4
432,304,16918,5,0
336,240,17337,1,4
240,184,17757,1,0
144,120,18176,1,4
56,48,18596,5,0
168,48,19016,1,4
176,160,19435,1,0
176,272,19855,1,4
176,384,20274,5,0
304,384,20694,1,4
432,384,21114,1,0
432,272,21533,1,4
344,200,21953,5,0
256,128,22372,1,4
144,128,22792,1,0
256,128,23211,1,4
368,128,23631,5,0
480,128,24051,1,4
480,240,24470,1,0
368,240,24890,1,4
256,240,25309,5,0
256,128,25729,1,4
256,16,26149,1,0
144,24,26568,1,4
32,32,26988,5,0
32,144,27407,1,4
144,144,27827,1,0
144,24,28246,1,4
256,24,28666,5,0
368,24,29086,1,4
376,136,29505,1,0
384,248,29925,1,4
256,192,30344,12,4,31603
72,80,42093,5,0
184,80,42512,1,0
296,80,42932,1,0
408,80,43351,1,0
408,80,43561,1,0
408,80,43771,1,0
408,192,44190,1,0
296,200,44610,1,0
184,200,45030,5,0
184,200,45239,1,0
184,200,45449,1,0
184,88,45869,1,0
72,88,46288,1,0
72,200,46708,5,0
72,200,46918,1,0
72,200,47128,1,0
72,312,47547,1,0
184,312,47967,1,0
184,312,48176,1,0
184,312,48386,1,0
184,312,48596,1,0
184,312,48806,5,0
296,312,49225,1,0
408,312,49645,1,0
408,200,50065,1,0
408,200,50274,1,0
408,200,50484,1,0
296,200,50904,1,0
296,88,51323,1,0
408,88,51743,5,0
408,88,51953,1,0
408,88,52163,1,0
408,200,52582,1,0
416,312,53002,1,0
320,256,53421,5,0
320,256,53631,1,0
320,256,53841,1,0
320,144,54260,1,0
208,144,54680,1,0
208,256,55100,5,0
208,256,55309,1,0
208,256,55519,1,0
208,144,55939,1,0
208,32,56358,1,0
96,32,56778,5,0
96,32,56988,1,0
96,32,57197,1,0
96,144,57617,1,0
88,256,58037,1,0
88,368,58456,5,0
88,368,58666,1,0
88,368,58876,1,0
200,368,59295,1,0
312,368,59715,1,0
312,256,60135,5,0
312,256,60344,1,0
312,256,60554,1,0
200,256,60974,1,0
200,144,61393,1,0
256,192,62232,5,0
256,192,62652,1,0
256,192,63072,1,0
152,192,63911,5,0
152,192,64330,1,0
152,192,64750,1,0
352,192,65589,5,0
352,192,66009,1,0
352,192,66428,1,0
256,192,66848,1,0
256,192,67267,1,0
256,192,67477,1,0
256,192,67687,1,0
256,192,67897,1,0
256,192,68107,1,0
256,192,68316,1,0
256,192,68526,1,0
256,192,68736,1,0
256,192,68946,1,0
80,320,73981,5,0
192,320,74400,1,0
304,328,74820,1,0
240,232,75239,5,0
240,232,75449,1,0
240,232,75659,1,0
192,128,76079,1,0
304,128,76498,1,0
240,232,76918,5,0
240,232,77128,1,0
240,232,77337,1,0
128,216,77757,1,0
128,104,78176,1,0
240,104,78596,5,0
240,104,78806,1,0
240,104,79016,1,0
240,216,79435,1,0
352,216,79855,1,0
360,104,80274,5,0
360,104,80484,1,0
360,104,80694,1,0
472,104,81114,1,0
472,216,81533,1,0
472,328,81953,5,0
472,328,82163,1,0
472,328,82372,1,0
360,328,82792,1,0
248,328,83211,1,0
248,216,83631,5,0
248,216,83841,1,0
248,216,84051,1,0
136,216,84470,1,0
136,328,84890,1,0
24,328,85309,5,0
24,328,85519,1,0
24,328,85729,1,0
24,216,86149,1,0
24,104,86568,1,0
24,104,86778,5,0
24,104,86988,1,0
24,104,87197,1,0
24,104,87407,1,0
136,104,87827,1,0
248,104,88246,1,0
248,216,88666,5,0
248,216,88876,1,0
248,216,89086,1,0
248,104,89505,1,0
360,104,89925,1,0
360,216,90344,5,0
360,216,90554,1,0
360,216,90764,1,0
360,328,91183,1,0
248,328,91603,1,0
136,328,92023,5,0
136,328,92232,1,0
136,328,92442,1,0
24,336,92862,1,0
24,224,93281,1,0
24,112,93701,5,0
24,112,93911,1,0
24,112,94121,1,0
136,112,94540,1,0
248,112,94960,1,0
360,112,95379,5,0
360,112,95589,1,0
360,112,95799,1,0
360,224,96218,1,0
248,224,96638,1,0
248,112,97058,5,0
248,112,97267,1,0
248,112,97477,1,0
136,112,97897,1,0
128,224,98316,1,0
240,224,98736,5,0
240,224,98946,1,0
240,224,99156,1,0
352,224,99575,1,0
