osu file format v9

[General]
AudioFilename: fuuuuu.mp3
AudioLeadIn: 2000
PreviewTime: 53453
Countdown: 0
SampleSet: Soft
StackLeniency: 0.7
Mode: 0
LetterboxInBreaks: 0

[Editor]
DistanceSpacing: 1
BeatDivisor: 4
GridSize: 4

[Metadata]
Title:Famiglia (TV Size)
Artist:D-51
Creator:Yasora
Version:Normal
Source:Katekyo Hitman REBORN!
Tags:ending ed15 home tutor

[Difficulty]
HPDrainRate:4
CircleSize:3
OverallDifficulty:4
ApproachRate:5
SliderMultiplier:1.4
SliderTickRate:1

[Events]
//Background and Video events
0,0,"i don't have another bg -_-.jpg"
Video,-100,"ugu.avi"
//Break Periods
//Storyboard Layer 0 (Background)
//Storyboard Layer 1 (Fail)
//Storyboard Layer 2 (Pass)
//Storyboard Layer 3 (Foreground)
//Storyboard Sound Samples
//Background Colour Transformations
3,100,163,162,255

[TimingPoints]
112,666.666666666667,4,2,1,80,1,0
5945,-100,4,2,1,60,0,0
6278,-100,4,2,1,80,0,0
7278,-100,4,2,1,60,0,0
7612,-100,4,2,1,80,0,0
8612,-100,4,2,1,60,0,0
8778,-100,4,2,1,80,0,0
10612,-100,4,2,0,80,0,0
10945,-100,4,2,1,80,0,0
21278,-100,4,2,0,80,0,0
21612,-100,4,2,1,80,0,0
42612,-100,4,2,0,80,0,0
42945,-100,4,2,1,80,0,0
53445,-100,4,2,0,80,0,1
53612,-100,4,2,1,80,0,1
74778,-100,4,2,1,80,0,0
85445,-100,4,2,1,5,0,0

[Colours]
Combo1 : 255,173,51
Combo2 : 0,128,0
Combo3 : 196,196,0
Combo4 : 47,47,255
SliderBorder : 255,255,255

[HitObjects]
148,120,112,1,4
184,256,778,1,2
324,256,1445,1,4
360,120,2112,1,2
232,64,2778,6,0,B|180:52|140:112|176:160,1,140,4|2
152,296,4112,1,4
284,344,4778,1,2
404,268,5445,6,0,B|376:224|376:224|408:184|392:132,1,140,4|8
312,28,6778,1,2
180,72,7445,2,0,B|180:144|180:144|140:144|112:188,1,140,8|2
92,320,8778,1,8
220,264,9445,6,0,B|272:324,1,70,2|0
336,308,10112,2,0,B|416:332,1,70,2|0
468,304,10778,6,0,B|484:236|472:156,1,140,4|8
436,104,11778,1,0
368,84,12111,2,0,B|296:64|224:88,1,140,2|8
168,116,13111,1,0
92,88,13445,6,0,B|76:140|112:192|168:200,1,140,2|8
204,248,14445,1,0
272,260,14778,2,0,B|344:276|420:260,1,140,2|8
468,220,15778,1,0
480,136,16111,6,0,B|428:136|400:168|400:168|352:144,1,140,2|8
292,108,17111,1,0
228,132,17445,2,0,B|228:192|188:228|128:240,1,140,2|8
80,236,18445,1,0
20,292,18778,6,0,B|72:344|116:288|156:328,1,140,2|8
292,312,20112,2,0,B|356:352,2,70,2|0|10
256,252,21112,1,0
256,184,21445,6,0,B|256:32,1,140,4|8
188,24,22445,1,0
124,48,22778,2,0,B|124:192,1,140,2|8
124,256,23778,1,0
172,304,24112,6,0,B|200:344|236:352,2,70,2|0|8
248,272,25112,2,0,B|288:212,2,70,0|2|0
188,232,26112,1,8
140,184,26445,1,0
188,132,26778,6,0,B|260:108|296:32,1,140,2|8
360,40,27778,1,0
416,80,28112,2,0,B|464:92|488:156|464:204,1,140,2|8
436,256,29112,1,0
368,252,29445,6,0,B|324:316|224:296,1,140,2|8
176,280,30445,1,0
116,244,30778,2,0,B|44:264,2,70,2|0|8
148,180,31778,1,0
192,124,32112,6,0,B|260:96|332:124,1,140,2|8
392,156,33112,1,0
440,208,33445,2,0,B|472:248|456:320|400:340,1,140,2|8
348,320,34445,1,0
288,284,34778,6,0,B|248:272|212:288,1,70,2|0
168,332,35445,2,0,B|132:352|88:332,1,70,8|0
60,280,36112,2,0,B|24:212,2,70,2|0|8
128,268,37112,1,0
184,224,37445,6,0,B|216:156|308:120,1,140,2|8
348,100,38445,1,0
400,56,38778,2,0,B|448:32|508:68|504:128,1,140,2|8
496,184,39778,1,0
472,248,40111,6,0,B|436:288|436:288|392:272|344:292,1,140,2|8
280,288,41111,1,0
212,292,41445,2,0,B|176:368,2,70,2|0|8
188,224,42445,1,0
120,172,42778,6,0,B|180:116|252:164,1,140,4|8
308,200,43778,1,0
356,148,44111,2,0,B|416:84,1,70,2|0
472,104,44778,2,0,B|488:180,1,70,10|0
480,244,45445,6,0,B|424:292|344:268,1,140,2|10
284,244,46445,1,0
220,224,46778,2,0,B|152:204,2,70,2|0|10
284,244,47778,1,0
324,188,48111,6,0,B|352:148|336:76|272:68,1,140,2|8
220,56,49111,1,0
152,72,49445,2,0,B|104:76|88:148|116:188,1,140,2|8
152,244,50445,1,0
220,260,50778,6,0,B|228:296|264:304|264:304|348:304,1,140,2|8
408,288,51778,1,0
452,236,52111,2,0,B|472:160|464:88,1,140,2|8
432,36,53111,1,0
384,88,53445,6,0,B|328:120|236:96,1,140,4|10
176,92,54445,1,0
116,124,54778,2,0,B|72:168|144:208|96:264,1,140,2|10
76,320,55778,1,0
144,332,56111,6,0,B|212:352|288:332,1,140,2|10
352,316,57111,1,0
372,248,57445,2,0,B|312:192|320:112,1,140,2|10
268,76,58445,1,0
208,40,58778,6,0,B|160:80|160:80|64:80,1,140,2|10
56,144,59778,1,0
28,208,60111,2,0,B|24:296|124:336,1,140,2|10
164,336,61111,1,0
232,328,61445,6,0,B|296:304|392:320,1,140,2|10
440,300,62445,1,0
468,236,62778,2,0,B|524:184,2,70,2|0|10
404,208,63778,1,0
352,160,64111,6,0,B|312:104|248:56,1,140,2|10
184,56,65111,1,0
116,72,65445,2,0,B|92:104|92:104|108:160|64:204,1,140,2|10
20,248,66445,1,0
68,300,66778,6,0,B|108:360|208:356,1,140,2|10
256,336,67778,1,0
300,284,68111,2,0,B|344:296|372:336,2,70,2|0|10
276,220,69111,1,0
244,156,69445,6,0,B|184:120|104:136,1,140,2|10
56,180,70445,1,0
32,244,70778,2,0,B|92:384,1,140,2|10
156,372,71778,1,0
220,340,72111,6,0,B|276:288|360:316,1,140,2|10
420,296,73111,1,0
452,232,73445,2,0,B|472:204|480:152,2,70,2|0|10
388,200,74445,1,0
336,152,74778,6,0,B|280:204|200:192,1,140,4|10
136,180,75778,1,0
72,204,76111,2,0,B|68:288|128:340,1,140,2|10
176,364,77111,1,0
232,324,77445,6,0,B|296:352|372:324,1,140,2|10
412,272,78445,1,0
448,212,78778,2,0,B|456:172|496:152,2,70,2|0|10
412,272,79778,1,0
344,228,80112,6,0,B|292:168|200:164,1,140,2|10
152,168,81112,1,0
84,160,81445,2,0,B|64:76|120:28,1,140,2|10
188,36,82445,1,0
252,40,82778,6,0,B|308:76|396:64,1,140,2|10
456,76,83778,2,0,B|512:32,2,70,0|2|0
420,136,84778,2,0,B|408:212,1,70,10|0
256,192,85445,12,0,88112
