osu file format v9

[General]
AudioFilename: fuuuuu.mp3
AudioLeadIn: 2000
PreviewTime: 53453
Countdown: 0
SampleSet: Soft
StackLeniency: 0.7
Mode: 0
LetterboxInBreaks: 0

[Editor]
Bookmarks: 28286
DistanceSpacing: 1.5
BeatDivisor: 4
GridSize: 4

[Metadata]
Title:Famiglia (TV Size)
Artist:D-51
Creator:Yasora
Version:Insane
Source:Katekyo Hitman REBORN!
Tags:ending ed15 home tutor

[Difficulty]
HPDrainRate:7
CircleSize:4
OverallDifficulty:7
ApproachRate:8
SliderMultiplier:2.2
SliderTickRate:1

[Events]
//Background and Video events
0,0,"i don't have another bg -_-.jpg"
Video,-100,"ugu.avi"
//Break Periods
//Storyboard Layer 0 (Background)
//Storyboard Layer 1 (Fail)
//Storyboard Layer 2 (Pass)
//Storyboard Layer 3 (Foreground)
//Storyboard Sound Samples
//Background Colour Transformations
3,100,163,162,255

[TimingPoints]
112,666.666666666667,4,2,1,80,1,0
5945,-100,4,2,1,60,0,0
6278,-100,4,2,1,80,0,0
7278,-100,4,2,1,60,0,0
7612,-100,4,2,1,80,0,0
8612,-100,4,2,1,60,0,0
8778,-100,4,2,1,80,0,0
10612,-100,4,2,0,80,0,0
10945,-100,4,2,1,80,0,0
21278,-100,4,2,0,80,0,0
21612,-100,4,2,1,80,0,0
42612,-100,4,2,0,80,0,0
42945,-100,4,2,1,80,0,0
53445,-100,4,2,0,80,0,1
53612,-100,4,2,1,80,0,1
74778,-100,4,2,1,80,0,0
85445,-100,4,2,1,5,0,0

[Colours]
Combo1 : 255,173,51
Combo2 : 0,128,0
Combo3 : 196,196,0
Combo4 : 47,47,255
SliderBorder : 255,255,255

[HitObjects]
256,196,112,1,4
256,148,778,1,2
256,240,1445,1,4
256,96,2112,1,2
360,32,2445,1,0
376,156,2778,6,0,B|400:208|400:208|356:288|408:368,1,220,4|2
40,192,4112,1,4
480,196,4778,1,2
256,32,5445,6,0,B|256:144,1,110,2|0
256,232,6111,1,8
48,332,6778,2,0,B|48:212,1,110,2|0
48,132,7445,1,8
464,332,8111,6,0,B|464:220,1,110,4|0
460,132,8778,1,8
376,80,9111,1,0
288,128,9445,5,2
236,180,9612,1,0
164,184,9778,1,4
420,316,10112,1,2
356,280,10278,1,0
324,216,10445,1,4
224,220,10778,6,0,B|216:292|120:336|48:312,1,220,4|8
224,220,11778,1,0
52,313,12112,2,0,B|-5:270|-5:155|54:114,1,220,2|8
140,28,13112,2,0,B|92:72,1,55
50,117,13445,6,0,B|64:184|138:225|230:205,1,220,2|8
327,186,14445,1,0
258,41,14778,2,0,B|209:12|151:38|151:38|96:64|49:21,1,220,2|8
202,112,15778,1,0
39,271,16112,6,0,B|83:314|83:314|141:278|237:302,1,220,2|8
345,318,17112,1,0
328,132,17445,2,0,B|320:204|406:266|492:229,1,220,2|8
427,137,18445,1,0
276,132,18778,6,0,B|235:145|226:177|226:177|169:189|70:169,1,220,2|8
55,82,19778,1,0
124,53,19945,2,0,B|140:20,2,27.5,0|0|2
164,115,20278,1,8
96,146,20445,2,0,B|68:200,2,55,0|0|8
96,146,20945,1,0
176,200,21111,1,2
136,280,21278,1,0
245,243,21445,6,0,B|296:216|360:244,1,110,4|0
416,304,21945,1,0
446,296,22028,1,0
466,272,22111,1,8
500,196,22278,2,0,B|503:165|480:141,1,55
500,64,22611,1,0
420,76,22778,2,0,B|361:96|345:156,1,110,2|0
292,216,23278,1,0
236,276,23445,2,0,B|207:328|141:309,1,110,8|0
232,160,24111,6,0,B|216:84|312:20|388:68,1,220,2|8
458,96,24945,1,0
411,163,25111,2,0,B|415:227|479:247,1,110,0|2
412,316,25611,2,0,B|400:344|372:360,2,55,8|0|0
336,288,26111,1,8
264,252,26278,1,0
192,292,26445,1,2
120,252,26611,1,0
60,308,26778,6,0,B|24:256|56:200,1,110,4|0
72,124,27278,2,0,B|104:128|124:156,1,55,0|8
184,200,27611,1,0
252,152,27778,2,0,B|292:112|360:120,1,110,0|2
380,196,28278,2,0,B|336:236|272:228,1,110,0|2
279,229,28778,1,8
252,308,28945,1,0
203,375,29111,1,0
146,314,29278,1,0
146,314,29361,1,0
146,314,29445,6,0,B|86:306|67:240,1,110,2|0
37,168,29945,1,0
174,96,30111,2,0,B|176:159|112:180,1,110,8|0
91,99,30611,1,0
36,168,30778,1,2
88,252,30945,2,0,B|72:284|40:296,2,55,8|0|0
148,168,31445,1,8
232,168,31611,1,0
308,204,31778,1,2
352,276,31945,1,2
436,172,32111,6,0,B|464:116|432:56,1,110,4|0
368,120,32611,1,0
332,104,32695,1,0
320,72,32778,1,8
244,40,32945,1,0
184,96,33111,2,0,B|120:80|80:128,1,110,0|2
80,204,33611,1,0
160,180,33778,2,0,B|183:230|236:260,1,110,0|8
316,252,34278,1,0
388,208,34445,1,0
436,140,34611,1,0
480,208,34778,6,0,B|504:263|476:319,1,110,2|0
408,360,35278,1,0
332,324,35445,2,0,B|286:291|228:304,1,110,8|0
148,320,35945,1,0
148,320,36111,2,0,B|120:270,1,55,2|8
88,196,36445,1,0
156,88,36611,1,0
216,196,36778,1,8
284,120,36945,2,0,B|318:132|322:171,2,55,0|2|2
276,36,37445,6,0,B|344:32|412:100|400:196,1,220,4|8
357,255,38278,1,0
276,232,38445,2,0,B|224:260|168:232,1,110,0|2
128,168,38945,1,0
68,112,39112,2,0,B|32:168|72:224,1,110,0|8
88,296,39612,2,0,B|54:343,2,55
190,276,40112,6,0,B|232:248|278:275|278:275|302:204|383:217,1,220,2|8
476,344,41112,1,0
464,180,41445,2,0,B|476:120,2,55,2|8|0
400,232,41945,1,0
400,232,42112,1,8
432,72,42445,1,2
268,132,42778,6,0,B|220:92|156:108,1,110,4|0
136,184,43278,1,0
56,208,43445,2,0,B|72:264|140:268,1,110,8|0
216,292,43945,1,0
272,352,44112,1,2
272,352,44445,2,0,B|324:364|384:348,1,110,0|10
444,128,45112,1,0
468,200,45278,1,0
444,128,45445,6,0,B|420:76|364:44,1,110,2|0
300,88,45945,1,0
220,108,46112,2,0,B|156:108|128:60,1,110,10|0
72,120,46612,1,0
28,188,46778,2,0,B|56:248,1,55,0|10
140,252,47112,2,0,B|116:200,1,55
72,120,47445,1,10
140,72,47612,2,0,B|124:48|88:40,2,55
212,112,48112,6,0,B|308:176|432:128,1,220,2|8
482,188,48945,1,0
444,264,49112,2,0,B|394:362,1,110,0|2
324,320,49612,1,0
352,244,49778,2,0,B|288:232|252:280,1,110,0|8
80,96,50445,1,0
116,160,50612,1,0
184,184,50778,6,0,B|248:184|280:120,1,110,2|0
280,48,51278,1,0
364,44,51445,2,0,B|424:32|472:68,1,110,8|0
480,148,51945,1,0
472,232,52112,2,0,B|456:288,1,55,2|0
340,316,52445,2,0,B|360:264,1,55,0|0
400,148,52778,2,0,B|344:184,1,55,2|0
204,196,53112,2,0,B|260:168,1,55,2|2
256,76,53445,6,0,B|232:32|164:32|164:32|48:32,1,220,4|10
36,112,54278,1,0
96,168,54445,2,0,B|84:232|144:264,1,110,0|2
220,272,54945,1,0
300,260,55112,2,0,B|300:324|240:356,1,110,0|10
220,272,55612,1,0
300,260,55778,1,0
364,212,55945,1,0
376,132,56112,6,0,B|372:72|316:48,1,110,2|0
424,44,56612,1,0
316,48,56778,2,0,B|264:72|200:48,1,110,10|0
132,84,57278,1,0
60,124,57445,2,0,B|44:196,1,55,2|8
106,228,57778,1,0
19,304,57945,2,0,B|35:240,1,55,0|10
106,228,58278,1,0
184,244,58445,1,2
236,308,58612,1,2
370,154,58778,6,0,B|303:203|303:203|316:282|228:310,1,220,4|10
123,309,59612,1,0
183,243,59778,2,0,B|183:176|183:176|217:141,1,110,0|2
283,102,60278,1,0
228,39,60445,2,0,B|163:28,2,55,0|0|10
303,182,61112,1,0
282,102,61278,1,0
380,188,61445,6,0,B|370:252|305:261,1,110,2|0
230,287,61945,1,0
184,218,62112,2,0,B|127:239|73:220,1,110,10|0
34,149,62612,1,0
34,66,62778,2,0,B|60:57|75:23,1,55,2|8
196,30,63112,2,0,B|200:59|238:75,1,55,0|0
132,168,63445,2,0,B|132:110,1,55,10|0
80,252,63778,1,2
132,340,63945,1,2
188,248,64112,6,0,B|231:218|231:218|294:216,1,110,4|0
336,284,64612,1,0
396,340,64778,2,0,B|456:340|456:340|480:288,1,110,10|0
496,216,65278,1,0
428,168,65445,2,0,B|379:142|321:160,1,110,2|0
248,200,65945,2,0,B|239:229|205:250,1,55,0|10
132,144,66278,2,0,B|177:181,1,55,0|2
92,36,66778,6,0,B|32:52|20:116,1,110,2|0
48,192,67278,1,0
128,216,67445,2,0,B|108:280|32:280,1,110,10|0
48,192,67945,1,0
120,136,68112,2,0,B|184:136|208:204,1,110,2|0
192,276,68612,1,0
140,340,68778,2,0,B|196:368|252:340,1,110,10|0
320,306,69278,1,0
396,108,69445,6,0,B|441:81|502:95,2,110,4|0|10
316,168,70278,1,0
224,128,70445,2,0,B|168:152|112:128,1,110,0|2
36,144,70945,1,0
84,212,71112,2,0,B|108:264|84:328,1,110,0|10
256,344,71778,1,0
336,288,71945,1,0
416,348,72112,6,0,B|468:344|496:300|496:244|468:204|416:196,1,220,4|8
296,96,73112,1,0
136,48,73445,2,0,B|96:101,1,55,0|8
52,156,73778,1,0
104,220,73945,2,0,B|152:259,1,55,0|10
192,344,74278,1,2
232,256,74445,1,2
192,164,74612,1,0
224,76,74778,6,0,B|292:32|384:72|400:152,1,220,4|8
224,76,75778,1,0
352,24,76112,2,0,B|256:236,1,220,2|8
132,328,77112,1,0
24,204,77445,6,0,B|84:252|184:212|196:124,1,220,2|8
174,52,78278,1,0
100,94,78445,2,0,B|132:146|196:132,1,110,0|2
264,184,78945,2,0,B|289:205|285:245,1,55,8|0
237,300,79278,2,0,B|215:285|214:245,1,55,0|10
131,254,79611,1,0
57,191,79778,1,2
99,94,79945,1,2
206,104,80111,6,0,B|278:61|373:111|370:193,1,220,4|8
467,52,81111,1,0
445,228,81445,2,0,B|456:172|430:113,1,110,2|0
378,58,81945,2,0,B|350:70|350:102,1,55,0|10
200,171,82445,1,0
140,114,82611,1,0
120,33,82778,6,0,B|84:64|35:53|35:53|80:136|34:186,1,220,2|10
89,334,83778,1,0
152,281,83945,1,0
231,303,84111,2,0,B|307:315,1,55,0|8
363,246,84445,1,0
398,143,84611,2,0,B|418:71,1,55,0|10
479,161,84945,1,2
324,118,85111,1,2
434,22,85278,1,0
256,192,85445,12,0,88111
