osu file format v9

[General]
AudioFilename: fuuuuu.mp3
AudioLeadIn: 2000
PreviewTime: 53453
Countdown: 0
SampleSet: Soft
StackLeniency: 0.7
Mode: 0
LetterboxInBreaks: 0

[Editor]
DistanceSpacing: 1.6
BeatDivisor: 4
GridSize: 4

[Metadata]
Title:Famiglia (TV Size)
Artist:D-51
Creator:Yasora
Version:Easy
Source:Katekyo Hitman REBORN!
Tags:ending ed15 home tutor

[Difficulty]
HPDrainRate:2
CircleSize:3
OverallDifficulty:2
ApproachRate:3
SliderMultiplier:1
SliderTickRate:1

[Events]
//Background and Video events
0,0,"i don't have another bg -_-.jpg"
Video,-100,"ugu.avi"
//Break Periods
//Storyboard Layer 0 (Background)
//Storyboard Layer 1 (Fail)
//Storyboard Layer 2 (Pass)
//Storyboard Layer 3 (Foreground)
//Storyboard Sound Samples
//Background Colour Transformations
3,100,163,162,255

[TimingPoints]
112,666.666666666667,4,2,1,80,1,0
5945,-100,4,2,1,60,0,0
6278,-100,4,2,1,80,0,0
7278,-100,4,2,1,60,0,0
7612,-100,4,2,1,80,0,0
8612,-100,4,2,1,60,0,0
8778,-100,4,2,1,80,0,0
10612,-100,4,2,0,80,0,0
10945,-100,4,2,1,80,0,0
21278,-100,4,2,0,80,0,0
21612,-100,4,2,1,80,0,0
42612,-100,4,2,0,80,0,0
42945,-100,4,2,1,80,0,0
53445,-100,4,2,0,80,0,1
53612,-100,4,2,1,80,0,1
74778,-100,4,2,1,80,0,0
85445,-100,4,2,1,5,0,0

[Colours]
Combo1 : 255,173,51
Combo2 : 0,128,0
Combo3 : 196,196,0
Combo4 : 47,47,255
SliderBorder : 255,255,255

[HitObjects]
56,196,112,1,4
156,196,778,1,2
240,252,1445,1,4
280,348,2112,1,2
336,264,2778,6,0,B|384:232|392:160,2,100,4|2|4
288,176,4778,1,2
204,116,5445,6,0,B|168:72|108:72,1,100,4|8
120,172,6778,2,0,B|88:220|120:268,1,100,2|8
204,216,8112,6,0,B|312:236,1,100,4|8
400,248,9445,2,0,B|432:308,2,50,2|0|10
400,168,10445,1,0
380,92,10778,6,0,B|336:60|276:60,1,100,4|8
200,112,12111,2,0,B|184:168|136:192,1,100,2|8
68,224,13111,1,0
108,296,13445,6,0,B|136:344|212:340,1,100,2|8
272,340,14445,1,0
352,340,14778,2,0,B|408:343|436:295,1,100,2|8
452,196,16111,5,2
388,120,16778,1,8
288,120,17445,1,2
224,196,18111,1,8
124,208,18778,6,0,B|124:268|184:292,1,100,2|8
272,312,20112,2,0,B|328:320|360:272,1,100,2|8
428,204,21445,5,4
408,104,22112,2,0,B|380:64|380:64|312:64,1,100,8|2
252,128,23445,2,0,B|204:156,1,50,8|0
132,128,24112,6,0,B|116:188|168:224,1,100,2|8
216,300,25445,2,0,B|164:344,2,50,2|0|8
308,256,26778,5,2
388,196,27445,2,0,B|424:152|416:96,1,100,8|2
336,44,28778,1,8
236,32,29445,6,0,B|224:92|280:128,1,100,2|8
264,220,30778,2,0,B|296:264,2,50,2|0|8
164,208,32112,5,2
96,136,32778,2,0,B|144:40,1,100,8|2
240,40,34112,1,8
336,68,34778,6,0,B|380:96|440:88,1,100,2|8
464,184,36112,2,0,B|512:156,2,50,2|0|8
384,244,37445,6,0,B|392:308|344:336,1,100,2|8
252,304,38778,1,2
156,272,39445,1,8
104,188,40111,6,0,B|88:128|128:76,2,100,2|8|2
172,224,41778,2,0,B|228:256,1,50,0|8
312,268,42778,5,4
392,212,43445,2,0,B|440:176|432:104,1,100,8|2
332,136,44778,1,10
256,68,45445,2,0,B|220:112|240:176,1,100,2|8
168,236,46778,2,0,B|136:280|72:272,1,100,2|8
12,200,48111,6,0,B|0:96,1,100,4|8
80,40,49445,2,0,B|92:152,1,100,2|8
148,224,50778,2,0,B|192:272|248:280,2,100,2|8|2
204,140,52778,1,8
284,80,53445,6,0,B|332:56|400:68,1,100,4|10
436,124,54445,1,0
440,204,54778,2,0,B|420:248|460:276|432:312,1,100,2|10
368,336,55778,1,0
308,288,56111,6,0,B|268:260|208:256,2,100,2|8|2
336,192,58111,1,10
304,96,58778,6,0,B|276:48|208:44,1,100,4|10
216,144,60111,2,0,B|172:176|104:156,1,100,2|10
56,236,61445,5,2
128,308,62111,1,10
208,252,62778,2,0,B|256:228|308:252,1,100,2|10
460,220,64111,6,0,B|512:132,1,100,4|10
444,88,65111,1,0
364,88,65445,2,0,B|320:120|268:88,1,100,2|10
192,68,66445,1,0
128,116,66778,6,0,B|96:156|120:208|120:208|144:260|112:312,1,200,4|2
52,252,68445,1,0
32,176,68778,2,0,B|28:148|36:108,1,50,8|0
76,60,69445,6,0,B|124:36|180:60,1,100,4|10
260,108,70778,2,0,B|296:144|352:148,1,100,2|10
424,216,72111,5,2
348,280,72778,1,8
268,216,73445,1,2
344,148,74111,1,8
300,56,74778,6,0,B|252:40|192:40,1,100,4|8
100,32,76111,2,0,B|88:92|140:120,1,100,2|8
196,196,77445,2,0,B|200:256|168:296,2,100,2|8|2
272,132,79445,1,8
324,48,80112,6,0,B|356:92|416:104,1,100,2|8
496,60,81445,2,0,B|512:116|480:172,1,100,2|8
404,212,82778,2,0,B|400:264|444:312,2,100,2|8|2
304,192,84778,1,8
256,192,85445,12,0,88112
