osu file format v8

[General]
AudioFilename: D-51 - Brand New World (TV Size).MP3
AudioLeadIn: 2000
PreviewTime: 48639
Countdown: 0
SampleSet: Normal
StackLeniency: 0.7
Mode: 0
LetterboxInBreaks: 1

[Editor]
Bookmarks: 635,12636,24637,36638,48639,60640,72641,78641,90643,102644,108644
DistanceSpacing: 1
BeatDivisor: 2
GridSize: 8

[Metadata]
Title:Brand New World (TV Size)
Artist:D-51
Creator:YGOkid8
Version:Normal
Source:One Piece
Tags:pirate opening op 6 lepidopodus

[Difficulty]
HPDrainRate:3
CircleSize:3
OverallDifficulty:4
ApproachRate:4
SliderMultiplier:1.2
SliderTickRate:2

[Events]
//Background and Video events
0,0,"onepiece14.jpg"
Video,0,"One Piece Opening 6- Brand New World - HD 720p.MP4.AVI"
//Break Periods
2,6835,11316
//Storyboard Layer 0 (Background)
//Storyboard Layer 1 (Fail)
//Storyboard Layer 2 (Pass)
//Storyboard Layer 3 (Foreground)
//Storyboard Sound Samples
//Background Colour Transformations
3,100,163,162,255

[TimingPoints]
635,375.033438964934,4,1,1,65,1,0
635,-100,4,1,1,65,0,1
636,-100,4,1,1,65,0,0
48639,-100,4,1,1,65,0,1
60639,-100,4,1,1,65,0,0
60640,-100,4,1,1,65,0,1
72640,-100,4,1,1,65,0,0
72641,-100,4,1,1,65,0,1
72642,-100,4,1,1,65,0,0
78641,-100,4,1,1,65,0,1
90642,-100,4,1,1,65,0,0
90643,-100,4,1,1,65,0,1
102643,-100,4,1,1,65,0,0
102644,-100,4,1,1,65,0,1
102645,-100,4,1,1,65,0,0
108644,-100,4,1,1,65,0,1
108645,-100,4,1,1,65,0,0

[HitObjects]
448,208,1010,2,2,B|312:280|240:200|152:256,1,300
112,288,2135,2,0,B|128:352|184:376,2,60,4|4|0
104,232,2697,2,2,B|96:136|136:96|200:48|256:64,1,240
296,64,3635,6,0,B|360:80|384:136,2,60,4|4|0
264,112,4197,2,2,B|286:213|394:208|416:309,1,240
384,344,5135,2,0,B|312:368|248:352|208:288,2,180,4|6|0
456,248,6635,1,4
144,72,12636,6,0,B|192:32|256:24|320:32|368:72,2,240,4|8|0
56,152,14511,1,0
176,152,14886,1,8
400,232,15636,6,0,B|152:232,2,240,4|8|0
256,40,17886,1,8
144,88,18261,1,0
88,192,18636,1,4
256,360,19386,6,0,B|376:352|400:272|376:184,2,240,8|0|8
136,344,21261,1,0
48,264,21636,6,0,B|48:173|98:88,2,180,4|0|8
144,184,23137,2,0,B|208:120|304:96,1,180,0|0
256,208,24074,1,0
256,208,24262,2,0,B|256:336,1,120,8|4
480,144,25387,6,0,B|448:72|344:40|280:72|240:112,1,240,8|0
376,152,26512,2,8,B|404:225|353:321|285:344|228:344,1,240
152,336,27637,5,4
56,264,28012,1,0
32,144,28387,2,0,B|64:72|168:40|232:72|272:112,1,240,8|4
288,120,29325,2,0,B|336:176|320:256,3,120,0|0|0|4
392,136,30825,6,0,B|465:141|510:209,2,120,8|4|8
344,248,31950,2,0,B|315:310|253:349|179:332,1,180,4|8
80,312,32887,1,0
8,216,33262,1,8
24,96,33637,2,0,B|104:48|224:48,1,180,4|0
256,192,34388,12,6,36638
136,104,37200,6,0,B|328:104,1,180,6|6
472,192,38325,1,0
472,192,38513,2,0,B|336:192,2,120,8|0|8
472,312,39638,5,6
288,312,40201,2,0,B|88:312,1,180,6|6
40,144,41326,1,0
160,144,41701,1,0
160,144,41888,2,0,B|288:144,1,120,0|8
400,144,42638,6,0,B|400:336,2,180,6|6|6
256,256,44326,1,6
112,144,44888,2,0,B|112:272,1,120,6|6
256,192,45639,12,0,47139
256,192,48639,5,4
352,120,49014,1,8
408,144,49201,2,2,B|440:248|400:304|336:336|272:320,1,240
248,320,50139,2,0,B|200:320|152:288,2,60,0|0|8
280,272,50701,2,2,B|280:176|224:128|136:112|80:152,1,240
72,160,51639,6,0,B|38:193|-18:205,2,60,4|0|8
80,104,52202,1,2
192,56,52577,2,2,B|288:40|384:64,1,180,2|4
448,152,53514,2,0,B|504:216,1,60,8|6
416,288,54077,2,0,B|352:344,2,60,0|8|6
304,240,54827,6,0,B|240:248|152:304,1,120,8|2
72,288,55577,1,8
32,176,55952,1,2
88,72,56327,2,2,B|168:48|248:56,2,120,2|2|2
88,72,57265,1,8
176,152,57640,6,0,B|352:176,1,120,6|8
368,264,58390,2,0,B|192:288,1,120,6|8
256,192,59140,12,4,60640
384,104,61015,6,2,B|344:40|256:8|168:40|128:104,1,300,10|2
104,160,62140,1,0
104,224,62328,1,0
128,280,62515,2,2,B|168:344|256:376|344:344|384:280,1,300,10|2
408,224,63640,5,4
408,160,63828,1,0
384,104,64015,2,0,B|200:104,2,180,8|0|4
344,216,65515,2,0,B|432:256,1,60,8|6
232,264,66078,2,0,B|152:336,2,60,0|8|6
112,256,66828,6,0,B|64:256|16:288,2,60,0|8|2
120,136,67578,2,0,B|86:102|29:90,2,60,0|8|2
168,176,68141,2,10,B|360:176,2,180
208,288,69641,6,0,B|368:328,1,120,6|8
416,240,70391,2,0,B|274:155,1,120,6|8
192,168,71141,1,6
192,168,71328,1,0
264,72,71703,1,0
264,72,71891,2,2,B|368:72|432:104,1,120,6|10
256,192,72641,12,4,74141
128,224,74891,6,2,B|256:136,1,120,2|8
280,120,75454,1,2
328,88,75641,6,0,B|480:136,1,120,6|10
392,232,76391,2,0,B|240:280,1,120,6|10
256,192,77141,12,4,78641
160,264,79016,5,8
104,240,79203,2,2,B|72:136|112:80|176:48|240:64,1,240
264,64,80141,2,0,B|312:64|360:96,2,60,0|0|8
232,112,80703,2,2,B|232:208|288:256|376:272|432:232,1,240
440,224,81641,6,0,B|474:191|530:179,2,60,4|0|8
432,280,82204,1,2
320,328,82579,2,2,B|224:344|128:320,1,180,2|4
64,232,83516,2,0,B|8:168,1,60,8|6
96,96,84079,2,0,B|160:40,2,60,0|8|6
208,144,84829,6,0,B|272:136|360:80,1,120,8|6
440,96,85579,1,8
480,208,85954,1,6
424,312,86329,2,2,B|344:336|264:328,2,120
424,312,87267,1,8
336,232,87642,6,0,B|160:208,1,120,6|8
144,120,88392,2,0,B|320:96,1,120,6|8
256,192,89142,12,4,90642
128,280,91017,6,2,B|168:344|256:376|344:344|384:280,1,300,10|2
408,224,92142,1,0
408,160,92330,1,0
384,104,92517,2,2,B|344:40|256:8|168:40|128:104,1,300,10|2
104,160,93642,5,4
104,224,93830,1,0
128,280,94017,2,0,B|312:280,2,180,8|0|4
168,168,95517,2,0,B|80:128,1,60,8|6
280,120,96080,2,0,B|360:48,2,60,0|8|6
400,128,96830,6,0,B|448:128|496:96,2,60,0|8|2
392,248,97580,2,0,B|426:282|483:294,2,60,0|8|2
344,208,98143,2,10,B|152:208,2,180
304,96,99643,6,0,B|144:56,1,120,6|8
96,144,100393,2,0,B|238:229,1,120,6|8
320,216,101143,1,6
320,216,101330,1,0
192,344,101893,2,2,B|88:344|24:312,1,120,6|10
256,192,102643,12,4,104143
384,160,104893,6,2,B|256:248,1,120,2|8
232,264,105456,1,2
184,296,105643,6,0,B|32:248,1,120,6|10
120,152,106393,2,0,B|272:104,1,120,6|10
256,192,107143,12,14,108643
