osu file format v8

[General]
AudioFilename: D-51 - Brand New World (TV Size).MP3
AudioLeadIn: 2000
PreviewTime: 48639
Countdown: 0
SampleSet: Normal
StackLeniency: 0.7
Mode: 0
LetterboxInBreaks: 1

[Editor]
Bookmarks: 635,12636,24637,36638,48639,60640,72641,78641,90643,102644,108644
DistanceSpacing: 1.20000004768372
BeatDivisor: 4
GridSize: 8

[Metadata]
Title:Brand New World (TV Size)
Artist:D-51
Creator:YGOkid8
Version:Insane
Source:One Piece
Tags:pirate opening op 6 lepidopodus

[Difficulty]
HPDrainRate:7
CircleSize:4
OverallDifficulty:8
ApproachRate:8
SliderMultiplier:2.5
SliderTickRate:2

[Events]
//Background and Video events
0,0,"onepiece14.jpg"
Video,0,"One Piece Opening 6- Brand New World - HD 720p.MP4.AVI"
//Break Periods
2,6835,11886
//Storyboard Layer 0 (Background)
//Storyboard Layer 1 (Fail)
//Storyboard Layer 2 (Pass)
//Storyboard Layer 3 (Foreground)
//Storyboard Sound Samples
//Background Colour Transformations
3,100,163,162,255

[TimingPoints]
635,375.033438964934,4,1,1,65,1,0
635,-100,4,1,1,65,0,1
636,-100,4,1,1,65,0,0
48639,-100,4,1,1,65,0,1
56421,-100,4,1,2,65,0,1
56608,-100,4,1,1,65,0,1
60639,-100,4,1,1,65,0,0
60640,-100,4,1,1,65,0,1
72640,-100,4,1,1,65,0,0
72641,-100,4,1,1,65,0,1
72642,-100,4,1,1,65,0,0
78641,-100,4,1,1,65,0,1
86423,-100,4,1,2,65,0,1
86611,-100,4,1,1,65,0,1
90642,-100,4,1,1,65,0,0
90643,-100,4,1,1,65,0,1
102643,-100,4,1,1,65,0,0
102644,-100,4,1,1,65,0,1
102645,-100,4,1,1,65,0,0
108644,-100,4,1,1,65,0,1
108645,-100,4,1,1,65,0,0

[HitObjects]
408,80,635,1,4
424,176,822,1,4
440,280,1010,1,0
368,352,1197,2,2,B|320:288|192:288|144:352,1,250
72,280,1760,1,0
88,176,1947,1,2
104,80,2135,5,4
88,176,2322,1,4
184,144,2510,1,0
144,240,2697,2,2,B|192:304|320:304|368:240,1,250
328,144,3260,1,0
424,176,3447,1,2
408,80,3635,5,4
312,48,3822,1,4
256,128,4010,1,0
200,48,4197,1,2
104,80,4385,1,0
160,160,4572,2,2,B|224:280,1,125
352,160,4947,2,0,B|288:280,1,125,2|4
256,72,5510,5,0
256,72,5697,1,6
256,272,6072,1,0
256,272,6260,1,2
256,272,6354,1,0
256,272,6448,1,2
256,272,6541,1,0
256,272,6635,1,4
256,192,12636,5,4
64,136,13011,2,2,B|128:88|200:80,1,125,10|0
272,72,13386,2,2,B|351:83|407:128,1,125,2|0
424,208,13761,1,8
368,296,13948,1,0
272,336,14136,5,2
176,320,14323,1,0
176,320,14417,1,0
176,320,14511,1,8
88,272,14698,2,2,B|40:208|32:136,1,125,2|0
96,80,15073,2,2,B|144:144|152:216,1,125,2|8
148,192,15448,1,0
224,128,15636,6,2,B|480:120,2,250,6|8|2
256,224,16573,1,0
256,224,16667,1,0
256,224,16761,1,8
352,208,16948,1,0
448,192,17136,6,2,B|432:328,1,125
336,296,17511,1,8
240,336,17699,1,2
216,344,17792,1,0
192,352,17886,1,0
176,256,18074,1,0
152,240,18167,1,0
128,224,18261,1,8
56,296,18449,1,0
56,296,18636,1,4
472,152,19011,6,2,B|408:200|336:208,1,125,10|0
384,304,19386,2,2,B|320:256|248:248,1,125,2|0
192,184,19761,1,8
280,136,19949,1,0
360,80,20136,5,2
264,64,20324,1,0
264,64,20418,1,0
264,64,20511,1,8
160,64,20699,2,2,B|40:136,1,125,2|0
144,160,21074,2,2,B|96:288,1,125,2|8
100,277,21449,1,0
192,248,21636,6,2,B|448:256,2,250,6|8|2
264,176,22574,1,0
264,176,22668,1,0
264,176,22761,1,8
368,168,22949,1,0
424,88,23137,5,2
464,232,23324,1,0
344,320,23512,1,10
200,280,23699,1,2
56,320,23887,5,0
40,224,24074,1,0
48,120,24262,1,8
96,96,24355,1,0
144,88,24449,1,0
192,88,24543,1,0
240,80,24637,1,4
432,40,25012,6,2,B|464:104|440:168,1,125,10|0
376,232,25387,2,2,B|344:168|368:104,1,125,2|0
472,256,25762,1,8
400,328,25949,1,0
304,296,26137,5,2
208,328,26324,1,0
184,336,26418,1,0
160,344,26512,1,8
64,360,26699,2,2,B|86:292|148:263,1,125,2|0
240,248,27074,2,2,B|217:180|155:151,1,125,2|8
64,144,27449,1,0
144,80,27637,6,2,B|192:16|320:16|368:80,2,250,6|8|2
200,160,28574,1,0
200,160,28668,1,0
200,160,28762,1,8
312,160,28950,1,0
408,192,29137,5,2
408,296,29325,1,0
312,264,29512,1,8
256,352,29700,1,2
104,192,29887,5,2
104,296,30075,1,0
200,264,30262,1,8
256,352,30450,1,6
432,264,30825,5,0
256,168,31200,1,6
80,264,31575,1,0
96,64,31950,6,2,B|163:86|192:148,1,125,6|0
256,64,32325,1,0
328,144,32512,2,2,B|350:76|412:47,2,125,10|0|2
304,240,33075,1,0
208,240,33262,1,10
256,328,33450,1,0
352,328,33637,5,6
400,240,33825,1,0
448,328,34012,1,8
496,240,34200,1,0
448,152,34388,1,0
352,152,34575,1,0
352,152,34669,1,0
352,152,34763,1,8
304,240,34950,1,0
160,328,35138,5,4
112,240,35326,1,0
64,328,35513,1,8
16,240,35701,1,0
64,152,35889,1,0
160,152,36076,1,0
160,152,36169,1,0
160,152,36263,1,8
208,240,36451,1,0
256,328,36638,6,2,B|384:328,1,125,6|0
480,328,37013,1,8
256,56,37200,6,2,B|128:56,1,125,6|0
32,56,37575,1,0
256,192,37763,5,14
256,192,38138,1,0
64,272,38325,5,0
136,344,38513,1,8
184,256,38700,1,0
256,328,38888,1,0
328,256,39075,1,0
376,344,39263,1,8
448,272,39450,1,0
256,56,39638,6,2,B|128:56,1,125,6|0
32,56,40013,1,8
256,328,40201,6,2,B|384:328,1,125,6|0
480,328,40576,1,0
256,192,40763,5,14
256,192,41138,1,0
448,112,41325,5,0
376,40,41513,1,8
328,128,41700,1,0
256,56,41888,1,0
184,128,42075,1,0
136,40,42263,1,8
64,112,42450,1,0
40,208,42638,6,2,B|40:344,2,125,6|0|8
472,176,43201,2,2,B|472:40,2,125,6|0|0
112,208,43763,6,2,B|112:336,2,125,14|0|0
400,176,44326,2,2,B|400:48,2,125,6|8|0
256,192,44888,5,6
256,192,45076,1,0
256,192,45263,1,14
256,192,45639,12,8,46764
256,40,46951,5,0
256,144,47139,1,6
256,240,47326,1,0
256,344,47514,1,8
256,192,47701,12,4,48639
80,56,49014,5,8
144,128,49201,2,2,B|192:64|320:64|368:128,1,250
432,56,49764,1,8
432,56,49951,1,2
464,152,50139,5,0
488,256,50326,1,0
392,224,50514,1,8
368,320,50701,2,2,B|320:384|192:384|144:320,1,250
120,224,51264,1,8
24,256,51451,1,2
48,152,51639,5,4
136,104,51827,1,0
224,64,52014,1,8
320,32,52202,2,2,B|376:136|256:136|320:272,1,250
400,208,52764,1,8
416,112,52952,2,2,B|336:88|240:112|176:192,1,250,2|0
128,256,53514,5,8
112,352,53702,2,2,B|192:376|288:352|352:272,1,250,2|0
400,208,54264,1,8
400,208,54452,1,2
80,48,54827,5,0
48,144,55014,1,8
136,192,55202,1,2
432,48,55577,5,0
464,144,55764,1,8
376,192,55952,1,2
256,32,56327,6,2,B|200:136|320:136|256:272,1,250
184,200,56890,1,2
376,264,57265,1,8
352,360,57452,1,0
256,368,57640,5,6
496,192,58015,1,8
256,16,58390,1,6
16,192,58765,1,8
80,112,58952,5,0
176,80,59140,1,6
272,104,59327,1,0
336,184,59515,1,8
360,280,59702,1,2
256,192,59890,12,4,60640
480,160,61015,5,8
416,88,61202,2,2,B|354:31|257:10|165:54,1,250
88,88,61765,1,8
16,160,61952,1,2
16,264,62140,5,0
88,192,62328,1,0
184,152,62515,1,8
280,146,62702,2,2,B|363:149|446:203|480:299,1,250
512,376,63265,1,8
512,376,63453,1,2
416,360,63640,5,4
352,280,63828,1,0
272,344,64015,1,8
184,272,64203,2,2,B|297:238|212:153|353:102,1,250,2|2
400,192,64765,1,8
352,280,64953,2,2,B|269:277|186:223|152:127,1,250,2|0
144,48,65515,5,8
240,80,65703,2,2,B|237:163|183:246|87:280,1,250,2|0
8,304,66265,1,8
8,304,66453,1,2
416,56,66828,5,0
368,144,67015,1,8
400,240,67203,1,2
96,328,67578,5,0
144,240,67765,1,8
112,144,67953,1,2
120,40,68141,6,0,B|199:107|216:147,1,125,6|0
256,216,68516,1,8
392,40,68703,2,0,B|312:107|295:147,1,125,2|0
256,216,69078,1,0
152,216,69266,1,10
176,312,69453,1,0
256,368,69641,5,6
496,192,70016,1,8
256,16,70391,1,6
16,192,70766,1,8
304,104,71141,5,6
208,104,71328,1,0
256,192,71516,1,8
320,272,71703,1,0
376,352,71891,2,2,B|272:407|272:287|136:351,1,250,2|10
256,192,72641,12,4,74141
256,192,74516,5,8
80,288,74891,2,2,B|168:160,1,125,2|0
80,120,75266,1,8
176,88,75454,1,2
272,80,75641,5,6
296,64,75735,1,0
320,48,75829,1,0
336,144,76016,1,10
365,150,76110,1,0
393,156,76204,1,0
408,56,76391,5,6
433,39,76485,1,0
457,24,76579,1,0
488,120,76766,1,10
482,149,76860,1,0
476,177,76954,1,0
448,272,77141,5,8
400,296,77235,1,0
352,296,77329,1,0
304,280,77423,1,0
264,248,77516,1,8
256,200,77610,1,0
256,152,77704,1,0
248,104,77798,1,0
216,64,77891,1,8
168,48,77985,1,0
120,48,78079,1,0
72,72,78173,1,0
48,120,78266,1,8
48,168,78360,1,0
72,216,78454,1,0
112,248,78548,1,0
160,256,78641,1,4
432,328,79016,5,8
368,256,79203,2,2,B|320:320|192:320|144:256,1,250
80,328,79766,1,8
80,328,79953,1,2
48,232,80141,5,0
24,128,80328,1,0
120,160,80516,1,8
144,64,80703,2,2,B|192:0|320:0|368:64,1,250
392,160,81266,1,8
488,128,81453,1,2
464,232,81641,5,4
376,280,81829,1,0
288,320,82016,1,8
192,352,82204,2,2,B|136:248|256:248|192:112,1,250
112,176,82766,1,8
96,272,82954,2,2,B|176:296|272:272|336:192,1,250,2|0
384,128,83516,5,8
400,32,83704,2,2,B|320:8|224:32|160:112,1,250,2|0
112,176,84266,1,8
112,176,84454,1,2
432,336,84829,5,0
464,240,85016,1,8
376,192,85204,1,2
80,336,85579,5,0
48,240,85766,1,8
136,192,85954,1,2
256,352,86329,6,2,B|312:248|192:248|256:112,1,250
328,184,86892,1,2
136,120,87267,1,8
160,24,87454,1,0
256,16,87642,5,6
16,192,88017,1,8
256,368,88392,1,6
496,192,88767,1,8
432,112,88955,5,0
336,80,89143,1,6
240,104,89330,1,0
176,184,89518,1,8
152,280,89705,1,2
256,192,89892,12,4,90642
32,160,91017,5,8
96,88,91204,2,2,B|158:31|255:10|347:54,1,250
424,88,91767,1,8
496,160,91954,1,2
496,264,92142,5,0
424,192,92330,1,0
328,152,92517,1,8
232,146,92704,2,2,B|149:149|66:203|32:299,1,250
0,376,93267,1,8
0,376,93455,1,2
96,360,93642,5,4
160,280,93830,1,0
240,344,94017,1,8
328,272,94205,2,2,B|215:238|300:153|159:102,1,250,2|2
112,192,94767,1,8
160,280,94955,2,2,B|243:277|326:223|360:127,1,250,2|0
368,48,95517,5,8
272,80,95705,2,2,B|275:163|329:246|425:280,1,250,2|0
504,304,96267,1,8
504,304,96455,1,2
96,56,96830,5,0
144,144,97017,1,8
112,240,97205,1,2
416,328,97580,5,0
368,240,97767,1,8
400,144,97955,1,2
392,40,98143,6,0,B|312:108|295:148,1,125,6|0
256,216,98518,1,8
120,40,98705,2,0,B|199:108|216:148,1,125,2|0
256,216,99080,1,0
360,216,99268,1,10
336,312,99455,1,0
256,368,99643,5,6
496,192,100018,1,8
256,16,100393,1,6
16,192,100768,1,8
304,280,101143,5,6
208,280,101330,1,0
256,192,101518,1,8
320,112,101705,1,0
376,32,101893,2,2,B|272:-23|272:97|136:33,1,250,2|10
256,192,102644,12,4,104144
256,192,104519,5,8
432,96,104894,2,2,B|344:224,1,125,2|0
432,264,105269,1,8
336,296,105457,1,2
240,304,105644,5,6
216,320,105738,1,0
192,336,105832,1,0
176,240,106019,1,10
147,234,106113,1,0
119,228,106207,1,0
104,328,106394,5,6
79,345,106488,1,0
55,360,106582,1,0
24,264,106769,1,10
30,235,106863,1,0
36,207,106957,1,0
64,112,107144,5,14
112,88,107238,1,0
160,88,107332,1,0
208,104,107426,1,0
248,136,107519,1,10
256,184,107613,1,0
256,232,107707,1,0
264,280,107801,1,0
296,320,107894,1,14
344,336,107988,1,0
392,336,108082,1,0
440,312,108176,1,0
464,264,108269,1,10
464,216,108363,1,0
440,168,108457,1,0
400,136,108551,1,0
352,128,108644,1,14
