osu file format v14

[General]
AudioFilename: Maniera.mp3
AudioLeadIn: 0
PreviewTime: 15946
Countdown: 0
SampleSet: Soft
StackLeniency: 0.7
Mode: 3
LetterboxInBreaks: 0
SpecialStyle: 0
WidescreenStoryboard: 0

[Editor]
DistanceSpacing: 1.3
BeatDivisor: 4
GridSize: 8
TimelineZoom: 1.7

[Metadata]
Title:MANIERA
TitleUnicode:MANIERA
Artist:D(ABE3)
ArtistUnicode:D(ABE3)
Creator:iJinjin
Version:Insane
Source:BMS
Tags:jinjin piano tristan97 abe yuta DWMω
BeatmapID:666539
BeatmapSetID:272871

[Difficulty]
HPDrainRate:7.8
CircleSize:7
OverallDifficulty:8
ApproachRate:5
SliderMultiplier:1.4
SliderTickRate:1

[Events]
//Background and Video events
0,0,"maniera bg resolution fixed.jpg",0,0
//Break Periods
//Storyboard Layer 0 (Background)
//Storyboard Layer 1 (Fail)
//Storyboard Layer 2 (Pass)
//Storyboard Layer 3 (Foreground)
//Storyboard Sound Samples

[TimingPoints]
2105,288.461538461538,4,2,1,30,1,0
66142,288.461538461538,4,2,1,30,1,0
92391,288.461538461538,4,2,1,30,1,0

[HitObjects]
256,192,951,5,0,0:0:0:70:stick.wav
256,192,1239,1,0,0:0:0:70:stick.wav
256,192,1528,1,0,0:0:0:70:stick.wav
36,192,1672,1,0,0:0:0:40:SoftSN.wav
109,192,1708,1,0,0:0:0:40:SoftSN.wav
182,192,1744,1,0,0:0:0:40:SoftSN.wav
256,192,1780,1,0,0:0:0:40:SoftSN.wav
329,192,1816,1,0,0:0:0:40:SoftSN.wav
329,192,1960,1,0,0:0:0:40:SoftSN.wav
36,192,2104,1,0,0:0:0:40:SoftSN.wav
182,192,2104,1,0,0:0:0:0:
475,192,2104,1,0,0:0:0:0:
402,192,2249,1,0,0:0:0:0:
256,192,2321,1,0,0:0:0:0:
402,192,2393,1,0,0:0:0:0:
182,192,2465,1,0,0:0:0:0:
329,192,2537,1,0,0:0:0:0:
182,192,2609,1,0,0:0:0:0:
475,192,2681,1,0,0:0:0:0:
402,192,2754,1,0,0:0:0:0:
36,192,2826,1,0,0:0:0:70:CowB.wav
329,192,2826,1,0,0:0:0:0:
109,192,2898,1,0,0:0:0:70:CowB.wav
402,192,2898,1,0,0:0:0:0:
182,192,2970,1,0,0:0:0:70:CowB.wav
475,192,2970,1,0,0:0:0:0:
182,192,3114,1,0,0:0:0:70:CowB.wav
475,192,3114,1,0,0:0:0:0:
36,192,3258,1,0,0:0:0:0:
256,192,3258,1,0,0:0:0:0:
329,192,3258,1,0,0:0:0:0:
475,192,3258,1,0,0:0:0:0:
109,192,3330,1,0,0:0:0:0:
182,192,3403,1,0,0:0:0:0:
256,192,3475,1,0,0:0:0:0:
329,192,3547,1,0,0:0:0:0:
256,192,3619,1,0,0:0:0:0:
182,192,3691,1,0,0:0:0:0:
109,192,3763,1,0,0:0:0:0:
402,192,3835,1,0,0:0:0:0:
329,192,3907,1,0,0:0:0:0:
36,192,3979,1,0,0:0:0:30:Low.wav
256,192,3979,1,0,0:0:0:0:
109,192,4052,1,0,0:0:0:30:Low.wav
329,192,4052,1,0,0:0:0:0:
182,192,4124,1,0,0:0:0:30:Low.wav
402,192,4124,1,0,0:0:0:0:
182,192,4268,1,0,0:0:0:30:Low.wav
402,192,4268,1,0,0:0:0:0:
36,192,4412,1,0,0:0:0:40:BD.wav
256,192,4412,1,0,0:0:0:0:
475,192,4412,1,0,0:0:0:0:
329,192,4412,1,0,0:0:0:0:
109,192,4484,1,0,0:0:0:0:
182,192,4556,1,0,0:0:0:30:Low.wav
256,192,4629,1,0,0:0:0:30:Low.wav
329,192,4701,1,0,0:0:0:70:SoftSN.wav
475,192,4701,1,0,0:0:0:0:
256,192,4773,1,0,0:0:0:0:
182,192,4845,1,0,0:0:0:0:
109,192,4917,1,0,0:0:0:0:
36,192,4989,1,0,0:0:0:40:BD.wav
402,192,4989,1,0,0:0:0:0:
475,192,4989,1,0,0:0:0:0:
329,192,5061,1,0,0:0:0:0:
256,192,5133,1,0,0:0:0:30:Low.wav
182,192,5205,1,0,0:0:0:30:Low.wav
109,192,5278,1,0,0:0:0:70:SoftSN.wav
36,192,5278,1,0,0:0:0:0:
182,192,5350,1,0,0:0:0:0:
256,192,5422,1,0,0:0:0:0:
329,192,5494,1,0,0:0:0:0:
36,192,5566,1,0,0:0:0:0:
402,192,5566,1,0,0:0:0:0:
475,192,5566,1,0,0:0:0:0:
182,192,5638,1,0,0:0:0:15:SoftSN.wav
329,192,5710,1,0,0:0:0:20:SoftSN.wav
475,192,5710,1,0,0:0:0:0:
36,192,5782,1,0,0:0:0:20:SoftSN.wav
182,192,5782,1,0,0:0:0:0:
475,192,5854,1,0,0:0:0:30:splash.wav
329,192,5927,1,0,0:0:0:25:SoftSN.wav
109,192,5999,1,0,0:0:0:30:SoftSN.wav
182,192,5999,1,0,0:0:0:0:
329,192,6071,1,0,0:0:0:30:SoftSN.wav
402,192,6071,1,0,0:0:0:0:
36,192,6143,1,0,0:0:0:40:RD2.wav
475,192,6143,1,0,0:0:0:0:
182,192,6287,1,0,0:0:0:0:
256,192,6335,1,0,0:0:0:0:
329,192,6383,1,0,0:0:0:0:
36,192,6431,1,0,0:0:0:0:
109,192,6479,1,0,0:0:0:0:
182,192,6504,1,0,0:0:0:0:
256,192,6540,1,0,0:0:0:0:
329,192,6576,1,0,0:0:0:0:
402,192,6720,1,0,0:0:0:40:crush1.wav
475,192,6720,1,0,0:0:0:0:
36,192,6720,128,0,7585:0:0:0:0:
182,192,6816,1,0,0:0:0:0:
329,192,6912,1,0,0:0:0:0:
475,192,7008,1,0,0:0:0:0:
329,192,7104,1,0,0:0:0:0:
182,192,7201,1,0,0:0:0:0:
475,192,7297,1,0,0:0:0:0:
329,192,7393,1,0,0:0:0:0:
256,192,7489,1,0,0:0:0:0:
182,192,7585,128,0,8162:0:0:0:0:
475,192,7585,1,0,0:0:0:0:
402,192,7585,1,0,0:0:0:0:
329,192,7681,1,0,0:0:0:0:
256,192,7778,1,0,0:0:0:0:
475,192,7874,1,0,0:0:0:0:
402,192,7970,1,0,0:0:0:0:
329,192,8066,1,0,0:0:0:0:
109,192,8162,128,0,8739:0:0:0:0:
256,192,8162,1,0,0:0:0:0:
36,192,8162,1,0,0:0:0:0:
329,192,8258,1,0,0:0:0:0:
402,192,8354,1,0,0:0:0:0:
182,192,8451,1,0,0:0:0:0:
256,192,8547,1,0,0:0:0:0:
329,192,8643,1,0,0:0:0:0:
36,192,8739,128,0,9028:0:0:0:0:
402,192,8739,1,0,0:0:0:0:
475,192,8739,1,0,0:0:0:0:
182,192,8835,1,0,0:0:0:0:
256,192,8931,1,0,0:0:0:0:
402,192,9028,128,0,9893:0:0:0:40:crush1.wav
475,192,9028,1,0,0:0:0:0:
109,192,9028,1,0,0:0:0:0:
182,192,9124,1,0,0:0:0:0:
256,192,9220,1,0,0:0:0:0:
36,192,9316,1,0,0:0:0:0:
109,192,9412,1,0,0:0:0:0:
182,192,9508,1,0,0:0:0:0:
256,192,9604,1,0,0:0:0:0:
182,192,9701,1,0,0:0:0:0:
109,192,9797,1,0,0:0:0:0:
475,192,9893,128,0,10470:0:0:0:0:
36,192,9893,1,0,0:0:0:0:
329,192,9893,1,0,0:0:0:0:
256,192,9989,1,0,0:0:0:0:
329,192,10085,1,0,0:0:0:0:
182,192,10181,1,0,0:0:0:0:
256,192,10278,1,0,0:0:0:0:
329,192,10374,1,0,0:0:0:0:
402,192,10470,128,0,11047:0:0:0:0:
36,192,10470,1,0,0:0:0:0:
109,192,10470,1,0,0:0:0:0:
182,192,10566,1,0,0:0:0:0:
256,192,10662,1,0,0:0:0:0:
36,192,10758,1,0,0:0:0:40:SNTight.wav
109,192,10854,1,0,0:0:0:40:MidH.wav
182,192,10951,1,0,0:0:0:40:MidH.wav
256,192,11047,1,0,0:0:0:40:MidL.wav
475,192,11047,1,0,0:0:0:0:
329,192,11047,128,0,11335:0:0:0:0:
182,192,11143,1,0,0:0:0:40:MidL.wav
109,192,11239,1,0,0:0:0:40:Low.wav
36,192,11335,1,0,0:0:0:40:SoftBD.wav
475,192,11335,1,0,0:0:0:40:Low.wav
109,192,11431,1,0,0:0:0:0:
182,192,11528,1,0,0:0:0:40:SoftBD.wav
256,192,11624,1,0,0:0:0:30:SNRim.wav
402,192,11624,1,0,0:0:0:0:
109,192,11720,1,0,0:0:0:40:Hi.wav
402,192,11816,1,0,0:0:0:40:MidH.wav
36,192,11912,1,0,0:0:0:40:SoftBD.wav
256,192,11912,1,0,0:0:0:0:
329,192,12008,1,0,0:0:0:0:
402,192,12104,1,0,0:0:0:40:SoftBD.wav
475,192,12201,1,0,0:0:0:30:SNRim.wav
109,192,12201,1,0,0:0:0:0:
329,192,12297,1,0,0:0:0:40:Hi.wav
109,192,12393,1,0,0:0:0:40:MidH.wav
36,192,12489,1,0,0:0:0:40:SoftBD.wav
256,192,12489,1,0,0:0:0:0:
329,192,12585,1,0,0:0:0:0:
402,192,12681,1,0,0:0:0:40:SoftBD.wav
475,192,12778,1,0,0:0:0:30:SNRim.wav
182,192,12778,1,0,0:0:0:0:
329,192,12874,1,0,0:0:0:40:MidL.wav
182,192,12970,1,0,0:0:0:40:Low.wav
36,192,13066,1,0,0:0:0:40:crush2.wav
109,192,13066,1,0,0:0:0:40:SoftBD.wav
182,192,13162,1,0,0:0:0:0:
256,192,13258,1,0,0:0:0:40:SoftBD.wav
329,192,13354,1,0,0:0:0:30:SNRim.wav
475,192,13354,1,0,0:0:0:0:
109,192,13451,1,0,0:0:0:30:SoftBD.wav
182,192,13547,1,0,0:0:0:30:SoftBD.wav
256,192,13643,1,0,0:0:0:30:splash.wav
402,192,13643,1,0,0:0:0:30:crush2.wav
475,192,13643,1,0,0:0:0:0:
36,192,13931,1,0,0:0:0:0:
182,192,13931,1,0,0:0:0:0:
475,192,14220,1,0,0:0:0:0:
329,192,14220,1,0,0:0:0:0:
182,192,14364,1,0,0:0:0:0:
182,192,14653,1,0,0:0:0:0:
182,192,14797,1,0,0:0:0:0:
329,192,14941,1,0,0:0:0:0:
256,192,15013,1,0,0:0:0:0:
182,192,15085,1,0,0:0:0:0:
329,192,15229,1,0,0:0:0:0:
109,192,15374,1,0,0:0:0:0:
256,192,15446,1,0,0:0:0:30:RD2.wav
402,192,15518,1,0,0:0:0:0:
256,192,15590,1,0,0:0:0:0:
109,192,15662,1,0,0:0:0:30:BD.wav
329,192,15806,1,0,0:0:0:30:SNTight.wav
182,192,15806,1,0,0:0:0:0:
36,192,15951,1,0,0:0:0:40:BD.wav
256,192,15951,1,0,0:0:0:30:crush1.wav
402,192,15951,1,0,0:0:0:0:
109,192,16095,1,0,0:0:0:0:
182,192,16239,1,0,0:0:0:40:SNTight.wav
329,192,16239,1,0,0:0:0:0:
402,192,16383,1,0,0:0:0:40:RD2.wav
475,192,16528,1,0,0:0:0:40:BD.wav
109,192,16528,1,0,0:0:0:0:
329,192,16672,1,0,0:0:0:0:
402,192,16816,1,0,0:0:0:40:SNRim.wav
182,192,16816,1,0,0:0:0:0:
256,192,16960,1,0,0:0:0:0:
329,192,17104,1,0,0:0:0:40:BD.wav
36,192,17104,1,0,0:0:0:0:
182,192,17249,1,0,0:0:0:0:
256,192,17393,1,0,0:0:0:40:SNTight.wav
402,192,17393,1,0,0:0:0:0:
475,192,17537,1,0,0:0:0:40:RD2.wav
182,192,17681,1,0,0:0:0:40:BD.wav
329,192,17681,1,0,0:0:0:0:
109,192,17826,1,0,0:0:0:0:
256,192,17826,1,0,0:0:0:0:
329,192,17898,1,0,0:0:0:40:BD.wav
402,192,17970,1,0,0:0:0:40:SNRim.wav
36,192,17970,1,0,0:0:0:0:
475,192,18114,1,0,0:0:0:0:
182,192,18258,1,0,0:0:0:40:BD.wav
329,192,18258,1,0,0:0:0:0:
109,192,18403,1,0,0:0:0:0:
36,192,18547,1,0,0:0:0:40:SNTight.wav
256,192,18547,1,0,0:0:0:0:
182,192,18691,1,0,0:0:0:40:RD2.wav
109,192,18835,1,0,0:0:0:0:
329,192,18835,1,0,0:0:0:0:
475,192,18979,1,0,0:0:0:40:BD.wav
256,192,19124,1,0,0:0:0:40:SNRim.wav
36,192,19124,1,0,0:0:0:0:
109,192,19268,1,0,0:0:0:40:SoftBD.wav
182,192,19340,1,0,0:0:0:40:SoftBD.wav
256,192,19412,1,0,0:0:0:40:Low.wav
475,192,19412,1,0,0:0:0:0:
402,192,19484,1,0,0:0:0:40:Low.wav
329,192,19556,1,0,0:0:0:40:SoftBD.wav
256,192,19629,1,0,0:0:0:40:SoftBD.wav
475,192,19701,1,0,0:0:0:40:Low.wav
182,192,19701,1,0,0:0:0:0:
402,192,19773,1,0,0:0:0:40:Low.wav
109,192,19773,1,0,0:0:0:0:
329,192,19845,1,0,0:0:0:40:SoftBD.wav
36,192,19845,1,0,0:0:0:0:
256,192,19917,1,0,0:0:0:40:SoftBD.wav
182,192,19989,1,0,0:0:0:40:splash.wav
402,192,19989,1,0,0:0:0:0:
475,192,19989,1,0,0:0:0:0:
109,192,19989,1,0,0:0:0:0:
256,192,20133,1,0,0:0:0:40:CowB.wav
475,192,20205,1,0,0:0:0:0:
182,192,20278,1,0,0:0:0:40:CowB.wav
402,192,20350,1,0,0:0:0:0:
109,192,20422,1,0,0:0:0:40:CowB.wav
329,192,20494,1,0,0:0:0:0:
36,192,20566,1,0,0:0:0:40:BD.wav
182,192,20566,1,0,0:0:0:40:crush1.wav
256,192,20566,1,0,0:0:0:0:
475,192,20638,1,0,0:0:0:0:
109,192,20710,1,0,0:0:0:0:
402,192,20782,1,0,0:0:0:0:
182,192,20854,1,0,0:0:0:40:SNTight.wav
329,192,20854,1,0,0:0:0:0:
475,192,20927,1,0,0:0:0:0:
109,192,20999,1,0,0:0:0:0:
329,192,21071,1,0,0:0:0:0:
36,192,21143,1,0,0:0:0:40:BD.wav
475,192,21143,1,0,0:0:0:0:
182,192,21215,1,0,0:0:0:0:
329,192,21287,1,0,0:0:0:40:BD.wav
109,192,21359,1,0,0:0:0:0:
402,192,21431,1,0,0:0:0:40:SNRim.wav
475,192,21431,1,0,0:0:0:0:
182,192,21504,1,0,0:0:0:0:
329,192,21576,1,0,0:0:0:0:
36,192,21648,1,0,0:0:0:0:
256,192,21720,1,0,0:0:0:40:BD.wav
475,192,21720,1,0,0:0:0:0:
109,192,21792,1,0,0:0:0:0:
402,192,21864,1,0,0:0:0:0:
182,192,21936,1,0,0:0:0:0:
329,192,22008,1,0,0:0:0:40:SNTight.wav
36,192,22008,1,0,0:0:0:0:
109,192,22080,1,0,0:0:0:0:
475,192,22153,1,0,0:0:0:0:
182,192,22225,1,0,0:0:0:0:
329,192,22297,1,0,0:0:0:40:BD.wav
402,192,22297,1,0,0:0:0:0:
36,192,22369,1,0,0:0:0:0:
475,192,22441,1,0,0:0:0:40:BD.wav
109,192,22513,1,0,0:0:0:0:
329,192,22585,1,0,0:0:0:40:SNRim.wav
402,192,22585,1,0,0:0:0:0:
182,192,22657,1,0,0:0:0:0:
475,192,22729,1,0,0:0:0:0:
36,192,22802,1,0,0:0:0:0:
256,192,22874,1,0,0:0:0:40:BD.wav
402,192,22874,1,0,0:0:0:40:RD.wav
109,192,22946,1,0,0:0:0:0:
329,192,23018,1,0,0:0:0:0:
182,192,23090,1,0,0:0:0:0:
402,192,23162,1,0,0:0:0:40:SNTight.wav
475,192,23162,1,0,0:0:0:0:
256,192,23234,1,0,0:0:0:0:
109,192,23306,1,0,0:0:0:40:BD.wav
329,192,23379,1,0,0:0:0:0:
36,192,23451,1,0,0:0:0:40:BD.wav
182,192,23451,1,0,0:0:0:0:
475,192,23523,1,0,0:0:0:0:
256,192,23595,1,0,0:0:0:40:BD.wav
109,192,23667,1,0,0:0:0:0:
402,192,23739,1,0,0:0:0:40:SNRim.wav
475,192,23739,1,0,0:0:0:0:
182,192,23811,1,0,0:0:0:0:
36,192,23883,1,0,0:0:0:40:BD.wav
329,192,23955,1,0,0:0:0:40:SoftBD.wav
475,192,24028,1,0,0:0:0:40:BD.wav
109,192,24028,1,0,0:0:0:40:BD.wav
182,192,24100,1,0,0:0:0:40:SoftBD.wav
256,192,24136,1,0,0:0:0:0:
329,192,24172,1,0,0:0:0:40:SoftBD.wav
402,192,24208,1,0,0:0:0:0:
475,192,24244,1,0,0:0:0:40:SoftBD.wav
36,192,24316,1,0,0:0:0:40:SoftBD.wav
109,192,24316,1,0,0:0:0:0:
182,192,24388,1,0,0:0:0:40:SoftBD.wav
256,192,24460,1,0,0:0:0:40:SoftBD.wav
329,192,24532,1,0,0:0:0:40:SoftBD.wav
402,192,24604,1,0,0:0:0:40:splash.wav
475,192,24604,1,0,0:0:0:40:BD.wav
36,192,24604,1,0,0:0:0:0:
182,192,24749,1,0,0:0:0:40:CowB.wav
329,192,24821,1,0,0:0:0:0:
182,192,24893,1,0,0:0:0:40:CowB.wav
329,192,25037,1,0,0:0:0:40:CowB.wav
36,192,25181,1,0,0:0:0:40:FlrL.wav
109,192,25181,1,0,0:0:0:0:
256,192,25254,1,0,0:0:0:40:FlrL.wav
402,192,25326,1,0,0:0:0:40:FlrL.wav
475,192,25326,1,0,0:0:0:0:
256,192,25398,1,0,0:0:0:40:BD.wav
36,192,25470,128,0,25758:0:0:0:40:BD.wav
109,192,25470,128,0,25758:0:0:0:40:crush1.wav
402,192,25758,1,0,0:0:0:40:MidH.wav
475,192,25758,1,0,0:0:0:0:
256,192,25830,1,0,0:0:0:40:MidH.wav
36,192,25903,1,0,0:0:0:40:MidH.wav
109,192,25903,1,0,0:0:0:0:
256,192,25975,1,0,0:0:0:40:BD.wav
402,192,26047,128,0,26335:0:0:0:40:BD.wav
475,192,26047,128,0,26335:0:0:0:40:crush1.wav
36,192,26191,128,0,27201:0:0:0:0:
182,192,26335,1,0,0:0:0:40:SNRim.wav
329,192,26624,1,0,0:0:0:40:MidH.wav
475,192,26624,1,0,0:0:0:0:
402,192,26768,1,0,0:0:0:40:MidL.wav
256,192,26768,1,0,0:0:0:0:
329,192,26912,1,0,0:0:0:40:MidL.wav
182,192,26912,1,0,0:0:0:0:
256,192,27056,1,0,0:0:0:40:Low.wav
402,192,27056,1,0,0:0:0:0:
329,192,27201,1,0,0:0:0:40:BD.wav
475,192,27201,1,0,0:0:0:0:
109,192,27201,1,0,0:0:0:0:
182,192,27345,1,0,0:0:0:30:SN.wav
402,192,27345,1,0,0:0:0:0:
329,192,27489,1,0,0:0:0:40:FlrL.wav
475,192,27489,1,0,0:0:0:0:
256,192,27561,1,0,0:0:0:40:FlrL.wav
182,192,27633,1,0,0:0:0:40:FlrL.wav
36,192,27633,1,0,0:0:0:0:
256,192,27705,1,0,0:0:0:40:BD.wav
329,192,27778,128,0,28066:0:0:0:40:crush1.wav
475,192,27778,128,0,28066:0:0:0:40:BD.wav
36,192,28066,1,0,0:0:0:40:MidH.wav
182,192,28066,1,0,0:0:0:0:
256,192,28138,1,0,0:0:0:40:MidH.wav
329,192,28210,1,0,0:0:0:40:MidH.wav
475,192,28210,1,0,0:0:0:0:
256,192,28282,1,0,0:0:0:40:FlrL.wav
36,192,28354,128,0,28643:0:0:0:40:BD.wav
182,192,28354,128,0,28643:0:0:0:40:crush1.wav
475,192,28499,128,0,29508:0:0:0:0:
329,192,28643,1,0,0:0:0:40:SNRim.wav
36,192,28931,1,0,0:0:0:40:MidL.wav
109,192,29076,1,0,0:0:0:40:Low.wav
182,192,29220,1,0,0:0:0:40:Hi.wav
402,192,29220,1,0,0:0:0:0:
329,192,29364,1,0,0:0:0:40:MidH.wav
109,192,29364,1,0,0:0:0:0:
256,192,29508,1,0,0:0:0:40:BD.wav
36,192,29508,1,0,0:0:0:40:splash.wav
182,192,29508,1,0,0:0:0:0:
402,192,29653,1,0,0:0:0:0:
475,192,29653,1,0,0:0:0:0:
36,192,29797,1,0,0:0:0:40:FlrL.wav
109,192,29797,1,0,0:0:0:0:
329,192,29869,1,0,0:0:0:40:FlrL.wav
402,192,29941,1,0,0:0:0:40:FlrL.wav
475,192,29941,1,0,0:0:0:0:
182,192,30013,1,0,0:0:0:40:FlrL.wav
36,192,30085,128,0,30374:0:0:0:40:crush1.wav
109,192,30085,128,0,30374:0:0:0:40:SNRim.wav
402,192,30374,1,0,0:0:0:40:FlrL.wav
475,192,30374,1,0,0:0:0:0:
329,192,30446,1,0,0:0:0:40:FlrL.wav
109,192,30518,1,0,0:0:0:40:FlrL.wav
36,192,30518,1,0,0:0:0:0:
182,192,30590,1,0,0:0:0:40:FlrL.wav
329,192,30662,128,0,30951:0:0:0:40:FlrL.wav
475,192,30662,128,0,30951:0:0:0:40:SNTight.wav
36,192,30806,128,0,30879:0:0:0:0:
109,192,30951,1,0,0:0:0:40:SNRim.wav
182,192,30951,128,0,31023:0:0:0:0:
256,192,31095,128,0,31167:0:0:0:0:
329,192,31239,128,0,31311:0:0:0:40:MidH.wav
402,192,31383,128,0,31455:0:0:0:40:MidL.wav
182,192,31528,128,0,31600:0:0:0:40:MidL.wav
256,192,31672,128,0,31744:0:0:0:40:Low.wav
475,192,31816,1,0,0:0:0:40:splash.wav
36,192,31816,1,0,0:0:0:0:
329,192,31816,128,0,31888:0:0:0:0:
109,192,31960,1,0,0:0:0:0:
182,192,31960,1,0,0:0:0:0:
329,192,32104,1,0,0:0:0:40:FlrL.wav
475,192,32104,1,0,0:0:0:0:
402,192,32177,1,0,0:0:0:40:FlrL.wav
182,192,32249,1,0,0:0:0:40:FlrL.wav
36,192,32249,1,0,0:0:0:0:
109,192,32321,1,0,0:0:0:40:FlrL.wav
329,192,32393,128,0,32681:0:0:0:40:SNRim.wav
475,192,32393,128,0,32681:0:0:0:40:crush1.wav
182,192,32681,1,0,0:0:0:40:FlrL.wav
36,192,32681,1,0,0:0:0:0:
109,192,32754,1,0,0:0:0:40:FlrL.wav
329,192,32826,1,0,0:0:0:40:FlrL.wav
475,192,32826,1,0,0:0:0:0:
402,192,32898,1,0,0:0:0:40:FlrL.wav
36,192,32970,128,0,33258:0:0:0:40:SNTight.wav
182,192,32970,128,0,33258:0:0:0:40:FlrL.wav
475,192,33114,128,0,33186:0:0:0:0:
256,192,33258,1,0,0:0:0:25:SoftBD.wav
402,192,33258,128,0,33330:0:0:0:0:
329,192,33403,128,0,33475:0:0:0:0:
256,192,33547,128,0,33619:0:0:0:0:
182,192,33691,128,0,33763:0:0:0:0:
329,192,33835,128,0,33907:0:0:0:0:
256,192,33979,128,0,34052:0:0:0:0:
182,192,34124,128,0,34196:0:0:0:0:
109,192,34268,128,0,34340:0:0:0:0:
36,192,34412,1,0,0:0:0:40:SNRim.wav
475,192,34412,1,0,0:0:0:40:crush2.wav
402,192,34412,128,0,34484:0:0:0:0:
329,192,34556,128,0,34629:0:0:0:0:
256,192,34701,128,0,34773:0:0:0:0:
182,192,34845,128,0,34917:0:0:0:0:
329,192,34989,128,0,35061:0:0:0:0:
256,192,35133,128,0,35205:0:0:0:0:
182,192,35278,128,0,35350:0:0:0:0:
109,192,35422,128,0,35494:0:0:0:0:
36,192,35566,1,0,0:0:0:40:crush2.wav
329,192,35566,1,0,0:0:0:40:SNRim.wav
475,192,35566,128,0,35638:0:0:0:25:SoftBD.wav
256,192,35710,128,0,35782:0:0:0:25:SoftBD.wav
402,192,35854,128,0,35927:0:0:0:25:SoftBD.wav
182,192,35999,128,0,36071:0:0:0:25:SoftBD.wav
329,192,36143,128,0,36215:0:0:0:25:SoftBD.wav
475,192,36143,1,0,0:0:0:0:
36,192,36143,1,0,0:0:0:0:
109,192,36287,128,0,36359:0:0:0:25:SoftBD.wav
256,192,36431,128,0,36504:0:0:0:25:SoftBD.wav
36,192,36576,128,0,36648:0:0:0:25:SoftBD.wav
475,192,36720,128,0,36792:0:0:0:40:crush2.wav
182,192,36720,1,0,0:0:0:40:SNRim.wav
329,192,36720,1,0,0:0:0:25:SoftBD.wav
256,192,36864,128,0,36936:0:0:0:25:SoftBD.wav
402,192,37008,128,0,37080:0:0:0:25:SoftBD.wav
36,192,37008,1,0,0:0:0:40:crush2.wav
109,192,37008,1,0,0:0:0:40:SNRim.wav
182,192,37153,128,0,37225:0:0:0:25:SoftBD.wav
329,192,37297,128,0,37369:0:0:0:25:SoftBD.wav
475,192,37297,1,0,0:0:0:40:crush2.wav
36,192,37297,1,0,0:0:0:40:SNRim.wav
109,192,37441,128,0,37513:0:0:0:25:SoftBD.wav
256,192,37585,128,0,37657:0:0:0:40:crush2.wav
402,192,37585,1,0,0:0:0:25:SoftBD.wav
475,192,37585,1,0,0:0:0:40:SNRim.wav
36,192,37729,128,0,37802:0:0:0:25:SoftBD.wav
182,192,37874,1,0,0:0:0:40:crush2.wav
256,192,37874,1,0,0:0:0:25:SoftBD.wav
329,192,37874,1,0,0:0:0:40:SNRim.wav
109,192,38162,1,0,0:0:0:40:crush1.wav
256,192,38162,1,0,0:0:0:0:
475,192,38162,1,0,0:0:0:0:
182,192,38451,1,0,0:0:0:0:
402,192,38451,1,0,0:0:0:0:
182,192,38595,1,0,0:0:0:0:
36,192,38595,1,0,0:0:0:0:
182,192,38883,1,0,0:0:0:0:
182,192,39028,1,0,0:0:0:0:
36,192,39172,1,0,0:0:0:0:
329,192,39172,1,0,0:0:0:0:
402,192,39244,1,0,0:0:0:0:
109,192,39316,1,0,0:0:0:0:
475,192,39316,1,0,0:0:0:0:
182,192,39460,1,0,0:0:0:0:
475,192,39460,1,0,0:0:0:0:
256,192,39604,1,0,0:0:0:0:
475,192,39604,1,0,0:0:0:0:
109,192,39749,1,0,0:0:0:0:
329,192,39749,1,0,0:0:0:0:
402,192,39821,1,0,0:0:0:40:RDcup.wav
182,192,39893,1,0,0:0:0:40:FlrH.wav
475,192,39893,1,0,0:0:0:0:
256,192,40037,1,0,0:0:0:40:SNTight.wav
475,192,40037,1,0,0:0:0:0:
36,192,40181,1,0,0:0:0:40:BD.wav
109,192,40181,1,0,0:0:0:40:splash.wav
329,192,40181,1,0,0:0:0:0:
402,192,40254,1,0,0:0:0:0:
475,192,40326,1,0,0:0:0:40:SNTight.wav
182,192,40326,1,0,0:0:0:0:
402,192,40398,1,0,0:0:0:0:
329,192,40470,1,0,0:0:0:0:
36,192,40470,1,0,0:0:0:0:
109,192,40614,1,0,0:0:0:40:SNTight.wav
402,192,40614,1,0,0:0:0:0:
475,192,40758,1,0,0:0:0:0:
182,192,40758,1,0,0:0:0:0:
256,192,40830,1,0,0:0:0:0:
329,192,40903,1,0,0:0:0:40:SNTight.wav
36,192,40903,1,0,0:0:0:0:
256,192,40975,1,0,0:0:0:0:
182,192,41047,1,0,0:0:0:0:
475,192,41047,1,0,0:0:0:0:
402,192,41191,1,0,0:0:0:40:SNTight.wav
109,192,41191,1,0,0:0:0:0:
36,192,41335,1,0,0:0:0:0:
329,192,41335,1,0,0:0:0:0:
256,192,41407,1,0,0:0:0:0:
182,192,41479,1,0,0:0:0:40:SNTight.wav
475,192,41479,1,0,0:0:0:0:
402,192,41552,1,0,0:0:0:0:
329,192,41624,1,0,0:0:0:0:
36,192,41624,1,0,0:0:0:0:
109,192,41768,1,0,0:0:0:40:SNTight.wav
402,192,41768,1,0,0:0:0:0:
182,192,41912,1,0,0:0:0:0:
475,192,41912,1,0,0:0:0:0:
402,192,41984,1,0,0:0:0:0:
329,192,42056,1,0,0:0:0:40:SNTight.wav
182,192,42056,1,0,0:0:0:0:
109,192,42129,1,0,0:0:0:0:
36,192,42201,1,0,0:0:0:0:
256,192,42201,1,0,0:0:0:0:
109,192,42345,1,0,0:0:0:40:SNTight.wav
329,192,42345,1,0,0:0:0:0:
182,192,42489,1,0,0:0:0:0:
402,192,42489,1,0,0:0:0:0:
475,192,42489,1,0,0:0:0:0:
329,192,42561,1,0,0:0:0:0:
256,192,42633,1,0,0:0:0:40:SNTight.wav
109,192,42633,1,0,0:0:0:0:
329,192,42705,1,0,0:0:0:0:
402,192,42778,1,0,0:0:0:0:
36,192,42778,1,0,0:0:0:0:
109,192,42850,1,0,0:0:0:0:
182,192,42922,1,0,0:0:0:40:SNTight.wav
329,192,42922,1,0,0:0:0:0:
109,192,42994,1,0,0:0:0:0:
475,192,43066,1,0,0:0:0:0:
36,192,43066,1,0,0:0:0:0:
402,192,43138,1,0,0:0:0:0:
329,192,43210,1,0,0:0:0:40:SNTight.wav
182,192,43210,1,0,0:0:0:0:
402,192,43282,1,0,0:0:0:0:
475,192,43354,1,0,0:0:0:0:
36,192,43354,1,0,0:0:0:0:
109,192,43427,1,0,0:0:0:0:
329,192,43499,1,0,0:0:0:40:SNTight.wav
182,192,43499,1,0,0:0:0:0:
402,192,43571,1,0,0:0:0:0:
475,192,43643,1,0,0:0:0:40:crush2.wav
329,192,43715,1,0,0:0:0:0:
182,192,43787,1,0,0:0:0:40:SNTight.wav
329,192,43859,1,0,0:0:0:0:
475,192,43931,1,0,0:0:0:40:FlrL.wav
329,192,44004,1,0,0:0:0:40:FlrL.wav
182,192,44076,1,0,0:0:0:40:FlrL.wav
329,192,44148,1,0,0:0:0:40:FlrL.wav
475,192,44220,1,0,0:0:0:40:FlrL.wav
109,192,44220,1,0,0:0:0:40:SNRim.wav
36,192,44220,1,0,0:0:0:0:
182,192,44364,1,0,0:0:0:40:CowB.wav
329,192,44436,1,0,0:0:0:0:
109,192,44508,1,0,0:0:0:40:CowB.wav
402,192,44580,1,0,0:0:0:0:
182,192,44653,1,0,0:0:0:40:CowB.wav
329,192,44725,1,0,0:0:0:0:
182,192,44797,1,0,0:0:0:40:BD.wav
402,192,44797,1,0,0:0:0:40:crush1.wav
475,192,44797,1,0,0:0:0:0:
109,192,44869,1,0,0:0:0:0:
329,192,44941,1,0,0:0:0:40:SNTight.wav
36,192,44941,1,0,0:0:0:0:
256,192,45013,1,0,0:0:0:0:
182,192,45085,1,0,0:0:0:0:
475,192,45085,1,0,0:0:0:0:
402,192,45157,1,0,0:0:0:0:
329,192,45229,1,0,0:0:0:40:SNTight.wav
182,192,45229,1,0,0:0:0:0:
109,192,45302,1,0,0:0:0:0:
36,192,45374,1,0,0:0:0:0:
329,192,45374,1,0,0:0:0:0:
256,192,45446,1,0,0:0:0:0:
475,192,45518,1,0,0:0:0:40:SNTight.wav
182,192,45518,1,0,0:0:0:0:
402,192,45590,1,0,0:0:0:0:
182,192,45662,1,0,0:0:0:0:
329,192,45662,1,0,0:0:0:0:
109,192,45734,1,0,0:0:0:0:
36,192,45806,1,0,0:0:0:40:SNTight.wav
329,192,45806,1,0,0:0:0:0:
402,192,45879,1,0,0:0:0:0:
182,192,45951,1,0,0:0:0:0:
475,192,45951,1,0,0:0:0:0:
256,192,46023,1,0,0:0:0:0:
329,192,46095,1,0,0:0:0:40:SNTight.wav
36,192,46095,1,0,0:0:0:0:
109,192,46167,1,0,0:0:0:0:
329,192,46239,1,0,0:0:0:0:
182,192,46239,1,0,0:0:0:0:
402,192,46311,1,0,0:0:0:0:
475,192,46383,1,0,0:0:0:40:SNTight.wav
182,192,46383,1,0,0:0:0:0:
256,192,46455,1,0,0:0:0:0:
36,192,46528,1,0,0:0:0:0:
329,192,46528,1,0,0:0:0:0:
109,192,46600,1,0,0:0:0:0:
329,192,46672,1,0,0:0:0:40:SNTight.wav
182,192,46672,1,0,0:0:0:0:
402,192,46744,1,0,0:0:0:0:
475,192,46816,1,0,0:0:0:0:
256,192,46816,1,0,0:0:0:0:
329,192,46888,1,0,0:0:0:0:
402,192,46960,1,0,0:0:0:40:SNTight.wav
182,192,46960,1,0,0:0:0:0:
256,192,47032,1,0,0:0:0:0:
36,192,47104,1,0,0:0:0:40:crush2.wav
329,192,47104,1,0,0:0:0:0:
109,192,47104,1,0,0:0:0:0:
182,192,47177,1,0,0:0:0:0:
256,192,47249,1,0,0:0:0:40:SNTight.wav
402,192,47249,1,0,0:0:0:0:
182,192,47321,1,0,0:0:0:0:
475,192,47393,1,0,0:0:0:0:
109,192,47393,1,0,0:0:0:0:
402,192,47465,1,0,0:0:0:0:
182,192,47537,1,0,0:0:0:40:SNTight.wav
329,192,47537,1,0,0:0:0:0:
402,192,47609,1,0,0:0:0:0:
475,192,47681,1,0,0:0:0:20:crush2.wav
36,192,47681,1,0,0:0:0:0:
256,192,47681,1,0,0:0:0:0:
109,192,47754,1,0,0:0:0:0:
182,192,47826,1,0,0:0:0:40:SNTight.wav
329,192,47826,1,0,0:0:0:0:
109,192,47898,1,0,0:0:0:0:
475,192,47970,1,0,0:0:0:0:
36,192,47970,1,0,0:0:0:0:
402,192,48042,1,0,0:0:0:0:
329,192,48114,1,0,0:0:0:40:SNTight.wav
182,192,48114,1,0,0:0:0:0:
109,192,48186,1,0,0:0:0:0:
36,192,48258,1,0,0:0:0:0:
475,192,48258,1,0,0:0:0:0:
402,192,48258,1,0,0:0:0:0:
36,192,48403,1,0,0:0:0:40:SNTight.wav
109,192,48451,1,0,0:0:0:0:
182,192,48499,1,0,0:0:0:0:
256,192,48547,1,0,0:0:0:0:
329,192,48595,1,0,0:0:0:0:
402,192,48643,1,0,0:0:0:0:
109,192,48691,1,0,0:0:0:0:
182,192,48739,1,0,0:0:0:0:
256,192,48787,1,0,0:0:0:0:
329,192,48835,1,0,0:0:0:40:crush2.wav
402,192,48835,1,0,0:0:0:40:SNRim.wav
475,192,48835,1,0,0:0:0:0:
182,192,48979,1,0,0:0:0:0:
256,192,48979,1,0,0:0:0:0:
329,192,49052,1,0,0:0:0:0:
475,192,49124,1,0,0:0:0:0:
402,192,49124,1,0,0:0:0:0:
36,192,49268,1,0,0:0:0:40:SN.wav
109,192,49268,1,0,0:0:0:40:TightBD.wav
256,192,49268,1,0,0:0:0:0:
182,192,49412,1,0,0:0:0:40:RDcup.wav
402,192,49412,1,0,0:0:0:0:
109,192,49556,1,0,0:0:0:0:
475,192,49556,1,0,0:0:0:0:
402,192,49701,1,0,0:0:0:40:RDcup.wav
36,192,49701,1,0,0:0:0:40:BD.wav
329,192,49845,1,0,0:0:0:0:
109,192,49845,128,0,50205:0:0:0:0:
402,192,49989,1,0,0:0:0:40:FlrL.wav
475,192,50133,1,0,0:0:0:40:RDcup.wav
402,192,50278,1,0,0:0:0:0:
182,192,50278,128,0,50566:0:0:0:0:
329,192,50422,1,0,0:0:0:40:RDcup.wav
36,192,50566,1,0,0:0:0:40:TightBD.wav
256,192,50566,1,0,0:0:0:0:
475,192,50566,1,0,0:0:0:0:
109,192,50710,1,0,0:0:0:40:RDcup.wav
329,192,50710,1,0,0:0:0:40:FlrH.wav
402,192,50710,1,0,0:0:0:0:
36,192,50854,1,0,0:0:0:40:FlrL.wav
256,192,50854,1,0,0:0:0:0:
475,192,50854,1,0,0:0:0:0:
182,192,50999,1,0,0:0:0:40:SN.wav
109,192,50999,1,0,0:0:0:40:SNTight.wav
402,192,50999,1,0,0:0:0:0:
36,192,51143,1,0,0:0:0:40:RDcup.wav
329,192,51143,1,0,0:0:0:0:
182,192,51287,1,0,0:0:0:0:
475,192,51287,1,0,0:0:0:0:
402,192,51431,1,0,0:0:0:40:RDcup.wav
109,192,51431,1,0,0:0:0:40:BD.wav
329,192,51576,1,0,0:0:0:0:
36,192,51576,128,0,51936:0:0:0:0:
182,192,51720,1,0,0:0:0:40:FlrL.wav
256,192,51720,1,0,0:0:0:0:
475,192,51864,1,0,0:0:0:40:RDcup.wav
109,192,52008,128,0,52297:0:0:0:0:
402,192,52008,1,0,0:0:0:0:
329,192,52153,1,0,0:0:0:40:RDcup.wav
182,192,52297,1,0,0:0:0:40:TightBD.wav
402,192,52297,1,0,0:0:0:0:
109,192,52441,1,0,0:0:0:40:RDcup.wav
475,192,52441,1,0,0:0:0:0:
36,192,52585,1,0,0:0:0:40:FlrL.wav
329,192,52585,1,0,0:0:0:0:
256,192,52729,1,0,0:0:0:40:SNTight.wav
402,192,52729,1,0,0:0:0:40:SN.wav
109,192,52729,1,0,0:0:0:0:
182,192,52874,1,0,0:0:0:40:RDcup.wav
475,192,52874,1,0,0:0:0:0:
36,192,53018,1,0,0:0:0:0:
329,192,53018,1,0,0:0:0:0:
109,192,53162,1,0,0:0:0:40:RDcup.wav
402,192,53162,1,0,0:0:0:40:BD.wav
182,192,53306,128,0,53667:0:0:0:0:
329,192,53306,1,0,0:0:0:0:
402,192,53451,1,0,0:0:0:40:FlrH.wav
475,192,53595,1,0,0:0:0:40:RDcup.wav
109,192,53739,128,0,54028:0:0:0:0:
402,192,53739,1,0,0:0:0:0:
329,192,53883,1,0,0:0:0:40:RDcup.wav
36,192,54028,1,0,0:0:0:40:FlrL.wav
475,192,54028,1,0,0:0:0:40:BD.wav
182,192,54172,1,0,0:0:0:40:FlrH.wav
329,192,54172,1,0,0:0:0:40:RDcup.wav
329,192,54316,1,0,0:0:0:40:FlrL.wav
182,192,54316,1,0,0:0:0:0:
36,192,54460,1,0,0:0:0:40:SNTight.wav
256,192,54460,1,0,0:0:0:40:SN.wav
475,192,54460,1,0,0:0:0:0:
182,192,54604,1,0,0:0:0:40:Tamb.wav
329,192,54604,1,0,0:0:0:0:
182,192,54749,1,0,0:0:0:40:BD.wav
329,192,54749,1,0,0:0:0:0:
36,192,54893,1,0,0:0:0:40:SN.wav
256,192,54893,1,0,0:0:0:40:SNTight.wav
475,192,54893,1,0,0:0:0:0:
182,192,55037,1,0,0:0:0:40:RDcup.wav
329,192,55037,1,0,0:0:0:0:
36,192,55181,1,0,0:0:0:40:FlrL.wav
475,192,55181,1,0,0:0:0:0:
109,192,55326,1,0,0:0:0:40:FlrH.wav
402,192,55326,1,0,0:0:0:40:RDcup.wav
402,192,55470,1,0,0:0:0:40:FlrL.wav
109,192,55470,1,0,0:0:0:0:
36,192,55614,1,0,0:0:0:40:SN.wav
256,192,55614,1,0,0:0:0:40:SN.wav
475,192,55614,1,0,0:0:0:0:
109,192,55758,1,0,0:0:0:0:
402,192,55758,1,0,0:0:0:0:
109,192,55903,1,0,0:0:0:40:BD.wav
402,192,55903,1,0,0:0:0:0:
36,192,56047,1,0,0:0:0:40:SNTight.wav
256,192,56047,1,0,0:0:0:40:SN.wav
475,192,56047,1,0,0:0:0:0:
109,192,56191,1,0,0:0:0:40:Tamb.wav
402,192,56191,1,0,0:0:0:0:
182,192,56335,1,0,0:0:0:40:BD.wav
329,192,56407,1,0,0:0:0:0:
182,192,56479,1,0,0:0:0:0:
329,192,56552,1,0,0:0:0:0:
182,192,56624,1,0,0:0:0:0:
329,192,56696,1,0,0:0:0:0:
182,192,56768,1,0,0:0:0:40:SN.wav
329,192,56840,1,0,0:0:0:0:
109,192,56912,1,0,0:0:0:40:FlrL.wav
402,192,56984,1,0,0:0:0:0:
109,192,57056,1,0,0:0:0:40:Hi.wav
402,192,57129,1,0,0:0:0:0:
109,192,57201,1,0,0:0:0:0:
402,192,57273,1,0,0:0:0:0:
109,192,57345,1,0,0:0:0:0:
402,192,57417,1,0,0:0:0:0:
182,192,57489,1,0,0:0:0:40:Low.wav
329,192,57561,1,0,0:0:0:0:
182,192,57633,1,0,0:0:0:40:SN.wav
329,192,57705,1,0,0:0:0:0:
182,192,57778,1,0,0:0:0:40:BD.wav
329,192,57850,1,0,0:0:0:0:
182,192,57922,1,0,0:0:0:40:FlrH.wav
329,192,57994,1,0,0:0:0:0:
36,192,58066,1,0,0:0:0:0:
475,192,58138,1,0,0:0:0:0:
36,192,58210,1,0,0:0:0:40:FlrL.wav
475,192,58282,1,0,0:0:0:0:
36,192,58354,1,0,0:0:0:40:SN.wav
475,192,58427,1,0,0:0:0:0:
36,192,58499,1,0,0:0:0:40:FlrL.wav
475,192,58571,1,0,0:0:0:0:
182,192,58643,1,0,0:0:0:40:SNTight.wav
329,192,58643,1,0,0:0:0:40:SN.wav
402,192,58739,1,0,0:0:0:0:
36,192,58787,1,0,0:0:0:40:crush1.wav
475,192,58835,1,0,0:0:0:0:
256,192,58931,1,0,0:0:0:0:
329,192,59028,1,0,0:0:0:0:
402,192,59124,1,0,0:0:0:0:
182,192,59220,1,0,0:0:0:40:crush1.wav
36,192,59220,1,0,0:0:0:0:
256,192,59316,1,0,0:0:0:0:
329,192,59412,1,0,0:0:0:0:
109,192,59508,1,0,0:0:0:0:
182,192,59604,1,0,0:0:0:0:
402,192,59653,1,0,0:0:0:40:splash.wav
256,192,59701,1,0,0:0:0:0:
36,192,59797,1,0,0:0:0:40:FlrL.wav
109,192,59893,1,0,0:0:0:0:
329,192,59941,1,0,0:0:0:40:splash.wav
182,192,59989,1,0,0:0:0:0:
402,192,60085,1,0,0:0:0:40:FlrL.wav
329,192,60181,1,0,0:0:0:0:
36,192,60229,1,0,0:0:0:40:splash.wav
256,192,60278,1,0,0:0:0:0:
182,192,60374,1,0,0:0:0:40:crush2.wav
109,192,60470,1,0,0:0:0:0:
36,192,60566,1,0,0:0:0:0:
109,192,60662,1,0,0:0:0:40:FlrL.wav
182,192,60698,1,0,0:0:0:0:
256,192,60734,1,0,0:0:0:0:
329,192,60770,1,0,0:0:0:0:
475,192,60806,1,0,0:0:0:40:SNTight.wav
402,192,60806,1,0,0:0:0:40:SN.wav
182,192,60951,1,0,0:0:0:0:
329,192,60951,1,0,0:0:0:0:
36,192,61239,1,0,0:0:0:40:crush2.wav
109,192,61239,1,0,0:0:0:0:
256,192,61239,1,0,0:0:0:0:
402,192,61383,1,0,0:0:0:0:
475,192,61383,1,0,0:0:0:0:
36,192,61528,1,0,0:0:0:0:
182,192,61528,1,0,0:0:0:0:
329,192,61624,1,0,0:0:0:0:
475,192,61624,1,0,0:0:0:0:
182,192,61720,1,0,0:0:0:0:
36,192,61720,1,0,0:0:0:0:
329,192,61816,1,0,0:0:0:0:
475,192,61816,1,0,0:0:0:0:
182,192,61912,1,0,0:0:0:0:
36,192,61912,1,0,0:0:0:0:
329,192,62008,1,0,0:0:0:0:
475,192,62008,1,0,0:0:0:0:
109,192,62104,1,0,0:0:0:40:crush2.wav
182,192,62104,1,0,0:0:0:0:
329,192,62177,1,0,0:0:0:0:
402,192,62177,1,0,0:0:0:0:
182,192,62249,1,0,0:0:0:0:
109,192,62249,1,0,0:0:0:0:
329,192,62321,1,0,0:0:0:0:
402,192,62321,1,0,0:0:0:0:
36,192,62393,1,0,0:0:0:0:
109,192,62441,1,0,0:0:0:0:
182,192,62489,1,0,0:0:0:0:
329,192,62537,1,0,0:0:0:0:
402,192,62585,1,0,0:0:0:0:
475,192,62633,1,0,0:0:0:0:
36,192,62681,1,0,0:0:0:0:
182,192,62717,1,0,0:0:0:0:
329,192,62754,1,0,0:0:0:0:
475,192,62790,1,0,0:0:0:0:
36,192,62826,1,0,0:0:0:0:
182,192,62862,1,0,0:0:0:0:
329,192,62898,1,0,0:0:0:0:
475,192,62934,1,0,0:0:0:0:
36,192,62970,1,0,0:0:0:0:
182,192,63006,1,0,0:0:0:0:
329,192,63042,1,0,0:0:0:0:
475,192,63078,1,0,0:0:0:0:
36,192,63114,1,0,0:0:0:0:
182,192,63150,1,0,0:0:0:0:
329,192,63186,1,0,0:0:0:0:
475,192,63222,1,0,0:0:0:0:
109,192,63258,1,0,0:0:0:0:
182,192,63282,1,0,0:0:0:0:
329,192,63312,1,0,0:0:0:0:
402,192,63348,1,0,0:0:0:0:
36,192,63547,1,0,0:0:0:40:splash.wav
109,192,63547,1,0,0:0:0:40:RD.wav
475,192,63547,1,0,0:0:0:0:
182,192,63763,1,0,0:0:0:0:
256,192,63835,1,0,0:0:0:40:CowB.wav
329,192,63835,1,0,0:0:0:0:
402,192,63979,128,0,64196:0:0:0:40:CowB.wav
256,192,63979,128,0,64196:0:0:0:0:
256,192,64268,1,0,0:0:0:40:CowB.wav
402,192,64268,1,0,0:0:0:0:
329,192,64412,1,0,0:0:0:40:CowB.wav
475,192,64412,1,0,0:0:0:0:
36,192,64412,1,0,0:0:0:0:
182,192,64556,1,0,0:0:0:40:CowB.wav
402,192,64556,1,0,0:0:0:0:
109,192,64629,1,0,0:0:0:40:CowB.wav
36,192,64701,1,0,0:0:0:40:CowB.wav
182,192,64845,1,0,0:0:0:40:CowB.wav
329,192,64845,1,0,0:0:0:0:
256,192,64989,1,0,0:0:0:40:CowB.wav
402,192,64989,1,0,0:0:0:0:
182,192,65061,1,0,0:0:0:40:RD2.wav
475,192,65133,1,0,0:0:0:40:RDcup.wav
329,192,65133,1,0,0:0:0:0:
256,192,65205,1,0,0:0:0:40:RDcup.wav
182,192,65278,1,0,0:0:0:40:RDcup.wav
36,192,65278,1,0,0:0:0:0:
36,192,65422,1,0,0:0:0:40:SNTight.wav
182,192,65422,1,0,0:0:0:0:
182,192,65566,1,0,0:0:0:40:RD.wav
36,192,65566,1,0,0:0:0:40:splash.wav
109,192,65710,1,0,0:0:0:0:
402,192,65710,1,0,0:0:0:0:
329,192,65782,1,0,0:0:0:0:
256,192,65854,1,0,0:0:0:40:SNRim.wav
475,192,65854,1,0,0:0:0:0:
256,192,65999,1,0,0:0:0:0:
475,192,65999,1,0,0:0:0:0:
36,192,66142,1,0,0:0:0:40:FlrL.wav
329,192,66142,1,0,0:0:0:40:crush1.wav
182,192,66142,1,0,0:0:0:40:BD.wav
402,192,66286,1,0,0:0:0:40:FlrL.wav
182,192,66286,1,0,0:0:0:0:
36,192,66286,1,0,0:0:0:0:
475,192,66430,1,0,0:0:0:40:SN.wav
182,192,66430,1,0,0:0:0:40:SNTight.wav
36,192,66430,1,0,0:0:0:0:
256,192,66574,1,0,0:0:0:0:
182,192,66718,1,0,0:0:0:40:FlrL.wav
475,192,66718,1,0,0:0:0:0:
109,192,66718,1,0,0:0:0:0:
182,192,66863,1,0,0:0:0:40:FlrL.wav
109,192,66863,1,0,0:0:0:0:
329,192,66863,1,0,0:0:0:0:
182,192,67007,1,0,0:0:0:40:SN.wav
109,192,67007,1,0,0:0:0:40:SNTight.wav
402,192,67007,1,0,0:0:0:0:
256,192,67151,1,0,0:0:0:0:
36,192,67295,1,0,0:0:0:40:BD.wav
109,192,67295,1,0,0:0:0:40:FlrL.wav
329,192,67295,1,0,0:0:0:0:
402,192,67440,1,0,0:0:0:40:FlrL.wav
109,192,67440,1,0,0:0:0:0:
36,192,67440,1,0,0:0:0:0:
475,192,67584,1,0,0:0:0:40:SNTight.wav
36,192,67584,1,0,0:0:0:40:SN.wav
109,192,67584,1,0,0:0:0:0:
329,192,67728,1,0,0:0:0:0:
256,192,67800,1,0,0:0:0:30:SoftSN.wav
109,192,67872,1,0,0:0:0:40:FlrL.wav
182,192,67872,1,0,0:0:0:0:
475,192,67872,1,0,0:0:0:0:
109,192,68017,1,0,0:0:0:40:FlrL.wav
182,192,68017,1,0,0:0:0:0:
402,192,68017,1,0,0:0:0:0:
109,192,68161,1,0,0:0:0:40:SN.wav
182,192,68161,1,0,0:0:0:40:SNRim.wav
329,192,68161,1,0,0:0:0:0:
256,192,68305,1,0,0:0:0:0:
329,192,68449,1,0,0:0:0:40:BD.wav
475,192,68449,1,0,0:0:0:40:FlrL.wav
182,192,68449,1,0,0:0:0:0:
329,192,68593,1,0,0:0:0:40:FlrL.wav
475,192,68593,1,0,0:0:0:0:
109,192,68593,1,0,0:0:0:0:
329,192,68738,1,0,0:0:0:40:SNTight.wav
475,192,68738,1,0,0:0:0:40:SN.wav
36,192,68738,1,0,0:0:0:0:
182,192,68882,1,0,0:0:0:40:FlrL.wav
109,192,68954,1,0,0:0:0:30:SoftSN.wav
329,192,69026,1,0,0:0:0:40:FlrL.wav
402,192,69026,1,0,0:0:0:0:
36,192,69026,1,0,0:0:0:0:
109,192,69098,1,0,0:0:0:30:SoftSN.wav
329,192,69170,1,0,0:0:0:40:FlrL.wav
402,192,69170,1,0,0:0:0:0:
182,192,69170,1,0,0:0:0:0:
329,192,69315,1,0,0:0:0:40:SNTight.wav
402,192,69315,1,0,0:0:0:40:SN.wav
36,192,69315,1,0,0:0:0:0:
182,192,69459,1,0,0:0:0:0:
256,192,69531,1,0,0:0:0:20:SoftSN.wav
329,192,69603,1,0,0:0:0:30:SoftSN.wav
402,192,69603,1,0,0:0:0:0:
256,192,69675,1,0,0:0:0:30:SoftSN.wav
182,192,69747,1,0,0:0:0:30:SoftSN.wav
109,192,69819,1,0,0:0:0:30:SoftSN.wav
402,192,69892,1,0,0:0:0:30:SoftSN.wav
36,192,69892,1,0,0:0:0:0:
329,192,69964,1,0,0:0:0:0:
256,192,70036,1,0,0:0:0:0:
182,192,70108,1,0,0:0:0:0:
109,192,70180,1,0,0:0:0:30:SNTight.wav
36,192,70180,1,0,0:0:0:30:splash.wav
475,192,70180,1,0,0:0:0:30:SNRim.wav
402,192,70324,1,0,0:0:0:40:Hi.wav
182,192,70324,1,0,0:0:0:0:
36,192,70396,1,0,0:0:0:40:MidH.wav
329,192,70468,1,0,0:0:0:40:MidL.wav
182,192,70541,1,0,0:0:0:40:Low.wav
475,192,70613,1,0,0:0:0:40:FlrH.wav
109,192,70685,1,0,0:0:0:40:FlrL.wav
36,192,70757,1,0,0:0:0:40:crush2.wav
402,192,70757,1,0,0:0:0:40:TightBD.wav
329,192,70829,1,0,0:0:0:0:
256,192,70901,1,0,0:0:0:40:TightBD.wav
182,192,70973,1,0,0:0:0:0:
402,192,71045,1,0,0:0:0:40:SNTight.wav
475,192,71045,1,0,0:0:0:40:SN.wav
109,192,71045,1,0,0:0:0:40:TightBD.wav
329,192,71190,1,0,0:0:0:40:TightBD.wav
182,192,71190,1,0,0:0:0:0:
402,192,71334,1,0,0:0:0:0:
36,192,71334,1,0,0:0:0:40:TightBD.wav
109,192,71406,1,0,0:0:0:40:TightBD.wav
182,192,71478,1,0,0:0:0:40:TightBD.wav
256,192,71550,1,0,0:0:0:40:TightBD.wav
402,192,71622,1,0,0:0:0:40:TightBD.wav
475,192,71622,1,0,0:0:0:40:SNTight.wav
329,192,71622,1,0,0:0:0:40:splash.wav
36,192,71766,1,0,0:0:0:40:TightBD.wav
182,192,71766,1,0,0:0:0:0:
109,192,71911,1,0,0:0:0:0:
475,192,71911,1,0,0:0:0:40:TightBD.wav
402,192,71983,1,0,0:0:0:40:TightBD.wav
329,192,72055,1,0,0:0:0:40:TightBD.wav
256,192,72127,1,0,0:0:0:40:TightBD.wav
36,192,72199,1,0,0:0:0:40:TightBD.wav
109,192,72199,1,0,0:0:0:40:SNTight.wav
182,192,72199,1,0,0:0:0:40:splash.wav
475,192,72343,1,0,0:0:0:40:TightBD.wav
329,192,72343,1,0,0:0:0:0:
402,192,72488,1,0,0:0:0:0:
109,192,72488,1,0,0:0:0:40:TightBD.wav
182,192,72560,1,0,0:0:0:40:TightBD.wav
256,192,72632,1,0,0:0:0:40:TightBD.wav
329,192,72704,1,0,0:0:0:40:TightBD.wav
36,192,72776,1,0,0:0:0:40:TightBD.wav
109,192,72776,1,0,0:0:0:40:SNTight.wav
402,192,72776,1,0,0:0:0:40:splash.wav
182,192,72920,1,0,0:0:0:40:TightBD.wav
475,192,72920,1,0,0:0:0:0:
109,192,73065,1,0,0:0:0:40:SNRim.wav
402,192,73137,1,0,0:0:0:0:
36,192,73209,1,0,0:0:0:40:TightBD.wav
329,192,73281,1,0,0:0:0:40:TightBD.wav
109,192,73353,1,0,0:0:0:40:TightBD.wav
475,192,73353,1,0,0:0:0:40:SNTight.wav
182,192,73353,1,0,0:0:0:0:
402,192,73497,1,0,0:0:0:40:TightBD.wav
256,192,73497,1,0,0:0:0:0:
402,192,73641,1,0,0:0:0:40:TightBD.wav
109,192,73714,1,0,0:0:0:40:TightBD.wav
475,192,73786,1,0,0:0:0:40:TightBD.wav
182,192,73858,1,0,0:0:0:40:TightBD.wav
402,192,73930,1,0,0:0:0:40:SNTight.wav
36,192,73930,1,0,0:0:0:40:TightBD.wav
329,192,73930,1,0,0:0:0:0:
256,192,74074,1,0,0:0:0:0:
109,192,74074,1,0,0:0:0:0:
329,192,74218,1,0,0:0:0:40:SNTight.wav
182,192,74218,1,0,0:0:0:0:
475,192,74218,1,0,0:0:0:0:
36,192,74218,1,0,0:0:0:0:
256,192,74363,1,0,0:0:0:40:Hi.wav
402,192,74363,1,0,0:0:0:0:
36,192,74363,1,0,0:0:0:0:
109,192,74435,1,0,0:0:0:40:MidH.wav
182,192,74507,1,0,0:0:0:40:MidL.wav
256,192,74579,1,0,0:0:0:40:Low.wav
109,192,74651,1,0,0:0:0:40:FlrH.wav
329,192,74651,1,0,0:0:0:0:
182,192,74723,1,0,0:0:0:40:FlrL.wav
402,192,74723,1,0,0:0:0:0:
256,192,74795,1,0,0:0:0:40:crush1.wav
36,192,74795,1,0,0:0:0:0:
475,192,74795,1,0,0:0:0:0:
109,192,74940,1,0,0:0:0:40:TightBD.wav
329,192,74940,1,0,0:0:0:0:
182,192,75012,1,0,0:0:0:0:
256,192,75084,1,0,0:0:0:0:
256,192,75228,1,0,0:0:0:40:TightBD.wav
36,192,75372,1,0,0:0:0:40:SNRim.wav
182,192,75372,1,0,0:0:0:40:SNTight.wav
475,192,75372,1,0,0:0:0:0:
329,192,75372,1,0,0:0:0:0:
109,192,75516,1,0,0:0:0:40:Low.wav
402,192,75516,1,0,0:0:0:0:
182,192,75589,1,0,0:0:0:40:Low.wav
475,192,75589,1,0,0:0:0:0:
256,192,75661,1,0,0:0:0:40:MidH.wav
36,192,75661,1,0,0:0:0:0:
109,192,75733,1,0,0:0:0:40:MidL.wav
329,192,75733,1,0,0:0:0:0:
182,192,75805,1,0,0:0:0:40:Low.wav
402,192,75805,1,0,0:0:0:0:
475,192,75877,1,0,0:0:0:40:FlrH.wav
256,192,75877,1,0,0:0:0:0:
329,192,75949,1,0,0:0:0:40:crush1.wav
36,192,75949,1,0,0:0:0:0:
109,192,75949,1,0,0:0:0:0:
182,192,76093,1,0,0:0:0:40:TightBD.wav
402,192,76093,1,0,0:0:0:0:
475,192,76166,1,0,0:0:0:0:
402,192,76238,1,0,0:0:0:0:
182,192,76382,1,0,0:0:0:40:TightBD.wav
402,192,76382,1,0,0:0:0:0:
36,192,76526,128,0,76815:0:0:0:0:
256,192,76526,1,0,0:0:0:0:
329,192,76526,1,0,0:0:0:0:
475,192,76526,1,0,0:0:0:0:
256,192,76670,1,0,0:0:0:40:SoftBD.wav
329,192,76742,1,0,0:0:0:40:SoftBD.wav
402,192,76815,1,0,0:0:0:40:SoftBD.wav
109,192,76815,128,0,77103:0:0:0:0:
475,192,76887,1,0,0:0:0:40:SoftBD.wav
329,192,76959,1,0,0:0:0:40:SoftBD.wav
402,192,77031,1,0,0:0:0:40:SoftBD.wav
475,192,77103,1,0,0:0:0:40:SoftBD.wav
256,192,77103,1,0,0:0:0:0:
182,192,77103,128,0,77391:0:0:0:0:
329,192,77247,1,0,0:0:0:40:SoftBD.wav
402,192,77319,1,0,0:0:0:40:SoftBD.wav
475,192,77391,1,0,0:0:0:40:SoftBD.wav
256,192,77391,128,0,77680:0:0:0:0:
36,192,77464,1,0,0:0:0:40:SoftBD.wav
109,192,77536,1,0,0:0:0:40:SoftBD.wav
182,192,77608,1,0,0:0:0:40:SoftBD.wav
475,192,77680,1,0,0:0:0:40:SoftBD.wav
36,192,77680,1,0,0:0:0:40:Hi.wav
329,192,77680,128,0,77968:0:0:0:0:
109,192,77788,1,0,0:0:0:0:
36,192,77896,1,0,0:0:0:40:SoftBD.wav
109,192,77968,1,0,0:0:0:40:SoftBD.wav
402,192,77968,128,0,78257:0:0:0:0:
182,192,78041,1,0,0:0:0:40:SoftBD.wav
329,192,78113,1,0,0:0:0:40:SoftBD.wav
256,192,78161,1,0,0:0:0:40:SoftBD.wav
182,192,78209,1,0,0:0:0:40:SoftBD.wav
475,192,78257,128,0,78708:0:0:0:40:SNRim.wav
109,192,78257,1,0,0:0:0:40:SNTight.wav
36,192,78257,128,0,78708:0:0:0:0:
475,192,78834,1,0,0:0:0:40:crush1.wav
329,192,78834,1,0,0:0:0:40:crush2.wav
36,192,78834,1,0,0:0:0:0:
182,192,78834,1,0,0:0:0:0:
475,192,78978,1,0,0:0:0:0:
329,192,79050,1,0,0:0:0:0:
182,192,79122,1,0,0:0:0:0:
402,192,79194,1,0,0:0:0:0:
256,192,79266,1,0,0:0:0:0:
109,192,79339,1,0,0:0:0:0:
36,192,79411,1,0,0:0:0:0:
329,192,79483,1,0,0:0:0:0:
256,192,79555,1,0,0:0:0:40:BD.wav
475,192,79555,1,0,0:0:0:0:
182,192,79627,1,0,0:0:0:40:BD.wav
402,192,79627,1,0,0:0:0:0:
109,192,79699,1,0,0:0:0:40:BD.wav
329,192,79699,1,0,0:0:0:0:
475,192,79771,1,0,0:0:0:0:
402,192,79843,1,0,0:0:0:40:BD.wav
109,192,79843,1,0,0:0:0:0:
329,192,79916,1,0,0:0:0:0:
36,192,79988,1,0,0:0:0:40:BD.wav
256,192,79988,1,0,0:0:0:40:splash.wav
182,192,79988,1,0,0:0:0:0:
475,192,79988,1,0,0:0:0:0:
402,192,80132,1,0,0:0:0:0:
329,192,80204,1,0,0:0:0:0:
256,192,80276,1,0,0:0:0:0:
329,192,80348,1,0,0:0:0:0:
109,192,80420,1,0,0:0:0:40:BD.wav
182,192,80492,1,0,0:0:0:0:
256,192,80565,1,0,0:0:0:40:OH.wav
329,192,80637,1,0,0:0:0:40:SNRim.wav
402,192,80637,1,0,0:0:0:0:
36,192,80637,1,0,0:0:0:0:
109,192,80709,1,0,0:0:0:40:Hi.wav
475,192,80709,1,0,0:0:0:0:
182,192,80781,1,0,0:0:0:40:Hi.wav
402,192,80781,1,0,0:0:0:0:
256,192,80853,1,0,0:0:0:40:MidH.wav
329,192,80853,1,0,0:0:0:0:
36,192,80925,1,0,0:0:0:0:
109,192,80997,1,0,0:0:0:40:FlrL.wav
329,192,80997,1,0,0:0:0:0:
182,192,81069,1,0,0:0:0:0:
256,192,81141,1,0,0:0:0:40:BD.wav
402,192,81141,1,0,0:0:0:40:FlrL.wav
475,192,81141,1,0,0:0:0:40:splash.wav
36,192,81214,1,0,0:0:0:0:
182,192,81286,1,0,0:0:0:0:
329,192,81358,1,0,0:0:0:0:
402,192,81430,1,0,0:0:0:40:FlrL.wav
475,192,81430,1,0,0:0:0:40:SNRim.wav
109,192,81502,1,0,0:0:0:40:FlrL.wav
256,192,81574,1,0,0:0:0:40:FlrL.wav
402,192,81646,1,0,0:0:0:40:FlrL.wav
36,192,81718,1,0,0:0:0:40:BD.wav
475,192,81718,1,0,0:0:0:40:FlrL.wav
182,192,81791,1,0,0:0:0:0:
329,192,81863,1,0,0:0:0:0:
475,192,81935,1,0,0:0:0:0:
36,192,82007,1,0,0:0:0:40:FlrL.wav
109,192,82007,1,0,0:0:0:40:SNRim.wav
182,192,82079,1,0,0:0:0:40:FlrL.wav
329,192,82151,1,0,0:0:0:40:FlrL.wav
475,192,82223,1,0,0:0:0:40:FlrL.wav
109,192,82295,1,0,0:0:0:40:BD.wav
256,192,82295,1,0,0:0:0:40:FlrL.wav
329,192,82367,1,0,0:0:0:0:
402,192,82440,1,0,0:0:0:0:
475,192,82512,1,0,0:0:0:0:
182,192,82584,1,0,0:0:0:40:FlrL.wav
36,192,82584,1,0,0:0:0:40:SNRim.wav
256,192,82656,1,0,0:0:0:40:FlrL.wav
329,192,82728,1,0,0:0:0:40:FlrL.wav
402,192,82800,1,0,0:0:0:40:FlrL.wav
109,192,82872,1,0,0:0:0:40:SN.wav
475,192,82872,1,0,0:0:0:0:
182,192,82944,1,0,0:0:0:40:SN.wav
256,192,83016,1,0,0:0:0:40:Tamb.wav
329,192,83089,1,0,0:0:0:40:Tamb.wav
402,192,83161,1,0,0:0:0:40:SNRim.wav
36,192,83161,1,0,0:0:0:0:
109,192,83233,1,0,0:0:0:0:
182,192,83305,1,0,0:0:0:40:crush1.wav
402,192,83305,1,0,0:0:0:40:BD.wav
256,192,83377,1,0,0:0:0:0:
329,192,83449,1,0,0:0:0:40:BD.wav
475,192,83449,1,0,0:0:0:0:
256,192,83521,1,0,0:0:0:0:
182,192,83593,1,0,0:0:0:40:Tamb.wav
109,192,83666,1,0,0:0:0:40:Tamb.wav
36,192,83738,1,0,0:0:0:40:SNRim.wav
402,192,83738,1,0,0:0:0:0:
329,192,83810,1,0,0:0:0:0:
256,192,83882,1,0,0:0:0:40:FlrH.wav
182,192,83954,1,0,0:0:0:40:FlrH.wav
109,192,84026,1,0,0:0:0:40:BD.wav
475,192,84026,1,0,0:0:0:40:FlrL.wav
402,192,84098,1,0,0:0:0:0:
329,192,84170,1,0,0:0:0:40:Tamb.wav
256,192,84242,1,0,0:0:0:40:Tamb.wav
182,192,84315,1,0,0:0:0:40:MidL.wav
36,192,84315,1,0,0:0:0:40:SNRim.wav
475,192,84387,1,0,0:0:0:40:Low.wav
329,192,84459,1,0,0:0:0:40:FlrH.wav
182,192,84531,1,0,0:0:0:40:FlrL.wav
36,192,84603,1,0,0:0:0:40:BD.wav
475,192,84603,1,0,0:0:0:40:FlrL.wav
109,192,84675,1,0,0:0:0:0:
256,192,84747,1,0,0:0:0:40:Tamb.wav
402,192,84819,1,0,0:0:0:40:Tamb.wav
36,192,84891,1,0,0:0:0:40:SNRim.wav
475,192,84891,1,0,0:0:0:0:
182,192,84964,1,0,0:0:0:0:
329,192,85036,1,0,0:0:0:40:Hi.wav
475,192,85108,1,0,0:0:0:40:MidH.wav
36,192,85180,1,0,0:0:0:40:MidL.wav
109,192,85180,1,0,0:0:0:0:
256,192,85252,1,0,0:0:0:40:Low.wav
402,192,85324,1,0,0:0:0:40:FlrH.wav
475,192,85396,1,0,0:0:0:40:FlrL.wav
36,192,85468,1,0,0:0:0:40:SNRim.wav
182,192,85468,1,0,0:0:0:0:
256,192,85541,1,0,0:0:0:0:
329,192,85613,1,0,0:0:0:40:BD.wav
402,192,85685,1,0,0:0:0:0:
36,192,85757,1,0,0:0:0:40:crush1.wav
109,192,85757,1,0,0:0:0:0:
475,192,85757,1,0,0:0:0:0:
182,192,85829,1,0,0:0:0:0:
329,192,85901,1,0,0:0:0:0:
402,192,85973,1,0,0:0:0:0:
329,192,86045,1,0,0:0:0:0:
182,192,86117,1,0,0:0:0:0:
109,192,86190,1,0,0:0:0:0:
36,192,86262,1,0,0:0:0:0:
182,192,86334,1,0,0:0:0:40:crush1.wav
329,192,86334,1,0,0:0:0:0:
256,192,86334,1,0,0:0:0:0:
402,192,86406,1,0,0:0:0:0:
109,192,86478,1,0,0:0:0:0:
182,192,86550,1,0,0:0:0:0:
402,192,86622,1,0,0:0:0:0:
329,192,86694,1,0,0:0:0:0:
182,192,86766,1,0,0:0:0:0:
109,192,86839,1,0,0:0:0:0:
329,192,86911,1,0,0:0:0:40:crush2.wav
256,192,86911,1,0,0:0:0:0:
402,192,86983,1,0,0:0:0:0:
109,192,87055,1,0,0:0:0:0:
182,192,87127,1,0,0:0:0:0:
402,192,87199,1,0,0:0:0:0:
329,192,87271,1,0,0:0:0:0:
182,192,87343,1,0,0:0:0:0:
109,192,87416,1,0,0:0:0:0:
36,192,87488,1,0,0:0:0:40:splash.wav
475,192,87488,1,0,0:0:0:0:
329,192,87488,1,0,0:0:0:0:
109,192,87560,1,0,0:0:0:0:
182,192,87632,1,0,0:0:0:0:
256,192,87704,1,0,0:0:0:0:
475,192,87776,1,0,0:0:0:40:SNRim.wav
402,192,87776,1,0,0:0:0:0:
329,192,87848,1,0,0:0:0:0:
256,192,87920,1,0,0:0:0:0:
182,192,87992,1,0,0:0:0:0:
109,192,88065,1,0,0:0:0:40:BD.wav
402,192,88065,128,0,88641:0:0:0:0:
182,192,88161,1,0,0:0:0:0:
182,192,88257,1,0,0:0:0:0:
36,192,88353,1,0,0:0:0:0:
182,192,88449,1,0,0:0:0:0:
182,192,88545,1,0,0:0:0:0:
36,192,88641,1,0,0:0:0:0:
475,192,88641,1,0,0:0:0:40:SNRim.wav
109,192,88641,128,0,89218:0:0:0:0:
329,192,88738,1,0,0:0:0:0:
329,192,88834,1,0,0:0:0:0:
475,192,88930,1,0,0:0:0:0:
329,192,89026,1,0,0:0:0:0:
329,192,89122,1,0,0:0:0:0:
36,192,89218,1,0,0:0:0:0:
475,192,89218,1,0,0:0:0:0:
402,192,89315,1,0,0:0:0:0:
256,192,89411,1,0,0:0:0:40:SNRim.wav
182,192,89411,1,0,0:0:0:0:
329,192,89411,1,0,0:0:0:0:
109,192,89507,1,0,0:0:0:0:
36,192,89603,1,0,0:0:0:0:
109,192,89699,1,0,0:0:0:0:
182,192,89795,1,0,0:0:0:0:
256,192,89795,1,0,0:0:0:40:SNRim.wav
329,192,89795,1,0,0:0:0:0:
402,192,89891,1,0,0:0:0:0:
475,192,89988,1,0,0:0:0:0:
402,192,90084,1,0,0:0:0:0:
182,192,90180,1,0,0:0:0:0:
256,192,90180,1,0,0:0:0:40:SNRim.wav
329,192,90180,1,0,0:0:0:0:
109,192,90276,1,0,0:0:0:0:
475,192,90372,1,0,0:0:0:40:splash.wav
329,192,90372,1,0,0:0:0:40:SNRim.wav
182,192,90372,1,0,0:0:0:0:
109,192,90468,1,0,0:0:0:0:
36,192,90565,1,0,0:0:0:0:
182,192,90661,1,0,0:0:0:40:splash.wav
329,192,90661,1,0,0:0:0:40:SNRim.wav
475,192,90661,1,0,0:0:0:0:
109,192,90757,1,0,0:0:0:0:
36,192,90853,1,0,0:0:0:0:
182,192,90949,1,0,0:0:0:40:splash.wav
329,192,90949,1,0,0:0:0:40:SNRim.wav
475,192,90949,1,0,0:0:0:0:
256,192,91045,1,0,0:0:0:0:
256,192,91141,1,0,0:0:0:0:
402,192,91238,1,0,0:0:0:40:crush1.wav
109,192,91238,1,0,0:0:0:40:SNRim.wav
182,192,91334,1,0,0:0:0:40:SNRim.wav
329,192,91334,1,0,0:0:0:0:
109,192,91430,1,0,0:0:0:40:SNRim.wav
402,192,91430,1,0,0:0:0:0:
36,192,92391,1,0,0:0:0:40:crush1.wav
109,192,92391,1,0,0:0:0:0:
402,192,92391,1,0,0:0:0:0:
475,192,92391,1,0,0:0:0:0:
329,192,92487,1,0,0:0:0:0:
36,192,92583,1,0,0:0:0:0:
256,192,92583,1,0,0:0:0:0:
329,192,92679,1,0,0:0:0:0:
36,192,92775,1,0,0:0:0:0:
402,192,92775,1,0,0:0:0:0:
329,192,92871,1,0,0:0:0:0:
109,192,92967,1,0,0:0:0:40:SNRim.wav
256,192,92967,1,0,0:0:0:40:SNTight.wav
475,192,92967,1,0,0:0:0:0:
402,192,93064,1,0,0:0:0:0:
109,192,93160,1,0,0:0:0:0:
329,192,93160,1,0,0:0:0:0:
402,192,93256,1,0,0:0:0:0:
475,192,93352,1,0,0:0:0:0:
182,192,93352,1,0,0:0:0:0:
402,192,93448,1,0,0:0:0:0:
329,192,93544,1,0,0:0:0:40:BD.wav
36,192,93544,1,0,0:0:0:0:
109,192,93544,1,0,0:0:0:0:
182,192,93641,1,0,0:0:0:0:
256,192,93737,1,0,0:0:0:0:
475,192,93737,1,0,0:0:0:0:
182,192,93833,1,0,0:0:0:40:BD.wav
109,192,93929,1,0,0:0:0:0:
402,192,93929,1,0,0:0:0:0:
182,192,94025,1,0,0:0:0:0:
256,192,94121,1,0,0:0:0:40:SNRim.wav
402,192,94121,1,0,0:0:0:40:SNTight.wav
36,192,94121,1,0,0:0:0:0:
109,192,94217,1,0,0:0:0:0:
182,192,94314,1,0,0:0:0:0:
402,192,94314,1,0,0:0:0:0:
109,192,94410,1,0,0:0:0:0:
329,192,94506,1,0,0:0:0:0:
36,192,94506,1,0,0:0:0:0:
109,192,94602,1,0,0:0:0:0:
182,192,94698,1,0,0:0:0:40:BD.wav
329,192,94698,1,0,0:0:0:40:splash.wav
475,192,94698,1,0,0:0:0:0:
36,192,94794,1,0,0:0:0:0:
182,192,94891,1,0,0:0:0:0:
36,192,94987,1,0,0:0:0:0:
182,192,95083,1,0,0:0:0:0:
36,192,95179,1,0,0:0:0:0:
182,192,95275,1,0,0:0:0:40:SNRim.wav
475,192,95275,1,0,0:0:0:40:SNTight.wav
402,192,95275,1,0,0:0:0:0:
256,192,95371,1,0,0:0:0:0:
402,192,95467,1,0,0:0:0:0:
256,192,95564,1,0,0:0:0:40:Hi.wav
109,192,95564,1,0,0:0:0:0:
402,192,95660,1,0,0:0:0:0:
256,192,95756,1,0,0:0:0:0:
36,192,95852,1,0,0:0:0:40:BD.wav
109,192,95852,1,0,0:0:0:0:
475,192,95852,1,0,0:0:0:0:
256,192,95948,1,0,0:0:0:0:
109,192,96044,1,0,0:0:0:0:
182,192,96141,1,0,0:0:0:40:BD.wav
475,192,96141,1,0,0:0:0:0:
329,192,96237,1,0,0:0:0:0:
182,192,96333,1,0,0:0:0:0:
256,192,96429,1,0,0:0:0:40:SNTight.wav
36,192,96429,1,0,0:0:0:40:SNRim.wav
475,192,96429,1,0,0:0:0:40:splash.wav
402,192,96525,1,0,0:0:0:0:
256,192,96621,1,0,0:0:0:0:
329,192,96717,1,0,0:0:0:0:
109,192,96717,1,0,0:0:0:0:
475,192,96814,1,0,0:0:0:0:
329,192,96910,1,0,0:0:0:0:
36,192,97006,1,0,0:0:0:40:BD.wav
109,192,97006,1,0,0:0:0:40:crush1.wav
475,192,97006,1,0,0:0:0:0:
256,192,97006,1,0,0:0:0:0:
329,192,97102,1,0,0:0:0:0:
402,192,97198,1,0,0:0:0:0:
36,192,97198,1,0,0:0:0:0:
329,192,97294,1,0,0:0:0:0:
36,192,97390,1,0,0:0:0:0:
256,192,97390,1,0,0:0:0:0:
329,192,97487,1,0,0:0:0:0:
36,192,97583,1,0,0:0:0:40:SNRim.wav
402,192,97583,1,0,0:0:0:40:SNTight.wav
182,192,97583,1,0,0:0:0:0:
256,192,97679,1,0,0:0:0:0:
475,192,97775,1,0,0:0:0:0:
329,192,97775,1,0,0:0:0:0:
256,192,97871,1,0,0:0:0:0:
36,192,97967,1,0,0:0:0:0:
182,192,97967,1,0,0:0:0:0:
256,192,98064,1,0,0:0:0:0:
36,192,98160,1,0,0:0:0:40:BD.wav
329,192,98160,1,0,0:0:0:40:splash.wav
109,192,98160,1,0,0:0:0:0:
182,192,98256,1,0,0:0:0:0:
475,192,98352,1,0,0:0:0:0:
256,192,98352,1,0,0:0:0:0:
182,192,98448,1,0,0:0:0:40:BD.wav
109,192,98544,1,0,0:0:0:0:
402,192,98544,1,0,0:0:0:0:
182,192,98640,1,0,0:0:0:0:
402,192,98737,1,0,0:0:0:40:SNTight.wav
256,192,98737,1,0,0:0:0:40:SNRim.wav
36,192,98737,1,0,0:0:0:0:
109,192,98833,1,0,0:0:0:0:
182,192,98929,1,0,0:0:0:0:
402,192,98929,1,0,0:0:0:0:
109,192,99025,1,0,0:0:0:0:
329,192,99121,1,0,0:0:0:0:
36,192,99121,1,0,0:0:0:0:
109,192,99217,1,0,0:0:0:0:
182,192,99314,1,0,0:0:0:40:splash.wav
475,192,99314,1,0,0:0:0:40:BD.wav
329,192,99314,1,0,0:0:0:0:
36,192,99410,1,0,0:0:0:0:
256,192,99506,1,0,0:0:0:0:
402,192,99506,1,0,0:0:0:0:
36,192,99602,1,0,0:0:0:0:
256,192,99698,1,0,0:0:0:0:
402,192,99698,1,0,0:0:0:0:
36,192,99794,1,0,0:0:0:0:
182,192,99890,1,0,0:0:0:40:SNRim.wav
329,192,99890,1,0,0:0:0:40:SNTight.wav
402,192,99890,1,0,0:0:0:0:
36,192,99987,1,0,0:0:0:0:
182,192,100083,1,0,0:0:0:0:
329,192,100083,1,0,0:0:0:0:
36,192,100179,1,0,0:0:0:40:Hi.wav
182,192,100275,1,0,0:0:0:0:
329,192,100275,1,0,0:0:0:0:
36,192,100371,1,0,0:0:0:0:
256,192,100467,1,0,0:0:0:40:BD.wav
402,192,100467,1,0,0:0:0:0:
475,192,100467,1,0,0:0:0:0:
36,192,100540,1,0,0:0:0:0:
182,192,100612,1,0,0:0:0:40:BD.wav
329,192,100612,1,0,0:0:0:0:
36,192,100684,1,0,0:0:0:0:
402,192,100756,1,0,0:0:0:40:BD.wav
475,192,100756,1,0,0:0:0:0:
36,192,100852,1,0,0:0:0:0:
109,192,100852,1,0,0:0:0:0:
402,192,100948,1,0,0:0:0:0:
475,192,100948,1,0,0:0:0:0:
36,192,101044,1,0,0:0:0:40:BD.wav
109,192,101044,1,0,0:0:0:40:SNTight.wav
329,192,101044,1,0,0:0:0:40:SNRim.wav
182,192,101116,1,0,0:0:0:0:
256,192,101189,1,0,0:0:0:40:BD.wav
329,192,101261,1,0,0:0:0:0:
475,192,101333,1,0,0:0:0:40:BD.wav
36,192,101333,1,0,0:0:0:0:
109,192,101333,1,0,0:0:0:0:
402,192,101333,1,0,0:0:0:0:
475,192,101621,1,0,0:0:0:40:splash.wav
36,192,101621,1,0,0:0:0:40:BD.wav
109,192,101621,1,0,0:0:0:0:
329,192,101621,1,0,0:0:0:0:
182,192,101717,1,0,0:0:0:0:
256,192,101814,1,0,0:0:0:0:
36,192,101910,1,0,0:0:0:40:SNRim.wav
475,192,101910,1,0,0:0:0:40:SNTight.wav
402,192,101910,1,0,0:0:0:0:
329,192,101910,1,0,0:0:0:0:
109,192,102006,1,0,0:0:0:0:
182,192,102102,1,0,0:0:0:0:
256,192,102198,1,0,0:0:0:0:
182,192,102294,1,0,0:0:0:0:
109,192,102390,1,0,0:0:0:0:
36,192,102487,1,0,0:0:0:40:SN.wav
402,192,102487,1,0,0:0:0:40:SNTight.wav
329,192,102487,1,0,0:0:0:0:
475,192,102487,1,0,0:0:0:0:
256,192,102583,1,0,0:0:0:0:
182,192,102679,1,0,0:0:0:0:
109,192,102775,1,0,0:0:0:40:BD.wav
402,192,102775,1,0,0:0:0:0:
329,192,102871,1,0,0:0:0:0:
256,192,102967,1,0,0:0:0:0:
36,192,103064,1,0,0:0:0:40:SNTight.wav
402,192,103064,1,0,0:0:0:40:SNRim.wav
329,192,103064,1,0,0:0:0:0:
475,192,103064,1,0,0:0:0:0:
109,192,103160,1,0,0:0:0:0:
182,192,103256,1,0,0:0:0:0:
256,192,103352,1,0,0:0:0:0:
475,192,103448,1,0,0:0:0:0:
402,192,103544,1,0,0:0:0:0:
36,192,103640,1,0,0:0:0:40:SNRim.wav
329,192,103640,1,0,0:0:0:0:
109,192,103640,1,0,0:0:0:0:
182,192,103640,1,0,0:0:0:0:
402,192,103737,1,0,0:0:0:0:
475,192,103833,1,0,0:0:0:0:
109,192,103929,1,0,0:0:0:40:BD.wav
329,192,103929,1,0,0:0:0:40:splash.wav
36,192,103929,1,0,0:0:0:0:
402,192,103929,1,0,0:0:0:0:
182,192,104025,1,0,0:0:0:0:
256,192,104121,1,0,0:0:0:0:
329,192,104217,1,0,0:0:0:40:SNRim.wav
475,192,104217,1,0,0:0:0:40:SNTight.wav
402,192,104217,1,0,0:0:0:0:
256,192,104314,1,0,0:0:0:0:
182,192,104410,1,0,0:0:0:0:
109,192,104506,1,0,0:0:0:40:FlrH.wav
402,192,104602,1,0,0:0:0:0:
329,192,104698,1,0,0:0:0:0:
182,192,104794,1,0,0:0:0:20:BD.wav
256,192,104794,1,0,0:0:0:0:
329,192,104890,1,0,0:0:0:0:
402,192,104987,1,0,0:0:0:0:
36,192,105083,1,0,0:0:0:40:BD.wav
475,192,105083,1,0,0:0:0:0:
109,192,105179,1,0,0:0:0:0:
182,192,105275,1,0,0:0:0:0:
36,192,105371,1,0,0:0:0:40:SNRim.wav
109,192,105371,1,0,0:0:0:0:
475,192,105371,1,0,0:0:0:0:
256,192,105371,1,0,0:0:0:0:
402,192,105467,1,0,0:0:0:0:
329,192,105564,1,0,0:0:0:0:
36,192,105660,1,0,0:0:0:40:RDcup.wav
256,192,105756,1,0,0:0:0:0:
329,192,105852,1,0,0:0:0:0:
402,192,105948,1,0,0:0:0:40:crush2.wav
109,192,105948,1,0,0:0:0:40:SNRim.wav
475,192,105948,1,0,0:0:0:0:
36,192,105948,1,0,0:0:0:0:
182,192,106044,1,0,0:0:0:0:
256,192,106140,1,0,0:0:0:0:
182,192,106237,1,0,0:0:0:0:
475,192,106237,1,0,0:0:0:0:
329,192,106333,1,0,0:0:0:0:
402,192,106429,1,0,0:0:0:0:
475,192,106525,1,0,0:0:0:40:splash.wav
182,192,106525,1,0,0:0:0:40:SNTight.wav
329,192,106621,1,0,0:0:0:0:
182,192,106717,1,0,0:0:0:0:
402,192,106814,1,0,0:0:0:0:
36,192,106814,1,0,0:0:0:0:
109,192,106910,1,0,0:0:0:0:
182,192,107006,1,0,0:0:0:0:
256,192,107102,1,0,0:0:0:40:SNTight.wav
402,192,107102,1,0,0:0:0:40:splash.wav
109,192,107198,1,0,0:0:0:0:
402,192,107294,1,0,0:0:0:0:
36,192,107390,1,0,0:0:0:0:
182,192,107390,1,0,0:0:0:0:
256,192,107487,1,0,0:0:0:0:
329,192,107583,1,0,0:0:0:0:
402,192,107679,1,0,0:0:0:40:splash.wav
36,192,107679,1,0,0:0:0:40:SNTight.wav
182,192,107775,1,0,0:0:0:0:
36,192,107871,1,0,0:0:0:0:
475,192,107967,1,0,0:0:0:40:SNTight.wav
256,192,107967,1,0,0:0:0:0:
109,192,108064,1,0,0:0:0:0:
329,192,108064,1,0,0:0:0:0:
182,192,108160,1,0,0:0:0:0:
402,192,108160,1,0,0:0:0:0:
256,192,108256,1,0,0:0:0:40:splash.wav
475,192,108256,1,0,0:0:0:40:SNTight.wav
36,192,108256,1,0,0:0:0:0:
109,192,108352,1,0,0:0:0:0:
329,192,108352,1,0,0:0:0:0:
182,192,108448,1,0,0:0:0:0:
402,192,108448,1,0,0:0:0:0:
36,192,108544,1,0,0:0:0:40:SNRim.wav
329,192,108544,1,0,0:0:0:40:SNTight.wav
109,192,108544,1,0,0:0:0:40:splash.wav
256,192,108544,128,0,109554:0:0:0:0:
182,192,108689,1,0,0:0:0:0:
329,192,108761,1,0,0:0:0:0:
109,192,108833,1,0,0:0:0:0:
182,192,108905,1,0,0:0:0:0:
329,192,108977,1,0,0:0:0:0:
109,192,109049,1,0,0:0:0:0:
182,192,109121,1,0,0:0:0:0:
329,192,109193,1,0,0:0:0:0:
402,192,109265,1,0,0:0:0:0:
182,192,109338,1,0,0:0:0:0:
329,192,109410,1,0,0:0:0:0:
402,192,109482,1,0,0:0:0:0:
109,192,109554,1,0,0:0:0:0:
36,192,109698,1,0,0:0:0:40:SNTight.wav
182,192,109698,1,0,0:0:0:40:splash.wav
329,192,109698,1,0,0:0:0:40:SNRim.wav
475,192,109698,1,0,0:0:0:0:
256,192,109698,128,0,110708:0:0:0:0:
402,192,109842,1,0,0:0:0:0:
329,192,109915,1,0,0:0:0:0:
109,192,109987,1,0,0:0:0:0:
402,192,110059,1,0,0:0:0:0:
182,192,110131,1,0,0:0:0:0:
109,192,110203,1,0,0:0:0:0:
402,192,110275,1,0,0:0:0:0:
329,192,110347,1,0,0:0:0:0:
182,192,110419,1,0,0:0:0:0:
402,192,110491,1,0,0:0:0:0:
329,192,110564,1,0,0:0:0:0:
182,192,110636,1,0,0:0:0:0:
109,192,110708,1,0,0:0:0:0:
36,192,110852,1,0,0:0:0:40:SNRim.wav
109,192,110852,1,0,0:0:0:40:splash.wav
402,192,110852,1,0,0:0:0:40:SNTight.wav
475,192,110852,1,0,0:0:0:0:
256,192,110852,128,0,111862:0:0:0:0:
36,192,110996,1,0,0:0:0:0:
182,192,111068,1,0,0:0:0:0:
475,192,111140,1,0,0:0:0:0:
36,192,111213,1,0,0:0:0:0:
329,192,111285,1,0,0:0:0:0:
475,192,111357,1,0,0:0:0:0:
36,192,111429,1,0,0:0:0:0:
182,192,111501,1,0,0:0:0:0:
329,192,111573,1,0,0:0:0:0:
475,192,111645,1,0,0:0:0:0:
182,192,111717,1,0,0:0:0:0:
329,192,111790,1,0,0:0:0:0:
475,192,111862,1,0,0:0:0:0:
182,192,111934,1,0,0:0:0:0:
36,192,112006,1,0,0:0:0:40:SNTight.wav
109,192,112006,1,0,0:0:0:40:SNRim.wav
475,192,112006,1,0,0:0:0:0:
402,192,112006,1,0,0:0:0:0:
329,192,112150,1,0,0:0:0:40:SNRim.wav
402,192,112198,1,0,0:0:0:0:
475,192,112246,1,0,0:0:0:0:
256,192,112294,1,0,0:0:0:40:SNRim.wav
329,192,112342,1,0,0:0:0:0:
402,192,112390,1,0,0:0:0:0:
182,192,112439,1,0,0:0:0:0:
256,192,112487,1,0,0:0:0:0:
329,192,112535,1,0,0:0:0:0:
109,192,112583,1,0,0:0:0:40:MidH.wav
182,192,112631,1,0,0:0:0:0:
256,192,112679,1,0,0:0:0:0:
36,192,112727,1,0,0:0:0:0:
109,192,112775,1,0,0:0:0:0:
182,192,112823,1,0,0:0:0:0:
256,192,112871,1,0,0:0:0:40:MidL.wav
329,192,112919,1,0,0:0:0:0:
402,192,112967,1,0,0:0:0:0:
475,192,113015,1,0,0:0:0:0:
36,192,113160,1,0,0:0:0:40:SNTight.wav
182,192,113160,1,0,0:0:0:40:splash.wav
329,192,113160,1,0,0:0:0:40:SNRim.wav
475,192,113160,1,0,0:0:0:0:
475,192,113304,1,0,0:0:0:0:
182,192,113304,1,0,0:0:0:0:
109,192,113448,1,0,0:0:0:0:
402,192,113448,1,0,0:0:0:0:
329,192,113592,1,0,0:0:0:0:
36,192,113592,1,0,0:0:0:0:
256,192,113737,1,0,0:0:0:0:
475,192,113737,1,0,0:0:0:0:
402,192,113881,1,0,0:0:0:0:
182,192,113881,1,0,0:0:0:0:
329,192,114025,1,0,0:0:0:0:
109,192,114025,1,0,0:0:0:0:
256,192,114169,1,0,0:0:0:0:
36,192,114169,1,0,0:0:0:0:
36,192,114314,1,0,0:0:0:40:SNTight.wav
182,192,114314,1,0,0:0:0:40:splash.wav
329,192,114314,1,0,0:0:0:40:SNRim.wav
475,192,114314,1,0,0:0:0:0:
475,192,114458,1,0,0:0:0:0:
329,192,114458,1,0,0:0:0:0:
256,192,114602,1,0,0:0:0:0:
402,192,114602,1,0,0:0:0:0:
329,192,114746,1,0,0:0:0:0:
182,192,114746,1,0,0:0:0:0:
256,192,114890,1,0,0:0:0:0:
109,192,114890,1,0,0:0:0:0:
182,192,115035,1,0,0:0:0:0:
36,192,115035,1,0,0:0:0:0:
109,192,115179,1,0,0:0:0:0:
402,192,115179,1,0,0:0:0:0:
329,192,115323,1,0,0:0:0:0:
182,192,115323,1,0,0:0:0:0:
36,192,115467,1,0,0:0:0:40:SNRim.wav
109,192,115467,1,0,0:0:0:40:splash.wav
256,192,115467,1,0,0:0:0:40:SNTight.wav
475,192,115467,1,0,0:0:0:0:
256,192,115612,1,0,0:0:0:40:Hi.wav
475,192,115612,1,0,0:0:0:40:Hi.wav
402,192,115756,1,0,0:0:0:40:MidH.wav
182,192,115756,1,0,0:0:0:40:MidH.wav
109,192,115900,1,0,0:0:0:40:MidL.wav
329,192,115900,1,0,0:0:0:40:MidL.wav
256,192,116044,1,0,0:0:0:40:Low.wav
36,192,116044,1,0,0:0:0:40:Low.wav
475,192,116044,1,0,0:0:0:0:
402,192,116189,1,0,0:0:0:40:FlrH.wav
182,192,116189,1,0,0:0:0:40:FlrH.wav
329,192,116333,1,0,0:0:0:40:FlrL.wav
109,192,116333,1,0,0:0:0:40:FlrL.wav
36,192,116477,1,0,0:0:0:40:FlrL.wav
256,192,116477,1,0,0:0:0:40:FlrL.wav
36,192,116621,1,0,0:0:0:40:SNTight.wav
182,192,116621,1,0,0:0:0:40:splash.wav
329,192,116621,1,0,0:0:0:40:SNRim.wav
475,192,116621,1,0,0:0:0:0:
36,192,116765,1,0,0:0:0:0:
475,192,116765,1,0,0:0:0:0:
182,192,116765,1,0,0:0:0:0:
36,192,116910,1,0,0:0:0:0:
402,192,116910,1,0,0:0:0:0:
182,192,116910,1,0,0:0:0:0:
36,192,117054,1,0,0:0:0:0:
329,192,117054,1,0,0:0:0:0:
182,192,117054,1,0,0:0:0:0:
475,192,117198,1,0,0:0:0:0:
256,192,117198,1,0,0:0:0:0:
329,192,117198,1,0,0:0:0:0:
329,192,117342,1,0,0:0:0:0:
182,192,117342,1,0,0:0:0:0:
475,192,117342,1,0,0:0:0:0:
475,192,117487,1,0,0:0:0:0:
329,192,117487,1,0,0:0:0:0:
109,192,117487,1,0,0:0:0:0:
329,192,117631,1,0,0:0:0:0:
36,192,117631,1,0,0:0:0:0:
475,192,117631,1,0,0:0:0:0:
36,192,117775,1,0,0:0:0:40:crush1.wav
329,192,117775,1,0,0:0:0:0:
475,192,117775,1,0,0:0:0:0:
109,192,117775,1,0,0:0:0:0:
182,192,117847,1,0,0:0:0:0:
256,192,117919,1,0,0:0:0:0:
402,192,117919,1,0,0:0:0:0:
475,192,117991,1,0,0:0:0:0:
36,192,118064,1,0,0:0:0:0:
182,192,118064,1,0,0:0:0:0:
329,192,118082,1,0,0:0:0:0:
402,192,118100,1,0,0:0:0:0:
475,192,118112,1,0,0:0:0:0:
36,192,118424,1,0,0:0:0:0:
182,192,118424,1,0,0:0:0:0:
475,192,118424,1,0,0:0:0:0:
256,192,118514,1,0,0:0:0:0:
329,192,118586,1,0,0:0:0:0:
109,192,118586,1,0,0:0:0:0:
182,192,118659,1,0,0:0:0:0:
256,192,118731,1,0,0:0:0:0:
329,192,118749,1,0,0:0:0:0:
402,192,118767,1,0,0:0:0:0:
475,192,118785,1,0,0:0:0:0:
109,192,119127,1,0,0:0:0:40:SNTight.wav
182,192,119127,1,0,0:0:0:40:crush1.wav
329,192,119127,1,0,0:0:0:40:BD.wav
402,192,119127,1,0,0:0:0:0:
182,192,119326,1,0,0:0:0:40:FlrH.wav
329,192,119416,1,0,0:0:0:40:FlrH.wav
182,192,119524,1,0,0:0:0:40:FlrH.wav
182,192,119740,1,0,0:0:0:40:FlrH.wav
329,192,119993,1,0,0:0:0:40:FlrH.wav
182,192,119993,1,0,0:0:0:40:crush2.wav
256,192,119993,1,0,0:0:0:0:
36,192,119993,1,0,0:0:0:0:
475,192,119993,1,0,0:0:0:0:
