osu file format v14

[General]
AudioFilename: Maniera.mp3
AudioLeadIn: 0
PreviewTime: 20566
Countdown: 0
SampleSet: None
StackLeniency: 0.7
Mode: 2
LetterboxInBreaks: 1
WidescreenStoryboard: 1

[Editor]
Bookmarks: 78834,81141,85757,88065,89411,89795,90180,90372,90661,90949
DistanceSpacing: 1.3
BeatDivisor: 6
GridSize: 8
TimelineZoom: 3.699998

[Metadata]
Title:MANIERA
TitleUnicode:MANIERA
Artist:D(ABE3)
ArtistUnicode:D(ABE3)
Creator:Krah
Version:CS0 Overdose [AR9]
Source:BMS
Tags:
BeatmapID:763795
BeatmapSetID:344888

[Difficulty]
HPDrainRate:6
CircleSize:0
OverallDifficulty:9
ApproachRate:9
SliderMultiplier:2.1
SliderTickRate:1

[Events]
//Background and Video events
0,0,"maniera bg resolution fixed.jpg",0,0
//Break Periods
//Storyboard Layer 0 (Background)
//Storyboard Layer 1 (Fail)
//Storyboard Layer 2 (Pass)
//Storyboard Layer 3 (Foreground)
//Storyboard Sound Samples

[TimingPoints]
2105,288.461538461538,4,2,0,80,1,0
3979,-100,4,2,0,30,0,0
4412,-100,4,2,0,70,0,0
6720,-100,4,2,0,50,0,0
10758,-100,4,3,0,50,0,0
10854,-100,4,2,0,50,0,0
11047,-100,4,3,0,50,0,0
11143,-100,4,2,0,50,0,0
11912,-100,4,2,0,60,0,0
12489,-100,4,2,0,70,0,0
13066,-100,4,2,0,80,0,0
15951,-100,4,3,0,40,0,0
19989,-100,4,2,0,60,0,0
20566,-100,4,3,0,40,0,0
25181,-100,4,1,0,35,0,0
26335,-100,4,2,0,65,0,0
27489,-100,4,1,0,35,0,0
28643,-100,4,2,0,65,0,0
29797,-100,4,1,0,35,0,0
30951,-100,4,2,0,65,0,0
32104,-100,4,1,0,35,0,0
33258,-100,4,2,1,50,0,0
40181,-100,4,2,1,30,0,0
48979,-100,4,2,1,80,0,0
49412,-100,4,2,1,40,0,0
50566,-100,4,2,1,45,0,0
50854,-100,4,2,1,20,0,0
51143,-100,4,2,1,45,0,0
51720,-100,4,2,1,50,0,0
54028,-100,4,2,1,55,0,0
54316,-100,4,2,1,25,0,0
54604,-100,4,2,1,55,0,0
54893,-100,4,2,1,20,0,0
55037,-100,4,2,1,55,0,0
55181,-100,4,2,1,60,0,0
55470,-100,4,2,1,30,0,0
55758,-100,4,2,1,60,0,0
56047,-100,4,2,1,30,0,0
56191,-100,4,2,1,60,0,0
56335,-100,4,2,1,65,0,0
56768,-100,4,2,1,35,0,0
56912,-100,4,2,1,65,0,0
57345,-100,4,2,1,35,0,0
57489,-100,4,2,1,70,0,0
57922,-100,4,2,1,40,0,0
58066,-100,4,2,1,70,0,0
58499,-100,4,2,1,40,0,0
58643,-100,4,2,1,75,0,0
60662,-100,4,2,1,80,0,0
60734,-100,4,2,1,85,0,0
60806,-100,4,2,1,90,0,0
60951,-100,4,2,1,100,0,0
61239,-100,4,3,1,60,0,0
62177,-100,4,2,1,30,0,0
62681,-100,4,2,1,40,0,0
63258,-100,4,2,1,50,0,0
63330,-100,4,2,1,60,0,0
63403,-100,4,2,1,70,0,0
63547,-100,4,2,1,50,0,0
66142,288.461538461538,4,3,0,40,1,0
66142,-100,4,3,0,40,0,0
70180,-100,4,2,0,60,0,0
70757,-100,4,3,0,40,0,0
76526,-100,4,2,0,50,0,0
78834,-100,4,2,1,35,0,0
80637,-100,4,2,1,15,0,0
80709,-100,4,2,1,35,0,0
81141,-100,4,2,1,40,0,0
83449,-100,4,2,1,50,0,0
85757,-100,4,2,1,35,0,0
92391,288.461538461538,4,2,0,80,1,0

[Colours]
Combo1 : 221,0,111
Combo2 : 64,0,64
Combo3 : 128,0,128
Combo4 : 128,0,64

[HitObjects]
320,192,2104,6,0,L|440:192,1,105,4|0,0:0|0:0,0:0:0:0:
240,48,2393,5,0,0:0:0:0:
152,48,2465,1,0,0:0:0:0:
72,48,2537,1,0,0:0:0:0:
152,104,2609,1,0,0:0:0:0:
224,112,2681,1,0,0:0:0:0:
152,168,2754,1,0,0:0:0:0:
88,168,2826,1,0,0:0:0:0:
152,232,2898,1,0,0:0:0:0:
208,224,2970,1,0,0:0:0:0:
152,304,3042,1,0,0:0:0:0:
104,288,3114,1,0,0:0:0:0:
152,368,3186,1,0,0:0:0:0:
328,360,3258,6,0,L|416:288,1,105,4|0,0:0|0:0,0:0:0:0:
288,280,3547,5,0,0:0:0:0:
240,280,3619,1,0,0:0:0:0:
192,280,3691,1,0,0:0:0:0:
264,208,3764,1,0,0:0:0:0:
216,208,3836,1,0,0:0:0:0:
168,208,3907,1,0,0:0:0:0:
120,208,3980,5,8,0:0:0:0:
368,200,4124,1,8,0:0:0:0:
64,128,4268,1,8,0:0:0:0:
320,128,4412,6,0,L|408:200,1,105,4|0,0:0|0:0,0:0:0:0:
288,32,4701,1,2,0:0:0:0:
224,48,4773,1,0,0:0:0:0:
184,112,4845,1,0,0:0:0:0:
168,176,4917,1,0,0:0:0:0:
328,184,4989,6,0,L|240:256,1,105,4|0,0:0|0:0,0:0:0:0:
360,88,5278,1,2,0:0:0:0:
424,104,5350,1,0,0:0:0:0:
464,168,5422,1,0,0:0:0:0:
480,232,5494,1,0,0:0:0:0:
272,232,5566,6,0,L|360:304,1,105,4|0,0:0|0:0,0:0:0:0:
240,136,5854,1,2,0:0:0:0:
176,152,5926,1,0,0:0:0:0:
136,216,5998,1,0,0:0:0:0:
120,280,6070,1,0,0:0:0:0:
480,288,6143,6,0,L|520:288,14,26.25
312,288,6720,5,6,0:0:0:0:
256,264,6816,1,0,0:0:0:0:
208,240,6912,1,0,0:0:0:0:
152,256,7008,1,2,0:0:0:0:
256,176,7104,1,0,0:0:0:0:
200,152,7201,1,0,0:0:0:0:
144,136,7297,1,2,0:0:0:0:
88,104,7393,1,0,0:0:0:0:
32,72,7489,1,0,0:0:0:0:
240,320,7585,5,6,0:0:0:0:
304,320,7681,1,0,0:0:0:0:
368,320,7778,1,0,0:0:0:0:
272,256,7874,1,2,0:0:0:0:
336,256,7970,1,0,0:0:0:0:
400,256,8066,1,0,0:0:0:0:
184,48,8162,5,6,0:0:0:0:
136,88,8258,1,0,0:0:0:0:
120,160,8355,1,0,0:0:0:0:
216,168,8451,1,2,0:0:0:0:
168,208,8547,1,0,0:0:0:0:
152,280,8643,1,0,0:0:0:0:
416,280,8739,5,6,0:0:0:0:
472,232,8835,1,0,0:0:0:0:
416,168,8932,1,0,0:0:0:0:
208,248,9028,5,6,0:0:0:0:
264,224,9124,1,0,0:0:0:0:
312,200,9220,1,0,0:0:0:0:
368,216,9316,1,2,0:0:0:0:
264,136,9412,1,0,0:0:0:0:
320,112,9509,1,0,0:0:0:0:
376,96,9605,1,2,0:0:0:0:
432,64,9701,1,0,0:0:0:0:
488,32,9797,1,0,0:0:0:0:
240,40,9894,5,6,0:0:0:0:
160,72,9990,1,0,0:0:0:0:
104,136,10085,1,0,0:0:0:0:
80,216,10181,1,2,0:0:0:0:
104,288,10278,1,0,0:0:0:0:
152,352,10375,1,0,0:0:0:0:
368,344,10470,5,6,0:0:0:0:
432,304,10566,1,0,0:0:0:0:
496,264,10663,1,0,0:0:0:0:
304,296,10759,1,2,0:0:0:0:
368,256,10855,1,0,0:0:0:0:
432,216,10951,1,0,0:0:0:0:
240,256,11047,1,2,0:0:0:0:
304,216,11143,1,0,0:0:0:0:
368,176,11240,1,0,0:0:0:0:
96,64,11335,5,2,0:0:0:0:
40,112,11431,1,0,0:0:0:0:
16,168,11528,1,0,0:0:0:0:
8,240,11624,1,8,0:0:0:0:
416,64,11912,5,2,0:0:0:0:
472,112,12008,1,0,0:0:0:0:
496,168,12105,1,0,0:0:0:0:
504,240,12201,1,8,0:0:0:0:
96,64,12489,5,2,0:0:0:0:
40,112,12585,1,0,0:0:0:0:
16,168,12682,1,0,0:0:0:0:
8,240,12778,1,8,0:0:0:0:
416,64,13066,5,2,0:0:0:0:
472,112,13162,1,0,0:0:0:0:
496,168,13259,1,0,0:0:0:0:
504,240,13355,1,8,0:0:0:0:
384,240,13643,5,2,0:0:0:0:
8,240,13931,1,4,0:0:0:0:
248,224,14220,1,2,0:0:0:0:
152,224,14364,1,0,0:0:0:0:
456,152,14653,1,0,0:0:0:0:
320,152,14797,1,0,0:0:0:0:
32,128,14941,5,2,0:0:0:0:
96,112,15013,1,0,0:0:0:0:
160,96,15085,1,0,0:0:0:0:
296,96,15229,1,0,0:0:0:0:
120,64,15374,1,0,0:0:0:0:
448,96,15518,5,2,0:0:0:0:
384,64,15590,1,0,0:0:0:0:
320,40,15662,1,0,0:0:0:0:
152,40,15806,1,0,0:0:0:0:
0,200,15951,5,0,0:0:0:0:
120,240,16095,1,0,0:0:0:0:
432,256,16239,1,2,0:0:0:0:
320,256,16383,1,0,0:0:0:0:
208,256,16528,1,0,0:0:0:0:
96,248,16672,1,0,0:0:0:0:
216,176,16816,1,2,0:0:0:0:
96,128,16960,1,0,0:0:0:0:
464,176,17104,5,0,0:0:0:0:
336,216,17248,1,0,0:0:0:0:
32,232,17392,1,2,0:0:0:0:
152,232,17536,1,0,0:0:0:0:
272,224,17681,1,0,0:0:0:0:
392,216,17825,1,0,0:0:0:0:
248,152,17969,1,2,0:0:0:0:
360,104,18113,1,0,0:0:0:0:
32,176,18258,5,0,0:0:0:0:
168,208,18402,1,0,0:0:0:0:
464,232,18546,1,2,0:0:0:0:
336,232,18690,1,0,0:0:0:0:
208,224,18835,1,0,0:0:0:0:
80,216,18979,1,0,0:0:0:0:
232,152,19123,1,2,0:0:0:0:
88,104,19267,1,0,0:0:0:0:
384,40,19412,5,0,0:0:0:0:
424,96,19484,1,0,0:0:0:0:
192,88,19557,1,0,0:0:0:0:
152,136,19629,1,0,0:0:0:0:
312,136,19701,1,0,0:0:0:0:
352,200,19773,1,0,0:0:0:0:
128,256,19845,1,0,0:0:0:0:
88,304,19917,1,0,0:0:0:0:
512,312,19989,5,6,0:0:0:0:
504,248,20061,1,0,0:0:0:0:
488,224,20133,1,0,0:0:0:0:
464,176,20205,1,0,0:0:0:0:
424,160,20278,1,0,0:0:0:0:
360,240,20350,1,0,0:0:0:0:
264,240,20422,1,0,0:0:0:0:
8,232,20566,5,4,0:0:0:0:
96,176,20710,1,0,0:0:0:0:
352,56,20854,1,2,0:0:0:0:
424,96,20998,1,0,0:0:0:0:
480,160,21143,1,0,0:0:0:0:
504,240,21287,1,0,0:0:0:0:
128,120,21431,1,2,0:0:0:0:
40,64,21575,1,0,0:0:0:0:
504,232,21720,5,4,0:0:0:0:
416,176,21864,1,0,0:0:0:0:
160,56,22008,1,2,0:0:0:0:
88,96,22152,1,0,0:0:0:0:
32,160,22297,1,0,0:0:0:0:
8,240,22441,1,0,0:0:0:0:
384,120,22585,1,2,0:0:0:0:
472,64,22729,1,0,0:0:0:0:
8,232,22874,5,4,0:0:0:0:
96,176,23018,1,0,0:0:0:0:
352,56,23162,1,2,0:0:0:0:
424,96,23306,1,0,0:0:0:0:
480,160,23451,1,0,0:0:0:0:
504,240,23595,1,0,0:0:0:0:
128,120,23739,1,2,0:0:0:0:
40,64,23883,1,0,0:0:0:0:
432,328,24028,5,0,0:0:0:0:
472,272,24100,1,0,0:0:0:0:
240,280,24173,1,0,0:0:0:0:
200,232,24245,1,0,0:0:0:0:
360,232,24317,1,0,0:0:0:0:
400,168,24389,1,0,0:0:0:0:
176,112,24461,1,0,0:0:0:0:
136,64,24533,1,0,0:0:0:0:
112,32,24604,5,0,0:0:0:0:
496,64,24749,1,0,0:0:0:0:
448,24,24893,1,0,0:0:0:0:
160,72,25037,1,0,0:0:0:0:
8,136,25181,5,0,0:0:0:0:
72,168,25254,1,0,0:0:0:0:
136,192,25326,1,0,0:0:0:0:
200,224,25398,1,0,0:0:0:0:
32,256,25470,1,4,0:0:0:0:
328,256,25758,5,0,0:0:0:0:
264,224,25831,1,0,0:0:0:0:
200,200,25903,1,0,0:0:0:0:
136,168,25975,1,0,0:0:0:0:
368,128,26047,1,4,0:0:0:0:
232,56,26335,5,2,0:0:0:0:
168,80,26407,1,0,0:0:0:0:
104,120,26479,1,0,0:0:0:0:
184,144,26552,1,0,0:0:0:0:
368,152,26624,1,2,0:0:0:0:
432,176,26696,1,0,0:0:0:0:
496,216,26768,1,0,0:0:0:0:
416,240,26841,1,0,0:0:0:0:
176,248,26913,1,2,0:0:0:0:
112,272,26984,1,0,0:0:0:0:
48,312,27056,1,0,0:0:0:0:
128,336,27129,1,0,0:0:0:0:
456,328,27201,1,2,0:0:0:0:
304,320,27489,5,0,0:0:0:0:
264,264,27562,1,0,0:0:0:0:
448,104,27634,1,0,0:0:0:0:
408,40,27706,1,0,0:0:0:0:
136,48,27778,1,4,0:0:0:0:
288,56,28066,5,0,0:0:0:0:
328,112,28139,1,0,0:0:0:0:
144,272,28211,1,0,0:0:0:0:
184,336,28283,1,0,0:0:0:0:
456,328,28355,1,4,0:0:0:0:
272,72,28643,5,2,0:0:0:0:
336,96,28715,1,0,0:0:0:0:
400,136,28787,1,0,0:0:0:0:
320,160,28860,1,0,0:0:0:0:
136,168,28932,1,2,0:0:0:0:
72,192,29004,1,0,0:0:0:0:
8,232,29076,1,0,0:0:0:0:
88,256,29149,1,0,0:0:0:0:
328,264,29221,1,2,0:0:0:0:
392,288,29292,1,0,0:0:0:0:
456,328,29364,1,0,0:0:0:0:
376,352,29437,1,0,0:0:0:0:
48,344,29509,1,2,0:0:0:0:
224,344,29797,5,0,0:0:0:0:
160,312,29870,1,0,0:0:0:0:
120,256,29942,1,0,0:0:0:0:
112,184,30014,1,0,0:0:0:0:
360,184,30086,1,4,0:0:0:0:
112,192,30374,5,0,0:0:0:0:
48,160,30447,1,0,0:0:0:0:
8,104,30519,1,0,0:0:0:0:
0,32,30591,1,0,0:0:0:0:
272,56,30663,1,4,0:0:0:0:
400,104,30951,5,2,0:0:0:0:
312,152,31095,1,0,0:0:0:0:
72,160,31240,1,2,0:0:0:0:
160,208,31383,1,0,0:0:0:0:
440,208,31529,1,2,0:0:0:0:
352,256,31672,1,0,0:0:0:0:
8,280,31817,1,2,0:0:0:0:
152,336,32104,5,0,0:0:0:0:
176,280,32177,1,0,0:0:0:0:
216,240,32249,1,0,0:0:0:0:
272,224,32321,1,0,0:0:0:0:
472,224,32393,1,4,0:0:0:0:
192,224,32681,5,0,0:0:0:0:
216,168,32754,1,0,0:0:0:0:
256,128,32826,1,0,0:0:0:0:
312,112,32898,1,0,0:0:0:0:
512,112,32970,1,4,0:0:0:0:
344,320,33258,5,2,0:0:0:0:
232,320,33402,1,0,0:0:0:0:
120,320,33547,1,2,0:0:0:0:
8,312,33691,1,0,0:0:0:0:
128,256,33836,1,2,0:0:0:0:
248,256,33979,1,0,0:0:0:0:
368,264,34124,1,2,0:0:0:0:
488,264,34268,1,0,0:0:0:0:
8,176,34412,5,10,0:0:0:0:
120,128,34556,1,0,0:0:0:0:
232,104,34701,1,2,0:0:0:0:
344,88,34845,1,0,0:0:0:0:
456,64,34990,1,2,0:0:0:0:
328,32,35133,1,0,0:0:0:0:
200,32,35278,1,2,0:0:0:0:
72,40,35422,1,0,0:0:0:0:
488,176,35566,5,10,0:0:0:0:
384,176,35710,1,0,0:0:0:0:
280,176,35855,1,2,0:0:0:0:
176,176,35999,1,0,0:0:0:0:
432,272,36144,1,10,0:0:0:0:
312,264,36287,1,0,0:0:0:0:
192,256,36432,1,2,0:0:0:0:
72,256,36576,1,0,0:0:0:0:
496,104,36720,5,10,0:0:0:0:
360,88,36864,1,0,0:0:0:0:
64,88,37009,1,10,0:0:0:0:
200,72,37153,1,0,0:0:0:0:
464,80,37298,1,10,0:0:0:0:
328,64,37441,1,0,0:0:0:0:
24,80,37586,1,10,0:0:0:0:
160,64,37730,1,0,0:0:0:0:
400,240,37874,5,8,0:0:0:0:
8,240,38162,1,4,0:0:0:0:
248,224,38451,1,2,0:0:0:0:
152,224,38595,1,0,0:0:0:0:
456,152,38884,1,0,0:0:0:0:
320,152,39028,1,0,0:0:0:0:
32,128,39172,5,2,0:0:0:0:
96,112,39244,1,0,0:0:0:0:
160,96,39316,1,0,0:0:0:0:
296,96,39460,1,0,0:0:0:0:
120,64,39605,1,0,0:0:0:0:
448,96,39749,5,2,0:0:0:0:
384,64,39821,1,0,0:0:0:0:
320,40,39893,1,0,0:0:0:0:
152,40,40037,1,0,0:0:0:0:
280,304,40181,5,0,0:0:0:0:
336,344,40254,1,0,0:0:0:0:
128,344,40326,1,8,0:0:0:0:
80,304,40398,1,0,0:0:0:0:
56,232,40470,1,0,0:0:0:0:
96,176,40542,1,0,0:0:0:0:
392,272,40614,1,8,0:0:0:0:
320,224,40686,1,0,0:0:0:0:
120,224,40758,5,0,0:0:0:0:
64,264,40831,1,0,0:0:0:0:
272,264,40903,1,8,0:0:0:0:
320,224,40975,1,0,0:0:0:0:
344,152,41047,1,0,0:0:0:0:
304,96,41119,1,0,0:0:0:0:
8,192,41191,1,8,0:0:0:0:
80,144,41263,1,0,0:0:0:0:
336,344,41335,5,0,0:0:0:0:
392,384,41408,1,0,0:0:0:0:
184,384,41480,1,8,0:0:0:0:
136,344,41552,1,0,0:0:0:0:
112,272,41624,1,0,0:0:0:0:
152,216,41696,1,0,0:0:0:0:
448,312,41768,1,8,0:0:0:0:
376,264,41840,1,0,0:0:0:0:
176,264,41912,5,0,0:0:0:0:
120,304,41985,1,0,0:0:0:0:
328,304,42057,1,8,0:0:0:0:
376,264,42129,1,0,0:0:0:0:
400,192,42201,1,0,0:0:0:0:
360,136,42273,1,0,0:0:0:0:
64,232,42345,1,8,0:0:0:0:
136,184,42417,1,0,0:0:0:0:
392,304,42489,5,0,0:0:0:0:
448,344,42562,1,0,0:0:0:0:
240,344,42634,1,8,0:0:0:0:
192,304,42706,1,0,0:0:0:0:
168,232,42778,1,0,0:0:0:0:
208,176,42850,1,0,0:0:0:0:
504,272,42922,1,8,0:0:0:0:
432,224,42994,1,0,0:0:0:0:
232,224,43066,5,0,0:0:0:0:
176,264,43139,1,0,0:0:0:0:
384,264,43211,1,8,0:0:0:0:
432,224,43283,1,0,0:0:0:0:
456,152,43355,1,0,0:0:0:0:
416,96,43427,1,0,0:0:0:0:
120,192,43499,1,8,0:0:0:0:
192,144,43571,1,0,0:0:0:0:
384,32,43643,5,2,0:0:0:0:
448,64,43715,1,0,0:0:0:0:
272,64,43787,1,0,0:0:0:0:
216,96,43859,1,0,0:0:0:0:
40,128,43931,1,2,0:0:0:0:
96,144,44004,1,0,0:0:0:0:
152,144,44076,1,0,0:0:0:0:
208,152,44148,1,0,0:0:0:0:
48,216,44220,5,10,0:0:0:0:
312,264,44364,1,10,0:0:0:0:
80,304,44508,1,10,0:0:0:0:
336,336,44653,1,10,0:0:0:0:
224,136,44797,5,0,0:0:0:0:
168,96,44870,1,0,0:0:0:0:
376,96,44942,1,8,0:0:0:0:
424,136,45014,1,0,0:0:0:0:
448,208,45086,1,0,0:0:0:0:
408,264,45158,1,0,0:0:0:0:
112,168,45230,1,8,0:0:0:0:
184,216,45302,1,0,0:0:0:0:
384,216,45374,5,0,0:0:0:0:
440,176,45447,1,0,0:0:0:0:
232,176,45519,1,8,0:0:0:0:
184,216,45591,1,0,0:0:0:0:
160,288,45663,1,0,0:0:0:0:
200,344,45735,1,0,0:0:0:0:
496,248,45807,1,8,0:0:0:0:
424,296,45879,1,0,0:0:0:0:
168,96,45951,5,0,0:0:0:0:
112,56,46024,1,0,0:0:0:0:
320,56,46096,1,8,0:0:0:0:
368,96,46168,1,0,0:0:0:0:
392,168,46240,1,0,0:0:0:0:
352,224,46312,1,0,0:0:0:0:
56,128,46384,1,8,0:0:0:0:
128,176,46456,1,0,0:0:0:0:
328,176,46528,5,0,0:0:0:0:
384,136,46601,1,0,0:0:0:0:
176,136,46673,1,8,0:0:0:0:
128,176,46745,1,0,0:0:0:0:
104,248,46817,1,0,0:0:0:0:
144,304,46889,1,0,0:0:0:0:
440,208,46961,1,8,0:0:0:0:
368,256,47033,1,0,0:0:0:0:
112,136,47105,5,0,0:0:0:0:
56,96,47178,1,0,0:0:0:0:
264,96,47250,1,8,0:0:0:0:
312,136,47322,1,0,0:0:0:0:
336,208,47394,1,0,0:0:0:0:
296,264,47466,1,0,0:0:0:0:
0,168,47538,1,8,0:0:0:0:
72,216,47610,1,0,0:0:0:0:
272,216,47682,5,0,0:0:0:0:
328,176,47755,1,0,0:0:0:0:
120,176,47827,1,8,0:0:0:0:
72,216,47899,1,0,0:0:0:0:
48,288,47971,1,0,0:0:0:0:
88,344,48043,1,0,0:0:0:0:
384,248,48115,1,8,0:0:0:0:
312,296,48187,1,0,0:0:0:0:
248,352,48258,5,0,0:0:0:0:
496,352,48403,1,8,0:0:0:0:
472,272,48475,1,0,0:0:0:0:
432,208,48547,1,0,0:0:0:0:
384,160,48619,1,0,0:0:0:0:
320,128,48691,1,0,0:0:0:0:
248,120,48763,1,0,0:0:0:0:
432,88,48835,5,12,0:0:0:0:
168,64,48979,1,2,0:0:0:0:
104,120,49052,1,0,0:0:0:0:
320,192,49124,1,2,0:0:0:0:
384,248,49196,1,0,0:0:0:0:
152,224,49268,1,2,0:0:0:0:
96,272,49340,1,0,0:0:0:0:
328,56,49412,5,2,0:0:0:0:
488,56,49556,1,0,0:0:0:0:
304,104,49701,1,0,0:0:0:0:
464,104,49845,1,0,0:0:0:0:
192,160,49989,1,2,0:0:0:0:
40,160,50133,1,0,0:0:0:0:
216,208,50278,1,0,0:0:0:0:
64,208,50422,1,0,0:0:0:0:
488,160,50566,5,2,0:0:0:0:
472,232,50638,1,0,0:0:0:0:
440,296,50710,1,2,0:0:0:0:
392,328,50782,1,0,0:0:0:0:
208,336,50854,1,8,0:0:0:0:
512,336,50999,1,8,0:0:0:0:
496,272,51143,1,2,0:0:0:0:
448,224,51287,1,0,0:0:0:0:
384,192,51431,1,0,0:0:0:0:
304,176,51576,1,0,0:0:0:0:
0,184,51720,5,2,0:0:0:0:
8,120,51792,1,0,0:0:0:0:
40,64,51864,1,2,0:0:0:0:
88,24,51936,1,0,0:0:0:0:
152,16,52008,1,0,0:0:0:0:
336,24,52153,1,0,0:0:0:0:
376,96,52297,1,2,0:0:0:0:
184,96,52441,1,0,0:0:0:0:
392,168,52585,1,0,0:0:0:0:
224,168,52729,1,0,0:0:0:0:
48,216,52874,5,2,0:0:0:0:
504,264,52946,1,0,0:0:0:0:
472,320,53018,1,2,0:0:0:0:
424,360,53090,1,0,0:0:0:0:
360,368,53162,1,0,0:0:0:0:
176,360,53307,1,0,0:0:0:0:
136,288,53451,1,2,0:0:0:0:
328,288,53595,1,0,0:0:0:0:
120,216,53739,1,0,0:0:0:0:
288,216,53883,1,0,0:0:0:0:
24,152,54028,5,2,0:0:0:0:
64,136,54100,1,0,0:0:0:0:
104,120,54172,1,2,0:0:0:0:
144,104,54244,1,0,0:0:0:0:
352,88,54316,1,8,0:0:0:0:
104,48,54460,1,8,0:0:0:0:
248,48,54604,1,2,0:0:0:0:
296,48,54677,1,0,0:0:0:0:
344,48,54749,1,2,0:0:0:0:
56,48,54893,1,8,0:0:0:0:
208,48,55037,1,0,0:0:0:0:
488,232,55181,5,2,0:0:0:0:
448,248,55253,1,0,0:0:0:0:
408,264,55325,1,2,0:0:0:0:
368,280,55397,1,0,0:0:0:0:
160,296,55469,1,8,0:0:0:0:
408,336,55613,1,8,0:0:0:0:
264,336,55757,1,2,0:0:0:0:
216,336,55830,1,0,0:0:0:0:
168,336,55902,1,2,0:0:0:0:
456,336,56046,1,8,0:0:0:0:
304,336,56190,1,0,0:0:0:0:
0,160,56335,5,2,0:0:0:0:
32,136,56407,1,0,0:0:0:0:
64,112,56479,1,2,0:0:0:0:
96,80,56551,1,0,0:0:0:0:
128,56,56624,1,2,0:0:0:0:
376,56,56768,1,2,0:0:0:0:
40,160,56912,5,2,0:0:0:0:
72,136,56984,1,0,0:0:0:0:
104,112,57056,1,2,0:0:0:0:
136,80,57128,1,0,0:0:0:0:
168,56,57201,1,2,0:0:0:0:
416,56,57345,1,2,0:0:0:0:
80,160,57489,5,2,0:0:0:0:
112,136,57561,1,0,0:0:0:0:
144,112,57633,1,2,0:0:0:0:
176,80,57705,1,0,0:0:0:0:
208,56,57778,1,2,0:0:0:0:
456,56,57922,1,2,0:0:0:0:
120,160,58066,5,2,0:0:0:0:
152,136,58138,1,0,0:0:0:0:
184,112,58210,1,2,0:0:0:0:
216,80,58282,1,0,0:0:0:0:
248,56,58355,1,2,0:0:0:0:
496,56,58499,1,2,0:0:0:0:
40,56,58643,5,2,0:0:0:0:
24,88,58715,1,0,0:0:0:0:
232,128,58787,1,0,0:0:0:0:
280,168,58859,1,0,0:0:0:0:
48,152,58931,1,2,0:0:0:0:
24,184,59003,1,0,0:0:0:0:
240,224,59075,1,0,0:0:0:0:
288,264,59147,1,0,0:0:0:0:
40,56,59220,5,2,0:0:0:0:
8,72,59292,1,0,0:0:0:0:
232,128,59364,1,0,0:0:0:0:
264,184,59436,1,0,0:0:0:0:
40,56,59508,1,2,0:0:0:0:
32,112,59580,1,0,0:0:0:0:
232,128,59652,1,0,0:0:0:0:
280,168,59724,1,0,0:0:0:0:
488,104,59797,5,2,0:0:0:0:
504,136,59869,1,0,0:0:0:0:
296,176,59941,1,0,0:0:0:0:
248,216,60013,1,0,0:0:0:0:
488,104,60085,1,2,0:0:0:0:
504,136,60157,1,0,0:0:0:0:
296,176,60229,1,0,0:0:0:0:
248,216,60301,1,0,0:0:0:0:
480,200,60374,5,2,0:0:0:0:
512,232,60446,1,0,0:0:0:0:
304,272,60518,1,0,0:0:0:0:
272,320,60590,1,0,0:0:0:0:
0,288,60662,1,2,0:0:0:0:
32,264,60698,1,0,0:0:0:0:
64,240,60734,1,2,0:0:0:0:
96,216,60770,1,0,0:0:0:0:
128,184,60806,1,2,0:0:0:0:
512,184,60951,5,14,0:0:0:0:
16,160,61239,5,0,0:0:0:0:
496,72,61528,1,0,0:0:0:0:
0,64,61816,1,0,0:0:0:0:
400,64,62104,5,0,0:0:0:0:
440,88,62177,1,0,0:0:0:0:
480,112,62249,1,0,0:0:0:0:
408,136,62321,1,0,0:0:0:0:
152,144,62393,1,2,0:0:0:0:
104,184,62466,1,0,0:0:0:0:
56,224,62538,1,0,0:0:0:0:
128,232,62609,1,0,0:0:0:0:
344,208,62681,5,2,0:0:0:0:
384,232,62754,1,0,0:0:0:0:
424,256,62826,1,0,0:0:0:0:
352,280,62898,1,0,0:0:0:0:
96,288,62970,1,2,0:0:0:0:
48,328,63043,1,0,0:0:0:0:
0,368,63115,1,0,0:0:0:0:
72,376,63186,1,0,0:0:0:0:
512,288,63258,5,2,0:0:0:0:
480,264,63294,1,0,0:0:0:0:
448,240,63330,1,2,0:0:0:0:
416,216,63366,1,0,0:0:0:0:
384,184,63402,1,2,0:0:0:0:
8,240,63547,5,4,0:0:0:0:
320,224,63835,1,2,0:0:0:0:
216,144,63979,1,0,0:0:0:0:
488,152,64268,1,0,0:0:0:0:
384,72,64412,1,0,0:0:0:0:
72,72,64556,1,2,0:0:0:0:
32,104,64592,1,0,0:0:0:0:
16,168,64629,1,0,0:0:0:0:
440,192,64845,5,2,0:0:0:0:
336,192,64989,1,0,0:0:0:0:
96,192,65133,1,2,0:0:0:0:
144,192,65205,1,0,0:0:0:0:
192,192,65278,1,0,0:0:0:0:
344,80,65422,1,0,0:0:0:0:
64,72,65566,5,8,0:0:0:0:
0,136,65710,1,0,0:0:0:0:
264,80,65854,1,8,0:0:0:0:
200,144,65999,1,0,0:0:0:0:
512,200,66142,5,0,0:0:0:0:
392,240,66286,1,0,0:0:0:0:
80,256,66430,1,2,0:0:0:0:
192,256,66574,1,0,0:0:0:0:
304,256,66719,1,0,0:0:0:0:
416,248,66863,1,0,0:0:0:0:
296,176,67007,1,2,0:0:0:0:
416,128,67151,1,0,0:0:0:0:
48,176,67295,5,0,0:0:0:0:
176,216,67439,1,0,0:0:0:0:
480,232,67583,1,2,0:0:0:0:
360,232,67727,1,0,0:0:0:0:
240,224,67872,1,0,0:0:0:0:
120,216,68016,1,0,0:0:0:0:
264,152,68160,1,2,0:0:0:0:
152,104,68304,1,0,0:0:0:0:
480,176,68449,5,0,0:0:0:0:
344,208,68593,1,0,0:0:0:0:
48,232,68737,1,2,0:0:0:0:
176,232,68881,1,0,0:0:0:0:
304,224,69026,1,0,0:0:0:0:
432,216,69170,1,0,0:0:0:0:
280,152,69314,1,2,0:0:0:0:
424,104,69458,1,0,0:0:0:0:
128,40,69603,5,0,0:0:0:0:
88,96,69675,1,0,0:0:0:0:
320,88,69748,1,0,0:0:0:0:
360,136,69820,1,0,0:0:0:0:
200,136,69892,1,0,0:0:0:0:
160,200,69964,1,0,0:0:0:0:
384,256,70036,1,0,0:0:0:0:
424,304,70108,1,0,0:0:0:0:
0,312,70180,5,6,0:0:0:0:
8,248,70252,1,0,0:0:0:0:
24,224,70324,1,0,0:0:0:0:
48,176,70396,1,0,0:0:0:0:
288,168,70469,1,0,0:0:0:0:
336,232,70541,1,0,0:0:0:0:
128,240,70613,1,0,0:0:0:0:
440,200,70757,5,4,0:0:0:0:
392,160,70829,1,0,0:0:0:0:
344,120,70901,1,0,0:0:0:0:
72,112,71045,1,2,0:0:0:0:
144,80,71189,1,0,0:0:0:0:
424,200,71334,5,4,0:0:0:0:
376,160,71406,1,0,0:0:0:0:
328,120,71478,1,0,0:0:0:0:
32,120,71622,1,2,0:0:0:0:
104,88,71766,1,0,0:0:0:0:
440,200,71911,5,4,0:0:0:0:
392,160,71983,1,0,0:0:0:0:
344,120,72055,1,0,0:0:0:0:
48,120,72199,1,2,0:0:0:0:
120,88,72343,1,0,0:0:0:0:
440,200,72488,5,4,0:0:0:0:
392,160,72560,1,0,0:0:0:0:
344,120,72632,1,0,0:0:0:0:
48,120,72776,1,2,0:0:0:0:
120,88,72920,1,0,0:0:0:0:
440,200,73065,5,4,0:0:0:0:
392,160,73137,1,0,0:0:0:0:
344,120,73209,1,0,0:0:0:0:
48,120,73353,1,2,0:0:0:0:
344,72,73497,1,2,0:0:0:0:
72,200,73642,5,4,0:0:0:0:
120,160,73714,1,0,0:0:0:0:
168,120,73786,1,0,0:0:0:0:
464,120,73930,1,2,0:0:0:0:
176,64,74074,1,2,0:0:0:0:
432,56,74218,5,0,0:0:0:0:
472,112,74290,1,0,0:0:0:0:
240,104,74363,1,0,0:0:0:0:
200,152,74435,1,0,0:0:0:0:
360,152,74507,1,0,0:0:0:0:
400,216,74579,1,0,0:0:0:0:
176,272,74651,1,0,0:0:0:0:
136,320,74723,1,0,0:0:0:0:
0,320,74795,5,4,0:0:0:0:
296,320,74939,1,0,0:0:0:0:
24,320,75083,1,4,0:0:0:0:
320,312,75227,1,0,0:0:0:0:
80,328,75372,5,0,0:0:0:0:
40,272,75444,1,0,0:0:0:0:
272,280,75517,1,0,0:0:0:0:
312,232,75589,1,0,0:0:0:0:
280,224,75661,1,0,0:0:0:0:
112,168,75733,1,0,0:0:0:0:
336,112,75805,1,0,0:0:0:0:
376,64,75877,1,0,0:0:0:0:
512,64,75949,5,4,0:0:0:0:
216,64,76093,1,0,0:0:0:0:
488,64,76237,1,4,0:0:0:0:
192,72,76381,1,0,0:0:0:0:
472,328,76526,5,2,0:0:0:0:
488,296,76598,1,0,0:0:0:0:
280,256,76670,1,0,0:0:0:0:
232,216,76742,1,0,0:0:0:0:
464,232,76814,1,2,0:0:0:0:
488,200,76886,1,0,0:0:0:0:
272,160,76958,1,0,0:0:0:0:
224,120,77030,1,0,0:0:0:0:
472,328,77103,5,2,0:0:0:0:
504,312,77175,1,0,0:0:0:0:
224,288,77247,1,0,0:0:0:0:
248,200,77319,1,0,0:0:0:0:
472,328,77391,1,2,0:0:0:0:
480,272,77463,1,0,0:0:0:0:
216,256,77535,1,0,0:0:0:0:
232,216,77607,1,0,0:0:0:0:
24,280,77680,5,2,0:0:0:0:
8,248,77752,1,0,0:0:0:0:
216,208,77824,1,0,0:0:0:0:
264,168,77896,1,0,0:0:0:0:
24,280,77968,1,2,0:0:0:0:
8,248,78040,1,0,0:0:0:0:
216,208,78112,1,0,0:0:0:0:
264,168,78184,1,0,0:0:0:0:
512,104,78257,5,2,0:0:0:0:
475,104,78293,1,0,0:0:0:0:
441,104,78329,1,2,0:0:0:0:
405,104,78365,1,0,0:0:0:0:
371,104,78401,1,2,0:0:0:0:
334,104,78437,1,0,0:0:0:0:
300,104,78473,1,2,0:0:0:0:
266,104,78509,1,0,0:0:0:0:
231,104,78545,1,2,0:0:0:0:
195,104,78581,1,0,0:0:0:0:
160,104,78617,1,2,0:0:0:0:
126,104,78653,1,0,0:0:0:0:
90,104,78689,1,2,0:0:0:0:
55,104,78725,1,0,0:0:0:0:
20,104,78761,1,2,0:0:0:0:
256,328,78834,5,8,0:0:0:0:
328,312,78906,1,0,0:0:0:0:
392,272,78978,1,0,0:0:0:0:
456,224,79050,1,0,0:0:0:0:
496,320,79122,1,0,0:0:0:0:
424,296,79194,1,0,0:0:0:0:
368,240,79266,1,0,0:0:0:0:
336,176,79338,1,0,0:0:0:0:
320,104,79410,1,0,0:0:0:0:
312,32,79483,1,0,0:0:0:0:
48,32,79555,5,2,0:0:0:0:
0,64,79627,1,0,0:0:0:0:
208,152,79699,1,2,0:0:0:0:
216,200,79771,1,0,0:0:0:0:
40,216,79843,1,0,0:0:0:0:
0,224,79915,1,0,0:0:0:0:
256,224,79988,5,8,0:0:0:0:
272,160,80060,1,0,0:0:0:0:
296,112,80132,1,0,0:0:0:0:
344,72,80204,1,0,0:0:0:0:
400,48,80276,1,0,0:0:0:0:
464,40,80348,1,0,0:0:0:0:
264,272,80420,1,2,0:0:0:0:
216,272,80492,1,0,0:0:0:0:
168,272,80564,1,0,0:0:0:0:
352,272,80637,5,4,0:0:0:0:
416,240,80709,1,0,0:0:0:0:
464,192,80781,1,0,0:0:0:0:
488,136,80853,1,0,0:0:0:0:
392,136,80925,1,0,0:0:0:0:
456,104,80997,1,0,0:0:0:0:
504,56,81069,1,0,0:0:0:0:
320,56,81141,5,0,0:0:0:0:
160,56,81286,1,0,0:0:0:0:
472,320,81430,1,8,0:0:0:0:
408,312,81502,1,0,0:0:0:0:
344,304,81574,1,0,0:0:0:0:
176,288,81718,1,0,0:0:0:0:
240,256,81791,1,0,0:0:0:0:
304,224,81863,1,0,0:0:0:0:
8,224,82007,5,8,0:0:0:0:
40,152,82079,1,0,0:0:0:0:
72,80,82151,1,0,0:0:0:0:
248,80,82295,1,0,0:0:0:0:
312,96,82368,1,0,0:0:0:0:
376,112,82440,1,0,0:0:0:0:
56,304,82584,1,8,0:0:0:0:
184,304,82728,1,0,0:0:0:0:
472,304,82872,5,8,0:0:0:0:
416,256,82945,1,0,0:0:0:0:
360,216,83017,1,0,0:0:0:0:
40,208,83161,1,8,0:0:0:0:
96,176,83233,1,0,0:0:0:0:
152,128,83305,1,0,0:0:0:0:
312,136,83449,5,0,0:0:0:0:
136,64,83593,1,0,0:0:0:0:
432,64,83738,1,8,0:0:0:0:
472,112,83810,1,0,0:0:0:0:
512,160,83882,1,0,0:0:0:0:
344,160,84026,1,0,0:0:0:0:
392,216,84099,1,0,0:0:0:0:
440,264,84171,1,0,0:0:0:0:
104,272,84315,5,8,0:0:0:0:
72,232,84387,1,0,0:0:0:0:
40,160,84459,1,0,0:0:0:0:
216,152,84603,1,0,0:0:0:0:
248,208,84676,1,0,0:0:0:0:
280,264,84748,1,0,0:0:0:0:
0,256,84892,1,8,0:0:0:0:
112,48,85036,1,0,0:0:0:0:
400,48,85180,5,8,0:0:0:0:
440,104,85253,1,0,0:0:0:0:
480,152,85325,1,0,0:0:0:0:
192,152,85469,1,8,0:0:0:0:
144,200,85541,1,0,0:0:0:0:
96,248,85613,1,0,0:0:0:0:
464,104,85757,5,4,0:0:0:0:
416,64,85829,1,0,0:0:0:0:
368,104,85901,1,0,0:0:0:0:
320,64,85973,1,0,0:0:0:0:
272,104,86045,1,2,0:0:0:0:
224,64,86117,1,0,0:0:0:0:
272,152,86190,1,0,0:0:0:0:
320,152,86262,1,0,0:0:0:0:
128,104,86334,5,4,0:0:0:0:
176,64,86406,1,0,0:0:0:0:
224,104,86478,1,0,0:0:0:0:
272,64,86550,1,0,0:0:0:0:
320,104,86622,1,2,0:0:0:0:
368,64,86694,1,0,0:0:0:0:
320,152,86767,1,0,0:0:0:0:
272,152,86839,1,0,0:0:0:0:
48,144,86911,5,4,0:0:0:0:
56,200,86983,1,0,0:0:0:0:
80,248,87055,1,0,0:0:0:0:
120,280,87127,1,0,0:0:0:0:
184,280,87199,1,2,0:0:0:0:
224,248,87271,1,0,0:0:0:0:
248,200,87343,1,0,0:0:0:0:
256,144,87415,1,0,0:0:0:0:
464,200,87488,5,4,0:0:0:0:
408,152,87560,1,0,0:0:0:0:
352,104,87632,1,0,0:0:0:0:
296,56,87704,1,0,0:0:0:0:
96,48,87776,1,8,0:0:0:0:
56,64,87848,1,0,0:0:0:0:
16,80,87920,1,0,0:0:0:0:
80,104,87992,1,0,0:0:0:0:
264,344,88065,5,8,0:0:0:0:
280,296,88113,1,0,0:0:0:0:
312,264,88161,1,0,0:0:0:0:
352,248,88209,1,0,0:0:0:0:
408,240,88257,1,0,0:0:0:0:
472,232,88305,1,0,0:0:0:0:
472,152,88353,5,0,0:0:0:0:
408,144,88401,1,0,0:0:0:0:
352,136,88449,1,0,0:0:0:0:
312,120,88497,1,0,0:0:0:0:
280,88,88545,1,0,0:0:0:0:
264,40,88593,1,0,0:0:0:0:
120,88,88641,5,0,0:0:0:0:
64,120,88689,1,0,0:0:0:0:
32,176,88737,1,0,0:0:0:0:
24,232,88785,1,0,0:0:0:0:
48,280,88834,1,0,0:0:0:0:
96,312,88881,1,0,0:0:0:0:
144,320,88929,5,0,0:0:0:0:
208,304,88977,1,0,0:0:0:0:
264,264,89025,1,0,0:0:0:0:
288,200,89073,1,0,0:0:0:0:
304,136,89121,1,0,0:0:0:0:
280,72,89169,1,0,0:0:0:0:
232,96,89218,5,0,0:0:0:0:
184,128,89266,1,0,0:0:0:0:
136,160,89315,1,0,0:0:0:0:
88,192,89363,1,0,0:0:0:0:
240,280,89411,5,0,0:0:0:0:
296,248,89459,1,0,0:0:0:0:
328,192,89507,1,0,0:0:0:0:
336,136,89555,1,0,0:0:0:0:
312,88,89603,1,0,0:0:0:0:
264,56,89651,1,0,0:0:0:0:
216,48,89699,1,0,0:0:0:0:
152,64,89746,1,0,0:0:0:0:
312,56,89796,5,0,0:0:0:0:
368,88,89844,1,0,0:0:0:0:
400,144,89892,1,0,0:0:0:0:
408,200,89940,1,0,0:0:0:0:
384,248,89988,1,0,0:0:0:0:
336,280,90037,1,0,0:0:0:0:
288,288,90084,1,0,0:0:0:0:
224,272,90132,1,0,0:0:0:0:
72,224,90179,5,0,0:0:0:0:
32,200,90227,1,0,0:0:0:0:
88,176,90275,1,0,0:0:0:0:
144,160,90323,1,0,0:0:0:0:
320,352,90372,5,0,0:0:0:0:
368,336,90420,1,0,0:0:0:0:
408,296,90468,1,0,0:0:0:0:
440,248,90516,1,0,0:0:0:0:
464,192,90565,1,0,0:0:0:0:
472,136,90613,1,0,0:0:0:0:
296,136,90661,5,0,0:0:0:0:
240,152,90709,1,0,0:0:0:0:
192,192,90757,1,0,0:0:0:0:
152,240,90805,1,0,0:0:0:0:
136,304,90854,1,0,0:0:0:0:
128,360,90902,1,0,0:0:0:0:
272,32,90949,5,8,0:0:0:0:
320,72,90997,1,0,0:0:0:0:
368,104,91045,1,2,0:0:0:0:
312,120,91093,1,0,0:0:0:0:
256,128,91141,1,2,0:0:0:0:
200,160,91189,1,0,0:0:0:0:
144,88,91237,5,8,0:0:0:0:
400,240,91334,1,8,0:0:0:0:
88,328,91429,1,8,0:0:0:0:
440,328,91526,5,2,0:0:0:0:
256,136,92391,5,0,0:0:0:0:
