osu file format v12

[General]
AudioFilename: Blumenkranz.mp3
AudioLeadIn: 0
PreviewTime: 120363
Countdown: 0
SampleSet: Normal
StackLeniency: 0.7
Mode: 0
LetterboxInBreaks: 0
WidescreenStoryboard: 1

[Editor]
Bookmarks: 240363
DistanceSpacing: 1
BeatDivisor: 4
GridSize: 8
TimelineZoom: 1

[Metadata]
Title:Blumenkranz
TitleUnicode:Blumenkranz
Artist:Cyua
ArtistUnicode:Cyua
Creator:Shinxyn
Version:Normal
Source:Kill la Kill
Tags:Hiroyuki Sawano
BeatmapID:380476
BeatmapSetID:155034

[Difficulty]
HPDrainRate:4
CircleSize:4
OverallDifficulty:4
ApproachRate:5
SliderMultiplier:1.4
SliderTickRate:1

[Events]
//Background and Video events
0,0,"kiryuuin.jpg",0,0
//Break Periods
2,96612,101025
//Storyboard Layer 0 (Background)
//Storyboard Layer 1 (Fail)
//Storyboard Layer 2 (Pass)
//Storyboard Layer 3 (Foreground)
//Storyboard Sound Samples
//Background Colour Transformations
3,100,163,162,255

[TimingPoints]
413,375,4,1,0,70,1,0
24413,-200,4,2,0,70,0,0
36413,-100,4,1,0,70,0,0
48413,-200,4,2,0,50,0,0
72413,-100,4,1,1,70,0,1
96413,-133.333333333333,4,1,0,40,0,0
108413,-100,4,1,0,50,0,0
120413,-100,4,1,1,70,0,1
144413,-133.333333333333,4,2,0,50,0,0
168413,-200,4,2,0,60,0,0
180225,-200,4,2,0,80,0,0
192413,-100,4,1,1,70,0,0
216413,-100,4,1,1,70,0,1
240413,-100,4,1,0,30,0,0

[Colours]
Combo1 : 255,0,255
Combo2 : 255,0,0
Combo3 : 255,128,0
Combo4 : 255,255,0
Combo5 : 0,255,0
Combo6 : 0,128,255
Combo7 : 128,128,255

[HitObjects]
320,64,12413,5,0,0:0:0:0:
368,192,12788,1,0,0:0:0:0:
256,280,13163,1,8,0:0:0:0:
192,64,13913,5,0,0:0:0:0:
144,192,14288,1,0,0:0:0:0:
256,280,14663,1,8,0:0:0:0:
448,288,15413,5,0,0:0:0:0:
328,368,15788,1,0,0:0:0:0:
184,368,16163,1,8,0:0:0:0:
16,248,16725,6,0,P|-16:168|24:96,1,140,8|0,0:0|0:0,0:0:0:0:
72,136,17288,2,0,P|152:80|224:96,1,140,0|8,0:0|0:0,0:0:0:0:
416,240,18413,5,0,0:0:0:0:
304,152,18788,1,0,0:0:0:0:
440,128,19163,1,8,0:0:0:0:
376,328,19725,6,8,B|320:336|280:376|232:368,1,140,8|8,0:0|0:0,0:0:0:0:
184,328,20288,2,0,B|136:328|88:368|32:352,1,140,0|8,0:0|0:0,0:0:0:0:
56,64,21413,6,0,P|128:64|176:112,1,140
192,176,21975,1,8,0:0:0:0:
216,240,22163,2,0,P|264:304|344:304,1,140,8|0,0:0|0:0,0:0:0:0:
392,296,22725,2,0,P|440:240|440:168,1,140,8|0,0:0|0:0,0:0:0:0:
424,112,23288,1,0,0:0:0:0:
288,72,23663,1,8,0:0:0:0:
320,208,24038,2,0,L|352:296,1,70,0|0,0:0|2:0,0:0:0:0:
96,256,25538,5,0,2:0:0:0:
104,184,25913,1,0,2:0:0:0:
128,120,26288,2,0,P|160:64|248:24,2,140,0|0|0,0:0|0:0|0:0,0:0:0:0:
176,176,28163,1,0,2:0:0:0:
144,240,28538,2,0,P|224:320|336:368,1,210
384,328,30038,6,0,P|360:304|320:288,3,70
256,280,31538,1,0,2:0:0:0:
184,296,31913,1,0,2:0:0:0:
120,328,32288,1,0,2:0:0:0:
64,368,32663,1,0,0:0:0:0:
72,152,35288,5,0,0:0:0:0:
128,112,35663,1,0,2:0:0:0:
192,88,36038,1,0,2:0:0:0:
264,80,36413,2,0,P|368:96|424:264,2,280,0|8|0,0:0|0:0|0:0,0:0:0:0:
296,216,38288,2,0,P|296:288|352:344,2,140,0|8|0,0:0|0:0|0:0,0:0:0:0:
176,152,39413,5,0,0:0:0:0:
176,152,39788,1,0,0:0:0:0:
176,152,40163,1,8,0:0:0:0:
40,192,40538,6,0,P|80:272|128:304,1,140
248,352,41288,2,0,P|312:368|400:352,1,140,0|8,0:0|0:0,0:0:0:0:
496,272,42038,1,0,1:0:0:0:
360,232,42413,6,0,L|480:112,1,140
368,32,43163,1,8,0:0:0:0:
272,128,43538,2,0,L|72:328,1,280
40,192,44663,1,8,0:0:0:0:
40,192,45038,1,0,0:0:0:0:
136,88,45413,5,0,0:0:0:0:
264,40,45788,1,0,0:0:0:0:
264,40,45975,1,8,0:0:0:0:
264,40,46163,2,0,P|328:72|368:152,2,140,8|0|0,0:0|0:0|0:0,0:0:0:0:
224,176,47288,5,4,1:0:0:0:
184,232,47663,1,8,1:0:0:0:
224,288,48038,1,0,1:0:0:0:
264,232,48413,5,0,1:0:0:0:
304,288,48788,1,0,0:0:0:0:
344,344,49163,2,0,L|432:344,1,70,0|0,1:0|0:0,0:0:0:0:
448,288,49913,5,0,1:0:0:0:
408,232,50288,1,0,0:0:0:0:
368,176,50663,2,0,L|288:176,1,70,0|0,1:0|0:0,0:0:0:0:
224,176,51413,5,0,1:0:0:0:
192,240,51788,1,0,0:0:0:0:
160,304,52163,2,0,L|72:304,1,70,0|0,1:0|0:0,0:0:0:0:
56,240,52913,5,0,1:0:0:0:
88,176,53288,1,0,0:0:0:0:
120,112,53663,1,0,0:0:0:0:
256,112,54413,5,0,1:0:0:0:
336,112,54788,1,0,0:0:0:0:
256,112,55163,1,0,1:0:0:0:
336,112,55538,1,0,0:0:0:0:
296,184,55913,5,0,1:0:0:0:
296,264,56288,1,0,0:0:0:0:
296,184,56663,1,0,1:0:0:0:
296,264,57038,1,0,0:0:0:0:
232,224,57413,5,0,1:0:0:0:
152,224,57788,1,0,0:0:0:0:
232,224,58163,1,0,1:0:0:0:
152,224,58538,1,0,0:0:0:0:
192,160,58913,5,0,1:0:0:0:
232,104,59288,1,0,0:0:0:0:
296,88,59663,1,0,1:0:0:0:
360,112,60038,1,0,0:0:0:0:
400,168,60413,6,0,P|408:208|384:256,1,70,0|0,1:0|0:0,0:0:0:0:
352,288,61163,2,0,P|312:304|272:296,1,70,8|0,1:0|0:0,0:0:0:0:
216,288,61913,6,0,P|184:272|168:240,1,70,0|0,1:0|0:0,0:0:0:0:
232,224,62663,1,8,1:0:0:0:
184,176,63038,1,0,0:0:0:0:
120,200,63413,6,0,P|88:168|88:120,1,70,0|0,1:0|0:0,0:0:0:0:
144,120,64163,2,0,P|160:88|216:80,1,70,8|0,1:0|0:0,0:0:0:0:
264,72,64913,1,0,1:0:0:0:
336,96,65288,1,0,0:0:0:0:
392,144,65663,1,8,1:0:0:0:
400,280,66413,6,0,P|336:320|320:320,3,70,0|0|0|0,1:0|0:0|1:0|0:0,0:0:0:0:
336,248,67913,2,0,P|400:208|416:208,3,70,0|0|0|0,1:0|0:0|1:0|0:0,0:0:0:0:
400,280,69413,5,0,1:0:0:0:
456,240,69788,1,0,0:0:0:0:
448,168,70163,1,0,0:0:0:0:
384,144,70538,1,0,0:0:0:0:
384,144,70725,1,0,0:0:0:0:
376,248,72413,5,4,0:0:0:0:
256,320,72788,1,0,0:0:0:0:
136,248,73163,2,0,P|107:185|131:121,1,140,8|0,0:0|0:0,0:0:0:0:
248,48,73913,2,0,P|272:112|216:200,1,140
184,304,74663,1,8,0:0:0:0:
48,296,75038,2,0,P|16:232|48:144,1,140
112,56,75788,5,0,0:0:0:0:
248,40,76163,2,0,P|320:56|408:24,1,140,8|0,0:0|0:0,0:0:0:0:
384,176,76913,2,0,P|312:160|224:192,1,140
120,232,77663,2,0,P|160:296|240:312,1,140,8|0,0:0|0:0,0:0:0:0:
360,288,78413,5,0,0:0:0:0:
360,288,78600,2,0,B|395:273|323:109|364:86,1,210,0|8,0:0|0:0,0:0:0:0:
296,88,79350,2,0,B|254:110|326:274|291:289,1,210
220,288,80100,2,0,B|254:272|182:108|224:86,1,210,0|8,0:0|0:0,0:0:0:0:
88,72,81038,5,0,0:0:0:0:
56,136,81225,2,0,P|48:232|256:352,1,350,0|8,0:0|0:0,0:0:0:0:
368,312,82538,1,0,0:0:0:0:
440,192,82913,1,0,0:0:0:0:
368,312,83288,1,0,0:0:0:0:
440,192,83663,1,0,0:0:0:0:
424,56,84038,1,0,0:0:0:0:
312,136,84413,5,4,0:0:0:0:
232,256,84788,1,0,0:0:0:0:
112,184,85163,2,0,P|96:64|248:40,2,280,8|0|8,0:0|0:0|0:0,0:0:0:0:
252,176,87038,1,0,0:0:0:0:
368,256,87413,1,0,0:0:0:0:
488,184,87788,5,0,0:0:0:0:
372,108,88163,2,0,P|320:56|228:24,1,140,8|0,0:0|0:0,0:0:0:0:
136,96,88913,2,0,P|76:144|40:212,1,140
168,264,89663,2,0,P|220:316|312:348,1,140,8|0,0:0|0:0,0:0:0:0:
396,264,90413,5,0,0:0:0:0:
396,264,90788,1,0,0:0:0:0:
408,128,91163,1,8,0:0:0:0:
408,128,91538,1,0,0:0:0:0:
272,104,91913,1,0,0:0:0:0:
256,240,92288,1,0,0:0:0:0:
144,160,92663,1,8,0:0:0:0:
72,320,93413,5,0,0:0:0:0:
144,320,93600,2,0,P|264:312|384:280,1,210,0|8,0:0|0:0,0:0:0:0:
328,224,94350,2,0,P|224:248|104:248,1,210
136,184,95100,2,0,P|248:176|360:136,1,210,0|8,0:0|0:0,0:0:0:0:
456,72,96038,1,0,0:0:0:0:
456,72,96412,1,4,0:0:0:0:
432,328,102225,5,0,0:0:0:0:
432,328,102413,1,8,0:0:0:0:
336,288,102788,1,0,0:0:0:0:
240,328,103163,1,8,0:0:0:0:
240,168,103725,5,0,0:0:0:0:
240,168,103913,1,8,0:0:0:0:
336,120,104288,1,0,0:0:0:0:
336,120,104663,1,8,0:0:0:0:
240,248,105225,5,0,0:0:0:0:
184,248,105413,2,0,P|128:224|104:168,1,105.000004005432,8|0,0:0|0:0,0:0:0:0:
96,80,106163,1,8,0:0:0:0:
240,136,106725,5,0,0:0:0:0:
272,96,106913,2,0,P|352:56|392:64,1,105.000004005432,8|8,0:0|0:0,0:0:0:0:
416,64,107475,1,8,0:0:0:0:
464,88,107663,1,8,0:0:0:0:
448,248,108225,5,0,0:0:0:0:
432,320,108413,2,0,P|362:324|296:304,1,140,8|8,0:0|0:0,0:0:0:0:
328,168,109163,2,0,P|256:160|168:184,1,140,8|0,0:0|0:0,0:0:0:0:
168,240,109725,2,0,B|96:200|96:104,1,140,8|8,0:0|0:0,0:0:0:0:
48,72,110288,2,0,P|110:42|180:35,1,140,8|8,0:0|0:0,0:0:0:0:
352,152,111413,6,0,P|408:96|488:88,1,140,8|0,0:0|0:0,0:0:0:0:
432,224,112163,2,0,P|376:280|296:288,1,140,8|0,0:0|0:0,0:0:0:0:
248,288,112725,1,8,0:0:0:0:
288,152,113100,2,0,P|304:208|296:248,1,70,8|0,0:0|0:0,0:0:0:0:
224,104,113663,2,0,P|144:71|80:128,1,140,8|0,0:0|0:0,0:0:0:0:
48,136,114225,1,0,0:0:0:0:
48,208,114413,6,0,P|64:280|160:296,1,140,8|0,0:0|0:0,0:0:0:0:
120,232,114975,1,0,0:0:0:0:
184,264,115163,1,8,0:0:0:0:
312,320,115538,1,0,0:0:0:0:
376,352,115725,1,8,0:0:0:0:
376,216,116100,5,0,0:0:0:0:
312,192,116288,2,0,L|184:128,2,140,0|8|0,0:0|0:0|0:0,0:0:0:0:
376,216,117225,1,0,0:0:0:0:
368,144,117413,6,0,P|432:176|440:248,1,140,8|0,0:0|0:0,0:0:0:0:
384,280,117975,1,8,0:0:0:0:
320,256,118163,1,8,0:0:0:0:
184,216,118538,5,0,0:0:0:0:
120,192,118725,2,0,P|128:120|192:104,1,140,8|0,0:0|0:0,0:0:0:0:
224,160,119288,1,8,0:0:0:0:
184,216,119475,1,4,0:0:0:0:
488,40,120413,6,0,P|488:184|392:288,2,280,4|8|0,0:0|0:0|0:0,0:0:0:0:
376,128,122288,1,0,0:0:0:0:
304,248,122663,2,0,P|248:280|152:280,1,140,8|0,0:0|0:0,0:0:0:0:
208,152,123413,5,0,0:0:0:0:
96,232,123788,1,0,0:0:0:0:
208,152,124163,1,8,0:0:0:0:
72,112,124538,1,0,0:0:0:0:
208,152,124913,2,0,P|280:160|344:240,1,140
216,288,125663,2,0,P|264:336|336:352,1,140,8|0,0:0|0:0,0:0:0:0:
448,272,126413,6,0,P|456:184|432:120,1,140
336,48,127163,2,0,P|256:40|176:64,1,140,8|0,0:0|0:0,0:0:0:0:
304,152,127913,2,0,P|256:208|264:304,1,140
376,208,128663,2,0,P|368:272|304:336,1,140,8|0,0:0|0:0,0:0:0:0:
184,304,129413,5,0,0:0:0:0:
64,232,129788,1,0,0:0:0:0:
200,216,130163,1,8,0:0:0:0:
96,312,130538,1,0,0:0:0:0:
120,176,130913,2,0,P|144:104|112:32,1,140
256,96,131663,2,0,P|328:112|416:72,1,140,8|0,0:0|0:0,0:0:0:0:
448,56,132225,1,0,0:0:0:0:
448,128,132413,6,4,P|464:192|416:272,1,140,4|0,0:0|0:0,0:0:0:0:
320,344,133163,2,0,P|272:360|168:336,1,140,8|0,0:0|0:0,0:0:0:0:
80,256,133913,5,0,0:0:0:0:
208,208,134288,1,0,0:0:0:0:
184,344,134663,1,8,0:0:0:0:
80,256,135038,1,0,0:0:0:0:
104,120,135413,2,0,B|224:0|400:224|504:80,1,420
448,216,136913,5,0,0:0:0:0:
456,288,137100,1,0,0:0:0:0:
392,256,137288,1,0,0:0:0:0:
512,248,137663,5,8,0:0:0:0:
408,360,138038,2,0,P|304:288|328:144,1,280
448,216,139163,2,0,P|376:320|232:296,1,280,8|0,0:0|0:0,0:0:0:0:
304,168,140288,2,0,P|312:96|248:40,2,140,0|8|0,0:0|0:0|0:0,0:0:0:0:
264,224,141225,1,0,0:0:0:0:
200,192,141413,6,0,P|192:264|256:320,2,140,0|0|8,0:0|0:0|0:0,0:0:0:0:
120,312,142538,1,0,0:0:0:0:
104,248,142725,1,0,0:0:0:0:
112,184,142913,5,0,0:0:0:0:
160,136,143100,1,0,0:0:0:0:
224,112,143288,1,0,0:0:0:0:
288,128,143475,1,0,0:0:0:0:
344,168,143663,1,8,0:0:0:0:
256,280,144038,2,0,P|264:312|296:352,2,70,0|0|2,0:0|0:0|0:0,0:0:0:0:
8,88,145538,5,0,0:0:0:0:
24,192,145913,1,0,0:0:0:0:
104,120,146288,2,0,P|184:104|312:128,2,210.000008010865
160,192,148163,1,0,0:0:0:0:
100,276,148538,2,0,B|204:276|204:276|256:252|308:276|308:276|411:276,1,315.000012016297
472,192,150038,5,0,2:0:0:0:
472,192,150413,1,0,2:0:0:0:
392,128,150788,1,0,2:0:0:0:
392,128,151163,1,0,2:0:0:0:
312,192,151538,1,0,2:0:0:0:
312,192,151913,1,0,2:0:0:0:
232,128,152288,1,0,2:0:0:0:
152,192,152663,1,0,2:0:0:0:
168,192,155288,5,0,2:0:0:0:
256,128,155663,1,0,2:0:0:0:
344,192,156038,1,0,2:0:0:0:
256,192,156413,12,0,159413,0:0:0:0:
128,136,160538,5,0,2:0:0:0:
200,216,160913,1,0,2:0:0:0:
256,304,161288,1,0,2:0:0:0:
312,216,161663,1,0,2:0:0:0:
384,136,162038,1,0,2:0:0:0:
415,40,162413,2,0,P|259:56|104:34,2,315.000012016297
256,176,165413,5,0,0:0:0:0:
72,328,168413,37,0,2:0:0:0:
144,328,168788,1,0,2:0:0:0:
216,328,169163,2,0,B|272:320|304:344|360:328,2,140
216,328,171038,1,0,0:0:0:0:
224,192,171788,5,0,2:0:0:0:
272,144,172163,2,0,B|304:96|352:88|384:56,2,140
200,128,174038,1,0,2:0:0:0:
168,192,174413,6,0,L|168:232,1,35
256,284,175163,6,0,L|256:248,1,35
344,192,175913,6,0,L|344:232,1,35
432,288,176663,6,0,L|432:176,1,105
256,48,178538,21,0,2:0:0:0:
256,120,178913,5,0,2:0:0:0:
256,192,179288,5,0,2:0:0:0:
256,264,179663,5,0,2:0:0:0:
256,336,180038,5,0,2:0:0:0:
192,304,180413,5,8,0:0:0:0:
128,328,180788,1,0,0:0:0:0:
72,288,181163,2,0,P|32:248|32:160,1,140
136,80,182663,1,0,0:0:0:0:
208,72,183038,1,0,0:0:0:0:
264,120,183413,5,8,0:0:0:0:
336,112,183788,1,0,0:0:0:0:
376,168,184163,2,0,P|408:232|392:296,2,140
328,216,186038,1,0,0:0:0:0:
264,184,186413,5,8,0:0:0:0:
192,184,186788,1,0,0:0:0:0:
264,184,187163,1,0,0:0:0:0:
192,184,187538,1,0,0:0:0:0:
184,256,187913,1,0,0:0:0:0:
160,320,188288,1,0,0:0:0:0:
184,256,188663,1,0,0:0:0:0:
48,192,189413,6,0,L|96:192,1,35
104,88,190163,6,0,L|136:120,1,35
216,48,190913,6,0,L|256:48,1,35
344,88,191663,6,0,L|400:144,1,70
424,272,192413,6,0,P|360:288|280:272,1,140,4|0,0:0|0:0,0:0:0:0:
160,232,193163,1,8,0:0:0:0:
160,232,193538,1,0,0:0:0:0:
64,336,193913,2,0,P|24:240|128:96,1,280,0|8,0:0|0:0,0:0:0:0:
248,64,195038,6,0,P|328:48|384:72,1,140
328,120,195600,1,0,0:0:0:0:
432,216,195975,2,0,P|352:248|216:224,1,210
168,208,196725,2,0,P|134:191|96:160,1,70
64,40,197288,1,0,0:0:0:0:
208,72,197663,5,8,0:0:0:0:
344,104,198038,1,0,0:0:0:0:
432,216,198413,1,0,0:0:0:0:
432,216,198600,1,0,0:0:0:0:
392,352,198975,2,0,P|304:360|144:248,1,280
104,200,199913,2,0,P|80:120|112:56,1,140
224,128,200663,5,8,0:0:0:0:
360,128,201038,1,0,0:0:0:0:
448,240,201413,2,0,P|480:184|464:96,2,140,0|0|8,0:0|0:0|0:0,0:0:0:0:
312,240,202538,5,0,0:0:0:0:
224,128,202913,1,0,0:0:0:0:
360,128,203288,1,0,0:0:0:0:
448,240,203663,1,8,0:0:0:0:
176,192,204413,6,0,P|112:192|48:272,2,140,4|0|8,0:0|0:0|0:0,0:0:0:0:
168,336,205538,2,0,P|240:336|288:288,3,140,0|0|0|8,0:0|0:0|0:0|0:0,0:0:0:0:
184,192,207038,5,0,0:0:0:0:
72,104,207413,2,0,P|48:144|48:192,1,70
184,192,207975,2,0,P|320:224|464:152,1,280
496,120,208913,2,0,P|432:72|368:72,1,140
240,96,209663,5,8,0:0:0:0:
240,96,210038,1,0,0:0:0:0:
104,128,210413,1,0,0:0:0:0:
104,128,210600,1,0,0:0:0:0:
104,264,210975,2,0,P|192:320|376:312,1,280
424,280,211913,1,0,0:0:0:0:
216,88,212663,5,8,0:0:0:0:
216,88,213038,1,0,0:0:0:0:
96,160,213413,2,0,L|248:160,1,140
352,232,214163,2,0,L|172:232,1,140,8|0,0:0|0:0,0:0:0:0:
72,232,214913,5,0,0:0:0:0:
192,304,215288,1,0,0:0:0:0:
72,232,215663,1,0,0:0:0:0:
192,304,216038,1,0,0:0:0:0:
320,352,216413,6,0,P|416:304|448:256,2,140,4|0|8,0:0|0:0|0:0,0:0:0:0:
304,216,217538,1,0,0:0:0:0:
400,112,217913,2,0,B|288:128|248:40|104:72,1,280,0|8,0:0|0:0,0:0:0:0:
8,136,219038,1,0,0:0:0:0:
128,184,219413,1,0,0:0:0:0:
80,312,219788,6,0,P|160:328|224:280,1,140,0|8,0:0|0:0,0:0:0:0:
128,184,220538,1,0,0:0:0:0:
112,48,220913,2,0,B|240:64|264:168|361:176,1,280,0|8,0:0|0:0,0:0:0:0:
496,176,222038,1,0,0:0:0:0:
440,304,222413,5,0,0:0:0:0:
368,304,222600,2,0,B|224:304|224:304|176:304|168:240,1,210,0|8,0:0|0:0,0:0:0:0:
240,240,223350,2,0,B|384:240|384:240|432:240|440:176,1,210
368,176,224100,2,0,B|224:176|224:176|176:176|168:112,1,210,0|8,0:0|0:0,0:0:0:0:
312,112,225038,1,0,0:0:0:0:
384,112,225225,1,0,0:0:0:0:
456,112,225413,2,0,B|472:184|472:184|448:280,2,140,0|0|8,0:0|0:0|0:0,0:0:0:0:
368,0,226538,5,0,0:0:0:0:
232,24,226913,1,0,0:0:0:0:
112,88,227288,1,0,0:0:0:0:
40,208,227663,1,8,0:0:0:0:
8,344,228038,1,0,0:0:0:0:
144,304,228413,5,4,0:0:0:0:
280,344,228788,1,0,0:0:0:0:
232,208,229163,2,0,P|312:216|376:280,1,140,8|0,0:0|0:0,0:0:0:0:
488,304,229913,2,0,P|392:176|272:128,1,280,0|8,0:0|0:0,0:0:0:0:
144,144,231038,1,0,0:0:0:0:
360,320,231788,5,0,0:0:0:0:
216,200,232163,2,0,B|288:240|408:184|496:216,2,280,8|0|8,0:0|0:0|0:0,0:0:0:0:
216,200,234038,1,0,0:0:0:0:
96,280,234413,6,0,P|48:224|64:152,1,140
88,32,235163,2,0,P|168:32|208:88,1,140,8|0,0:0|0:0,0:0:0:0:
152,200,235913,1,0,0:0:0:0:
256,296,236288,1,0,0:0:0:0:
280,160,236663,1,8,0:0:0:0:
480,192,237413,6,0,P|479:260|439:317,1,140
368,192,238163,2,0,P|360:128|400:48,1,140,8|0,0:0|0:0,0:0:0:0:
424,192,238913,2,0,P|416:256|360:320,1,140
320,264,239475,2,0,P|224:304|104:272,1,210
216,176,240413,5,4,0:0:0:0:
