osu file format v12

[General]
AudioFilename: Blumenkranz.mp3
AudioLeadIn: 0
PreviewTime: 120363
Countdown: 0
SampleSet: Normal
StackLeniency: 0.7
Mode: 0
LetterboxInBreaks: 0
WidescreenStoryboard: 1

[Editor]
Bookmarks: 240363
DistanceSpacing: 1
BeatDivisor: 4
GridSize: 4
TimelineZoom: 1

[Metadata]
Title:Blumenkranz
TitleUnicode:Blumenkranz
Artist:Cyua
ArtistUnicode:Cyua
Creator:Shinxyn
Version:Insane
Source:Kill la Kill
Tags:Hiroyuki Sawano
BeatmapID:380475
BeatmapSetID:155034

[Difficulty]
HPDrainRate:8
CircleSize:4
OverallDifficulty:9
ApproachRate:8
SliderMultiplier:2
SliderTickRate:1

[Events]
//Background and Video events
0,0,"kiryuuin.jpg",0,0
//Break Periods
2,96613,101475
//Storyboard Layer 0 (Background)
//Storyboard Layer 1 (Fail)
//Storyboard Layer 2 (Pass)
//Storyboard Layer 3 (Foreground)
//Storyboard Sound Samples
//Background Colour Transformations
3,100,163,162,255

[TimingPoints]
413,375,4,1,0,70,1,0
24413,-200,4,2,0,60,0,0
36413,-100,4,1,0,70,0,0
48413,-133.333333333333,4,2,0,50,0,0
70725,-133.333333333333,4,2,0,20,0,0
72413,-100,4,1,1,70,0,1
96413,-133.333333333333,4,1,0,40,0,0
108413,-100,4,1,0,50,0,0
120413,-100,4,1,1,70,0,1
144413,-133.333333333333,4,2,0,50,0,0
168413,-200,4,2,0,60,0,0
180225,-200,4,2,0,80,0,0
192413,-100,4,1,1,70,0,0
216413,-100,4,1,1,70,0,1
240413,-100,4,1,0,30,0,0

[Colours]
Combo1 : 255,0,255
Combo2 : 255,0,0
Combo3 : 255,128,0
Combo4 : 255,255,0
Combo5 : 0,255,0
Combo6 : 0,128,255
Combo7 : 128,128,255

[HitObjects]
208,72,12225,5,0,0:0:0:0:
208,72,12413,1,0,0:0:0:0:
304,104,12600,1,0,0:0:0:0:
304,104,12788,2,0,P|384:176|392:300,2,200,0|8|0,0:0|0:0|0:0,0:0:0:0:
216,156,13725,5,0,0:0:0:0:
216,156,13913,1,0,0:0:0:0:
132,192,14100,1,0,0:0:0:0:
132,192,14288,2,0,P|40:256|12:352,2,200,0|8|0,0:0|0:0|0:0,0:0:0:0:
184,276,15225,5,0,0:0:0:0:
284,300,15413,1,0,0:0:0:0:
188,256,15600,1,0,0:0:0:0:
284,284,15788,2,0,P|368:248|412:148,2,200,0|8|0,0:0|0:0|0:0,0:0:0:0:
184,264,16725,6,0,P|120:200|104:96,1,200,8|8,0:0|0:0,0:0:0:0:
260,216,17288,2,0,P|204:192|172:136,1,100,0|0,0:0|0:0,0:0:0:0:
304,152,17663,2,0,B|204:152|204:24|304:24,1,200,8|0,0:0|0:0,0:0:0:0:
368,80,18225,1,8,0:0:0:0:
468,68,18413,5,0,0:0:0:0:
404,164,18600,1,0,0:0:0:0:
504,152,18788,2,0,P|488:232|368:264,2,200,0|8|0,0:0|0:0|0:0,0:0:0:0:
404,164,19725,2,0,P|316:176|264:280,1,200,8|8,0:0|0:0,0:0:0:0:
232,360,20288,2,0,B|104:344|104:216,2,200,0|8|0,0:0|0:0|0:0,0:0:0:0:
264,264,21225,5,0,0:0:0:0:
332,336,21413,2,0,P|356:260|348:224,2,100
264,264,21975,1,8,0:0:0:0:
400,384,22163,2,0,P|436:304|424:184,1,200,8|0,0:0|0:0,0:0:0:0:
264,264,22725,1,8,0:0:0:0:
172,308,22913,6,0,P|164:240|196:184,1,100,0|8,0:0|0:0,0:0:0:0:
92,268,23288,2,0,P|100:208|132:144,1,100,4|0,0:0|0:0,0:0:0:0:
24,216,23663,2,0,P|40:160|76:100,1,100,8|0,0:0|0:0,0:0:0:0:
4,76,24038,2,0,P|39:40|84:16,1,100,0|8,0:0|0:0,0:0:0:0:
116,88,24413,6,0,P|172:88|240:112,1,100
396,296,25163,2,0,P|340:296|272:272,1,100
214,99,25913,6,0,P|280:140|300:164,1,100
297,284,26663,2,0,P|232:244|212:220,1,100
294,156,27413,6,0,P|316:216|316:264,1,100
217,227,28163,2,0,P|196:168|196:120,1,100
317,252,28913,6,0,P|312:304|280:356,1,100
194,131,29663,2,0,P|200:80|232:28,1,100
289,345,30413,6,0,P|216:376|176:376,1,100
222,38,31163,2,0,P|296:8|336:8,1,100
196,377,31913,6,0,P|144:368|92:344,1,100
315,6,32663,2,0,P|368:16|420:40,1,100,0|0,0:0|0:0,0:0:0:0:
101,349,33413,6,0,P|64:308|60:244,1,100
410,34,34163,2,0,P|448:76|452:140,1,100
56,265,34913,6,0,P|80:204|136:164,1,100
455,118,35663,2,0,P|432:180|376:220,1,100
184,260,36413,5,0,0:0:0:0:
260,76,36788,2,0,P|376:144|356:208,1,200,0|8,0:0|0:0,0:0:0:0:
184,260,37538,5,0,0:0:0:0:
144,352,37725,1,8,0:0:0:0:
84,272,37913,1,0,0:0:0:0:
184,260,38100,1,8,0:0:0:0:
284,280,38288,2,0,P|260:176|164:168,1,200,0|8,0:0|0:0,0:0:0:0:
184,260,38850,1,0,0:0:0:0:
104,324,39038,1,0,0:0:0:0:
408,60,39413,5,0,0:0:0:0:
408,324,39788,1,0,0:0:0:0:
256,192,40163,1,8,0:0:0:0:
456,196,40538,1,0,0:0:0:0:
360,168,40725,2,0,P|320:276|208:276,1,200,8|0,0:0|0:0,0:0:0:0:
256,192,41288,1,8,0:0:0:0:
196,0,41663,5,8,0:0:0:0:
104,40,41850,1,0,0:0:0:0:
48,232,42038,1,0,1:0:0:0:
52,132,42225,1,8,0:0:0:0:
152,132,42413,6,0,P|192:96|252:88,1,100
304,12,42788,2,0,P|400:96|404:172,1,200,0|8,0:0|0:0,0:0:0:0:
208,184,43538,1,0,0:0:0:0:
288,240,43725,1,8,0:0:0:0:
336,328,43913,1,0,0:0:0:0:
152,260,44288,5,0,0:0:0:0:
336,328,44475,1,0,0:0:0:0:
136,352,44663,1,8,0:0:0:0:
136,352,45038,1,0,0:0:0:0:
80,132,45413,5,0,0:0:0:0:
80,132,45788,1,0,0:0:0:0:
148,60,45975,5,8,0:0:0:0:
364,60,46163,1,8,0:0:0:0:
256,228,46538,5,0,1:0:0:0:
364,184,46725,1,8,1:0:0:0:
148,184,46913,1,0,0:0:0:0:
256,228,47288,5,4,1:0:0:0:
256,228,47663,1,8,1:0:0:0:
148,184,48038,5,0,1:0:0:0:
364,60,48225,1,8,0:0:0:0:
364,184,48413,5,0,1:0:0:0:
296,316,48788,1,0,0:0:0:0:
152,356,49163,1,0,1:0:0:0:
28,272,49538,2,0,P|16:228|36:168,2,75.0000028610231,0|0|0,1:0|0:0|1:0,0:0:0:0:
152,184,50288,5,0,0:0:0:0:
220,148,50475,1,0,0:0:0:0:
152,184,50663,1,0,1:0:0:0:
300,192,51038,1,0,1:0:0:0:
360,236,51225,1,0,0:0:0:0:
300,192,51413,1,0,1:0:0:0:
408,88,51788,5,0,0:0:0:0:
468,132,51975,1,0,0:0:0:0:
432,196,52163,2,0,P|444:264|420:344,1,150.000005722046,0|0,1:0|1:0,0:0:0:0:
352,372,52725,1,0,0:0:0:0:
280,348,52913,1,0,1:0:0:0:
136,304,53288,5,0,0:0:0:0:
104,236,53475,1,0,0:0:0:0:
80,164,53663,1,0,1:0:0:0:
56,92,53850,1,2,0:0:0:0:
56,92,53944,1,0,0:0:0:0:
56,92,54038,1,0,0:0:0:0:
104,32,54225,1,0,1:0:0:0:
132,104,54413,5,0,1:0:0:0:
280,128,54788,1,0,1:0:0:0:
200,148,54975,1,0,0:0:0:0:
180,224,55163,1,0,1:0:0:0:
216,72,55538,1,0,0:0:0:0:
200,148,55725,1,0,0:0:0:0:
264,200,55913,5,0,1:0:0:0:
412,180,56288,1,0,0:0:0:0:
404,256,56475,1,0,0:0:0:0:
360,316,56663,1,0,1:0:0:0:
264,200,57038,1,0,0:0:0:0:
292,348,57413,5,0,1:0:0:0:
292,348,57788,1,0,0:0:0:0:
124,304,58163,1,0,1:0:0:0:
124,304,58538,1,0,0:0:0:0:
64,260,58725,1,0,0:0:0:0:
32,192,58913,5,0,1:0:0:0:
192,36,59288,1,0,0:0:0:0:
412,80,59663,1,0,1:0:0:0:
400,156,59850,1,2,0:0:0:0:
432,172,59944,1,0,0:0:0:0:
456,204,60038,1,2,0:0:0:0:
384,232,60225,1,2,0:0:0:0:
348,300,60413,5,0,1:0:0:0:
280,336,60600,1,2,0:0:0:0:
284,260,60788,1,0,0:0:0:0:
348,300,60975,1,0,0:0:0:0:
280,336,61163,5,0,1:0:0:0:
196,368,61350,1,2,0:0:0:0:
208,280,61538,1,2,0:0:0:0:
280,336,61725,1,0,0:0:0:0:
196,368,61913,5,0,1:0:0:0:
92,372,62100,1,2,0:0:0:0:
140,280,62288,1,0,0:0:0:0:
196,368,62475,1,0,0:0:0:0:
92,372,62663,5,0,1:0:0:0:
12,284,62850,1,0,0:0:0:0:
92,196,63038,1,2,0:0:0:0:
12,108,63225,1,2,0:0:0:0:
92,16,63413,5,0,1:0:0:0:
156,108,63600,1,0,0:0:0:0:
92,16,63788,1,2,0:0:0:0:
156,108,63975,1,0,0:0:0:0:
268,112,64163,5,0,1:0:0:0:
332,204,64350,1,0,0:0:0:0:
268,112,64538,1,2,0:0:0:0:
332,204,64725,1,2,0:0:0:0:
332,344,64913,5,0,1:0:0:0:
212,324,65100,1,0,0:0:0:0:
136,228,65288,1,2,0:0:0:0:
156,108,65475,1,0,0:0:0:0:
216,4,65663,5,0,1:0:0:0:
352,68,65850,1,2,0:0:0:0:
448,184,66038,1,2,0:0:0:0:
468,332,66225,1,2,0:0:0:0:
388,332,66413,5,0,1:0:0:0:
372,220,66600,1,2,0:0:0:0:
308,128,66788,1,0,0:0:0:0:
208,80,66975,1,0,0:0:0:0:
200,156,67163,5,0,1:0:0:0:
268,192,67350,1,2,0:0:0:0:
300,256,67538,1,0,0:0:0:0:
308,336,67725,1,0,0:0:0:0:
228,336,67913,5,0,1:0:0:0:
232,292,68100,1,2,0:0:0:0:
224,260,68288,1,0,0:0:0:0:
192,240,68475,1,0,0:0:0:0:
164,308,68663,5,0,1:0:0:0:
156,312,68850,1,0,0:0:0:0:
148,316,69038,1,2,0:0:0:0:
140,320,69225,1,2,2:0:0:0:
256,192,69413,12,0,70725,2:0:0:0:
56,127,72413,6,0,P|122:56|219:47,1,200,4|0,0:0|0:0,0:0:0:0:
256,140,72975,1,0,0:0:0:0:
292,47,73163,2,0,P|389:56|455:127,1,200,8|0,0:0|0:0,0:0:0:0:
356,140,73725,5,0,0:0:0:0:
284,320,73913,1,0,0:0:0:0:
256,140,74100,1,0,0:0:0:0:
184,320,74288,2,0,P|148:284|132:220,1,100
256,140,74663,2,0,P|304:228|280:324,1,200,8|0,0:0|0:0,0:0:0:0:
184,320,75225,5,0,0:0:0:0:
56,164,75413,1,0,0:0:0:0:
256,140,75600,1,0,0:0:0:0:
96,260,75788,6,0,P|148:200|132:80,1,200,0|8,0:0|0:0,0:0:0:0:
40,60,76350,1,0,0:0:0:0:
112,0,76538,1,0,0:0:0:0:
212,16,76725,1,0,0:0:0:0:
404,72,76913,5,0,0:0:0:0:
212,20,77100,1,0,0:0:0:0:
336,176,77288,1,0,0:0:0:0:
212,28,77475,1,0,0:0:0:0:
216,228,77663,6,0,P|280:304|400:292,1,200,8|0,0:0|0:0,0:0:0:0:
374,306,78225,1,0,0:0:0:0:
456,248,78413,5,0,0:0:0:0:
468,148,78600,1,0,0:0:0:0:
404,72,78788,2,0,P|356:48|304:56,1,100
216,228,79163,5,8,0:0:0:0:
124,264,79350,1,0,0:0:0:0:
40,208,79538,2,0,P|24:156|56:104,1,100
244,132,79913,5,0,0:0:0:0:
336,176,80100,1,0,0:0:0:0:
376,268,80288,2,0,P|380:320|344:360,1,100
148,352,80663,6,0,P|124:324|128:256,1,100,8|0,0:0|0:0,0:0:0:0:
220,284,81038,1,0,0:0:0:0:
244,380,81225,1,0,0:0:0:0:
148,352,81413,2,0,P|120:264|200:188,1,200
220,284,81975,1,8,0:0:0:0:
28,336,82163,6,0,P|24:228|80:140,1,200,8|0,0:0|0:0,0:0:0:0:
136,76,82725,1,0,0:0:0:0:
336,76,82913,2,0,P|392:104|400:160,1,100
372,332,83288,2,0,P|324:308|308:260,1,100
240,76,83663,2,0,P|248:124|292:160,1,100,0|0,0:0|0:0,0:0:0:0:
464,64,84038,1,0,0:0:0:0:
388,248,84225,1,0,0:0:0:0:
192,196,84413,5,4,0:0:0:0:
96,168,84600,1,0,0:0:0:0:
36,248,84788,2,0,P|92:332|184:352,1,200,0|8,0:0|0:0,0:0:0:0:
252,276,85350,1,0,0:0:0:0:
192,196,85538,1,0,0:0:0:0:
96,168,85725,1,0,0:0:0:0:
168,96,85913,5,0,0:0:0:0:
252,276,86100,1,0,0:0:0:0:
168,96,86288,1,0,0:0:0:0:
264,64,86475,5,0,0:0:0:0:
364,80,86663,2,0,P|406:105|437:144,1,100,8|0,0:0|0:0,0:0:0:0:
468,240,87038,1,0,0:0:0:0:
412,320,87225,1,0,0:0:0:0:
316,348,87413,6,0,P|272:316|248:260,1,100
192,196,87788,2,0,P|236:164|280:156,1,100
362,215,88163,2,0,P|381:169|376:120,1,100,8|0,0:0|0:0,0:0:0:0:
300,56,88538,1,0,0:0:0:0:
204,88,88725,5,0,0:0:0:0:
116,132,88913,1,0,0:0:0:0:
192,196,89100,1,0,0:0:0:0:
204,88,89288,1,0,0:0:0:0:
88,252,89475,1,0,0:0:0:0:
84,352,89663,6,0,P|136:336|184:292,1,100,8|0,0:0|0:0,0:0:0:0:
88,252,90038,1,0,0:0:0:0:
0,296,90225,1,0,0:0:0:0:
84,352,90413,2,0,P|160:320|204:200,1,200
272,28,91163,2,0,P|352:104|348:216,1,200,8|0,0:0|0:0,0:0:0:0:
324,284,91725,5,0,0:0:0:0:
224,264,91913,2,0,P|224:312|264:360,1,100
352,376,92288,2,0,P|412:344|416:288,1,100
324,284,92663,2,0,P|288:188|200:168,1,200,8|0,0:0|0:0,0:0:0:0:
224,264,93225,1,0,0:0:0:0:
124,276,93413,6,0,P|124:336|152:380,1,100
324,284,93788,1,0,0:0:0:0:
124,276,93975,1,8,0:0:0:0:
124,175,94163,6,0,P|124:115|152:71,1,100,8|0,0:0|0:0,0:0:0:0:
320,172,94538,1,0,0:0:0:0:
124,176,94725,1,0,0:0:0:0:
124,276,94913,6,0,P|168:304|232:296,1,100,8|0,0:0|0:0,0:0:0:0:
228,104,95288,1,0,0:0:0:0:
428,112,95475,1,8,0:0:0:0:
416,312,95663,1,8,0:0:0:0:
216,304,95850,1,0,0:0:0:0:
304,252,96038,5,8,0:0:0:0:
340,216,96131,1,8,0:0:0:0:
320,172,96225,1,0,0:0:0:0:
272,176,96319,1,0,0:0:0:0:
260,224,96413,1,4,0:0:0:0:
256,332,102225,5,0,0:0:0:0:
324,296,102413,2,0,P|380:256|376:172,1,150.000005722046,8|0,0:0|0:0,0:0:0:0:
316,216,102975,1,0,0:0:0:0:
388,236,103163,2,0,P|360:156|296:136,1,150.000005722046,8|0,0:0|0:0,0:0:0:0:
232,160,103725,5,0,0:0:0:0:
168,200,103913,1,8,0:0:0:0:
236,172,104100,1,8,0:0:0:0:
172,212,104288,1,0,0:0:0:0:
240,184,104475,1,8,0:0:0:0:
176,224,104663,2,0,B|180:256|180:256|188:312|136:328|100:300,1,150.000005722046,8|0,0:0|0:0,0:0:0:0:
92,228,105225,5,0,0:0:0:0:
80,152,105413,2,0,B|76:120|76:120|68:64|120:48|156:76,1,150.000005722046,8|0,0:0|0:0,0:0:0:0:
164,148,105975,1,0,0:0:0:0:
176,224,106163,2,0,B|183:255|183:255|196:310|250:306|274:267,1,150.000005722046,8|0,0:0|0:0,0:0:0:0:
280,196,106725,6,0,L|280:160,3,25.0000009536744,0|0|0|8,0:0|0:0|0:0|0:0,0:0:0:0:
340,240,107100,1,8,0:0:0:0:
400,284,107288,1,8,0:0:0:0:
332,316,107475,1,8,0:0:0:0:
340,240,107663,1,8,0:0:0:0:
340,240,108038,1,0,0:0:0:0:
404,200,108225,5,0,0:0:0:0:
372,104,108413,2,0,P|420:104|480:136,2,100,8|8|0,0:0|0:0|0:0,0:0:0:0:
280,148,108975,1,0,0:0:0:0:
264,48,109163,2,0,B|180:88|180:88|120:120|132:180,1,200,8|0,0:0|0:0,0:0:0:0:
128,276,109725,2,0,P|148:324|208:340,1,100,8|0,0:0|0:0,0:0:0:0:
292,344,110100,1,8,0:0:0:0:
292,344,110288,1,12,0:0:0:0:
292,344,110475,1,0,0:0:0:0:
392,344,110663,2,0,B|424:260|424:260|448:196|396:144,1,200,8|0,0:0|0:0,0:0:0:0:
336,224,111225,1,0,0:0:0:0:
308,128,111413,6,0,P|352:100|380:56,1,100,8|0,0:0|0:0,0:0:0:0:
288,16,111788,1,0,0:0:0:0:
216,84,111975,1,8,0:0:0:0:
216,188,112163,2,0,P|184:228|112:232,1,100,8|0,0:0|0:0,0:0:0:0:
136,140,112538,1,0,0:0:0:0:
216,84,112725,1,8,0:0:0:0:
308,128,112913,1,0,0:0:0:0:
216,188,113100,1,8,0:0:0:0:
216,84,113288,5,4,0:0:0:0:
348,152,113475,1,8,0:0:0:0:
216,224,113663,1,8,0:0:0:0:
216,84,113850,1,0,0:0:0:0:
324,252,114038,1,0,0:0:0:0:
216,84,114225,1,0,0:0:0:0:
140,20,114413,6,0,P|48:72|17:164,1,200,8|8,0:0|0:0,0:0:0:0:
116,160,114975,1,0,0:0:0:0:
64,244,115163,2,0,P|160:256|252:204,1,200,8|0,0:0|0:0,0:0:0:0:
208,116,115725,1,8,0:0:0:0:
116,160,115913,1,0,0:0:0:0:
208,116,116100,1,0,0:0:0:0:
260,32,116288,2,0,P|296:68|304:128,1,100,12|0,0:0|0:0,0:0:0:0:
260,200,116663,5,8,0:0:0:0:
116,160,116850,1,8,0:0:0:0:
168,20,117038,1,0,0:0:0:0:
312,56,117225,1,0,0:0:0:0:
364,144,117413,5,8,0:0:0:0:
392,240,117600,1,0,0:0:0:0:
368,336,117788,1,0,0:0:0:0:
268,336,117975,5,8,0:0:0:0:
272,144,118163,1,8,0:0:0:0:
292,240,118350,5,0,0:0:0:0:
292,240,118538,1,0,0:0:0:0:
192,240,118725,5,8,0:0:0:0:
52,296,118913,1,8,0:0:0:0:
68,148,119100,1,0,0:0:0:0:
184,384,119288,5,12,0:0:0:0:
68,148,119475,1,4,0:0:0:0:
472,160,120413,6,0,P|440:68|312:48,1,200,4|0,0:0|0:0,0:0:0:0:
372,136,120975,1,0,0:0:0:0:
276,104,121163,2,0,P|308:208|412:232,1,200,8|0,0:0|0:0,0:0:0:0:
488,252,121725,1,0,0:0:0:0:
412,320,121913,6,0,P|364:328|304:308,1,100
200,171,122288,2,0,P|202:220|232:260,1,100
187,68,122663,2,0,B|236:72|276:104|276:104|320:140|392:136,1,200,8|0,0:0|0:0,0:0:0:0:
472,124,123225,1,0,0:0:0:0:
444,220,123413,6,0,P|412:276|348:316,1,100
392,128,123788,2,0,P|372:180|340:220,1,100
324,32,124163,2,0,P|316:84|292:140,1,100,8|0,0:0|0:0,0:0:0:0:
187,31,124538,6,0,P|208:80|213:127,1,100
164,216,124913,1,0,0:0:0:0:
67,219,125100,2,0,P|90:264|126:298,1,100
28,128,125475,1,0,0:0:0:0:
121,125,125663,2,0,P|168:224|240:288,1,200,8|0,0:0|0:0,0:0:0:0:
233,284,126225,1,0,0:0:0:0:
336,288,126413,6,0,P|408:228|456:124,1,200,4|0,0:0|0:0,0:0:0:0:
360,144,126975,1,0,0:0:0:0:
472,228,127163,2,0,P|378:236|271:196,1,200,8|0,0:0|0:0,0:0:0:0:
360,144,127725,1,0,0:0:0:0:
392,48,127913,6,0,P|440:88|452:156,1,100
424,220,128288,2,0,P|384:244|328:236,1,100
268,160,128663,2,0,P|268:112|296:68,1,100,8|0,0:0|0:0,0:0:0:0:
360,144,129038,1,0,0:0:0:0:
424,220,129225,1,0,0:0:0:0:
448,316,129413,6,0,L|324:316,1,100
64,316,129788,2,0,L|164:316,1,100
424,220,130163,2,0,L|324:220,1,100,8|0,0:0|0:0,0:0:0:0:
88,220,130538,5,0,0:0:0:0:
88,220,130725,1,0,0:0:0:0:
376,128,130913,1,0,0:0:0:0:
136,128,131100,1,0,0:0:0:0:
300,56,131288,2,0,P|248:48|188:60,1,100
256,140,131663,5,8,0:0:0:0:
376,128,131850,1,8,0:0:0:0:
256,288,132038,1,0,0:0:0:0:
136,128,132225,1,0,0:0:0:0:
112,224,132413,6,0,P|132:276|172:320,1,100,4|0,0:0|0:0,0:0:0:0:
256,288,132788,2,0,P|256:184|228:92,1,200,0|8,0:0|0:0,0:0:0:0:
136,128,133350,1,0,0:0:0:0:
112,224,133538,1,0,0:0:0:0:
136,128,133725,1,0,0:0:0:0:
128,24,133913,6,0,P|76:44|44:92,1,100
220,180,134288,2,0,P|236:132|228:80,1,100
40,168,134663,2,0,P|64:208|144:216,1,100,8|0,0:0|0:0,0:0:0:0:
128,24,135038,2,0,P|52:64|44:176,1,200
156,336,135600,5,0,0:0:0:0:
356,340,135788,1,0,0:0:0:0:
356,340,136163,1,8,0:0:0:0:
356,44,136538,5,0,0:0:0:0:
428,112,136725,1,0,0:0:0:0:
256,68,136913,1,0,0:0:0:0:
332,132,137100,1,0,0:0:0:0:
408,196,137288,1,0,0:0:0:0:
236,152,137475,1,0,0:0:0:0:
300,228,137663,2,0,P|276:280|176:216,1,200,8|0,0:0|0:0,0:0:0:0:
236,152,138225,1,0,0:0:0:0:
136,160,138413,6,0,P|116:114|120:65,1,100
220,52,138788,1,0,0:0:0:0:
236,152,138975,1,0,0:0:0:0:
172,232,139163,2,0,P|152:277|156:326,1,100,8|0,0:0|0:0,0:0:0:0:
252,356,139538,1,0,0:0:0:0:
348,336,139725,5,0,0:0:0:0:
452,152,139913,1,0,0:0:0:0:
428,248,140100,5,0,0:0:0:0:
428,48,140288,2,0,P|372:48|328:80,1,100
428,248,140663,1,8,0:0:0:0:
336,212,140850,5,0,0:0:0:0:
180,336,141038,1,0,0:0:0:0:
64,172,141225,1,0,0:0:0:0:
212,36,141413,6,0,P|232:88|220:156,1,100
144,184,141788,1,0,0:0:0:0:
144,184,142163,1,8,0:0:0:0:
224,244,142350,1,0,0:0:0:0:
180,336,142538,1,0,0:0:0:0:
100,276,142725,1,0,0:0:0:0:
144,184,142913,5,0,0:0:0:0:
308,296,143100,1,0,0:0:0:0:
224,244,143288,5,0,0:0:0:0:
224,44,143475,1,0,0:0:0:0:
388,156,143663,1,8,0:0:0:0:
388,156,144038,5,0,0:0:0:0:
288,160,144225,1,0,0:0:0:0:
340,240,144413,2,0,P|416:252|480:192,1,150.000005722046,2|0,0:0|0:0,0:0:0:0:
471,210,144975,1,0,0:0:0:0:
312,48,145538,6,0,B|276:76|208:48|136:88,1,150.000005722046
88,208,146288,2,0,B|168:160|284:192|384:140,2,300.000011444092
88,208,148163,1,0,2:0:0:0:
176,328,148538,2,0,B|270:278|386:310|466:262,2,300.000011444092
72,216,150413,5,0,2:0:0:0:
152,88,150788,1,0,2:0:0:0:
300,68,151163,1,0,2:0:0:0:
300,68,151538,1,0,2:0:0:0:
420,160,151913,1,0,2:0:0:0:
420,160,152288,1,0,2:0:0:0:
408,308,152663,2,0,P|276:368|104:328,3,300.000011444092
252,256,155288,5,0,2:0:0:0:
252,256,155663,1,0,2:0:0:0:
252,256,156038,1,0,2:0:0:0:
256,192,156413,12,0,159413,0:0:0:0:
328,288,160538,5,0,2:0:0:0:
184,248,160913,1,0,2:0:0:0:
328,212,161288,1,0,2:0:0:0:
184,172,161663,1,0,2:0:0:0:
328,136,162038,1,0,2:0:0:0:
184,96,162413,1,0,2:0:0:0:
256,192,162506,12,0,163538,0:0:0:0:
256,192,163631,12,0,165413,2:0:0:0:
196,56,168413,37,0,2:0:0:0:
296,44,168788,1,0,2:0:0:0:
392,72,169163,2,0,P|452:140|460:256,2,200
316,140,171038,1,0,0:0:0:0:
196,136,171788,5,0,2:0:0:0:
120,72,172163,2,0,P|60:140|52:256,2,200
216,44,174038,1,0,2:0:0:0:
304,92,174413,5,0,2:0:0:0:
264,124,174600,1,0,2:0:0:0:
136,204,175163,5,0,2:0:0:0:
176,236,175350,1,0,2:0:0:0:
324,260,175913,5,0,2:0:0:0:
284,292,176100,1,0,2:0:0:0:
152,360,176663,5,0,2:0:0:0:
72,300,177038,1,0,2:0:0:0:
48,256,177225,1,0,2:0:0:0:
340,60,178538,21,0,2:0:0:0:
424,116,178913,5,0,2:0:0:0:
408,212,179288,5,0,2:0:0:0:
308,216,179663,5,0,2:0:0:0:
264,132,180038,5,0,2:0:0:0:
340,60,180413,5,8,0:0:0:0:
424,116,180788,1,0,0:0:0:0:
408,212,181163,2,0,P|360:296|256:332,2,200
308,220,183038,2,0,P|264:248|212:244,1,100,0|8,0:0|0:0,0:0:0:0:
244,148,183788,5,0,0:0:0:0:
148,116,184163,2,0,P|108:200|148:312,2,200
224,52,186038,1,0,0:0:0:0:
324,64,186413,5,8,1:0:0:0:
208,228,186788,1,0,1:0:0:0:
308,212,187163,1,0,0:0:0:0:
308,212,187538,1,0,0:0:0:0:
244,136,187913,1,0,0:0:0:0:
244,136,188288,1,0,0:0:0:0:
208,228,188663,1,0,1:0:0:0:
388,140,189413,5,8,1:0:0:0:
388,140,189600,1,0,0:0:0:0:
388,140,189788,1,0,1:0:0:0:
448,220,190163,5,0,0:0:0:0:
448,220,190350,2,0,P|420:304|368:320,1,150
368,320,191100,2,0,P|309:297|285:217,1,150
364,160,192038,1,0,0:0:0:0:
364,160,192225,1,0,0:0:0:0:
336,64,192413,6,0,P|288:84|240:136,1,100,4|0,0:0|0:0,0:0:0:0:
204,204,192788,1,0,0:0:0:0:
208,304,192975,1,0,0:0:0:0:
120,256,193163,2,0,P|108:172|188:100,1,200,8|0,0:0|0:0,0:0:0:0:
204,204,193725,5,0,0:0:0:0:
208,304,193913,1,0,0:0:0:0:
296,256,194100,1,0,0:0:0:0:
304,356,194288,1,0,0:0:0:0:
304,356,194663,1,8,0:0:0:0:
464,224,195038,6,0,P|480:176|464:120,1,100
390,173,195413,2,0,P|382:125|406:77,1,100
474,138,195788,2,0,P|460:232|366:272,2,200,0|8|0,0:0|0:0|0:0,0:0:0:0:
472,48,196725,2,0,P|440:16|368:16,1,100
312,40,197100,1,0,0:0:0:0:
384,104,197288,2,0,P|296:136|216:56,1,200,0|8,0:0|0:0,0:0:0:0:
24,32,198038,5,0,0:0:0:0:
148,112,198225,1,0,0:0:0:0:
0,112,198413,1,0,0:0:0:0:
128,36,198600,1,0,0:0:0:0:
72,176,198788,1,0,0:0:0:0:
24,32,198975,1,0,0:0:0:0:
24,32,199163,6,0,P|64:72|144:216,1,200,8|0,0:0|0:0,0:0:0:0:
228,376,199725,1,0,0:0:0:0:
200,176,199913,1,0,0:0:0:0:
288,352,200100,1,0,0:0:0:0:
256,156,200288,2,0,P|324:224|336:344,1,200,0|8,0:0|0:0,0:0:0:0:
472,172,201038,5,0,0:0:0:0:
412,92,201225,1,0,0:0:0:0:
332,36,201413,2,0,B|280:4|224:12,1,100
264,108,201788,1,0,0:0:0:0:
348,164,201975,5,8,0:0:0:0:
164,84,202163,2,0,P|104:72|36:96,1,100,8|0,0:0|0:0,0:0:0:0:
108,172,202538,1,0,0:0:0:0:
16,212,202725,1,0,0:0:0:0:
100,264,202913,5,0,0:0:0:0:
192,304,203100,1,0,0:0:0:0:
104,368,203288,1,0,0:0:0:0:
192,196,203475,1,0,0:0:0:0:
276,240,203663,5,8,0:0:0:0:
464,304,203850,1,8,0:0:0:0:
424,108,204038,1,0,0:0:0:0:
364,300,204225,1,0,0:0:0:0:
396,204,204413,6,0,P|328:136|352:40,1,200,4|0,0:0|0:0,0:0:0:0:
424,108,204975,1,0,0:0:0:0:
488,184,205163,2,0,P|468:264|344:292,1,200,8|0,0:0|0:0,0:0:0:0:
396,204,205725,5,0,0:0:0:0:
196,208,205913,1,0,0:0:0:0:
296,204,206100,5,0,0:0:0:0:
100,160,206288,2,0,P|76:208|112:248,1,100
296,204,206663,1,8,0:0:0:0:
148,68,207038,6,0,P|204:48|256:60,1,100
212,148,207413,2,0,P|264:152|324:124,1,100
340,52,207788,2,0,P|376:72|404:136,1,100
500,104,208163,2,0,P|460:204|368:220,1,200,8|0,0:0|0:0,0:0:0:0:
377,222,208725,1,0,0:0:0:0:
444,300,208913,5,0,0:0:0:0:
300,336,209100,1,0,0:0:0:0:
444,300,209288,1,0,0:0:0:0:
248,268,209475,1,0,0:0:0:0:
444,300,209663,1,8,0:0:0:0:
444,300,210038,5,0,0:0:0:0:
276,192,210413,1,0,0:0:0:0:
176,200,210600,1,0,0:0:0:0:
248,268,210788,2,0,P|168:296|80:224,1,200,0|8,0:0|0:0,0:0:0:0:
104,132,211350,1,0,0:0:0:0:
204,124,211538,5,0,0:0:0:0:
276,192,211725,1,0,0:0:0:0:
104,132,211913,1,0,0:0:0:0:
276,192,212100,1,0,0:0:0:0:
104,132,212288,1,0,0:0:0:0:
276,192,212475,1,0,0:0:0:0:
204,124,212663,1,8,0:0:0:0:
392,192,213038,5,0,0:0:0:0:
456,268,213225,1,0,0:0:0:0:
376,328,213413,2,0,L|260:328,1,100
196,280,213788,2,0,L|96:280,1,100,0|8,0:0|0:0,0:0:0:0:
276,192,214163,2,0,L|164:192,1,100,8|0,0:0|0:0,0:0:0:0:
76,192,214538,1,0,0:0:0:0:
76,192,214725,1,0,0:0:0:0:
0,124,214913,5,0,0:0:0:0:
76,60,215100,1,0,0:0:0:0:
152,128,215288,1,0,0:0:0:0:
76,192,215475,1,0,0:0:0:0:
156,252,215663,5,8,0:0:0:0:
272,344,215850,1,8,0:0:0:0:
388,252,216038,1,0,0:0:0:0:
272,160,216225,1,0,0:0:0:0:
236,252,216413,6,0,P|340:196|380:124,1,200,4|0,0:0|0:0,0:0:0:0:
304,64,216975,1,0,0:0:0:0:
404,32,217163,2,0,P|472:92|456:192,1,200,8|0,0:0|0:0,0:0:0:0:
380,128,217725,5,0,0:0:0:0:
304,64,217913,1,0,0:0:0:0:
272,160,218100,1,0,0:0:0:0:
196,96,218288,1,0,0:0:0:0:
164,192,218475,1,0,0:0:0:0:
88,128,218663,2,0,P|52:216|148:288,1,200,8|0,0:0|0:0,0:0:0:0:
312,316,219225,5,0,0:0:0:0:
380,128,219413,1,0,0:0:0:0:
236,268,219600,1,0,0:0:0:0:
428,204,219788,1,0,0:0:0:0:
228,184,219975,1,0,0:0:0:0:
400,284,220163,2,0,P|332:232|296:116,1,200,8|0,0:0|0:0,0:0:0:0:
280,28,220725,5,0,0:0:0:0:
88,80,220913,1,0,0:0:0:0:
180,256,221100,1,0,0:0:0:0:
184,56,221288,1,0,0:0:0:0:
276,232,221475,1,0,0:0:0:0:
80,192,221663,2,0,L|300:124,1,200,8|0,0:0|0:0,0:0:0:0:
271,132,222225,1,0,0:0:0:0:
340,60,222413,6,0,P|372:104|384:160,1,100
172,324,222788,2,0,P|132:256|176:136,1,200,0|8,0:0|0:0,0:0:0:0:
340,60,223350,2,0,P|380:128|336:248,1,200
256,192,223913,5,0,0:0:0:0:
268,292,224100,1,0,0:0:0:0:
256,192,224288,2,0,B|244:104|244:104|232:32|144:44,1,200,0|8,0:0|0:0,0:0:0:0:
144,140,224850,1,0,0:0:0:0:
68,72,225038,1,0,0:0:0:0:
44,168,225225,1,0,0:0:0:0:
116,240,225413,5,0,0:0:0:0:
156,96,225600,1,0,0:0:0:0:
12,132,225788,1,0,0:0:0:0:
116,240,225975,5,8,0:0:0:0:
60,48,226163,1,8,0:0:0:0:
452,48,226538,5,0,0:0:0:0:
381,118,226725,1,0,0:0:0:0:
452,188,226913,1,0,0:0:0:0:
452,88,227100,1,0,0:0:0:0:
380,160,227288,1,0,0:0:0:0:
452,232,227475,1,0,0:0:0:0:
380,304,227663,5,8,0:0:0:0:
184,344,227850,1,8,0:0:0:0:
80,172,228038,1,0,0:0:0:0:
216,28,228225,1,0,0:0:0:0:
252,192,228413,5,4,0:0:0:0:
164,240,228600,1,0,0:0:0:0:
172,140,228788,2,0,P|252:96|344:168,2,200,0|8|0,0:0|0:0|0:0,0:0:0:0:
80,172,229725,5,0,0:0:0:0:
148,332,229913,1,0,0:0:0:0:
68,272,230100,5,0,0:0:0:0:
240,292,230288,1,0,0:0:0:0:
252,192,230475,5,0,0:0:0:0:
68,272,230663,2,0,P|8:220|8:92,1,200,8|0,0:0|0:0,0:0:0:0:
92,56,231225,5,0,0:0:0:0:
284,112,231413,1,0,0:0:0:0:
92,64,231600,1,0,0:0:0:0:
284,104,231788,1,0,0:0:0:0:
92,72,231975,1,0,0:0:0:0:
284,96,232163,1,8,0:0:0:0:
424,292,232538,6,0,P|372:304|316:292,1,100
160,188,232913,2,0,P|208:176|284:192,1,100
424,292,233288,1,0,0:0:0:0:
228,256,233475,1,0,0:0:0:0:
448,216,233663,2,0,P|376:180|252:184,1,200,8|0,0:0|0:0,0:0:0:0:
160,188,234225,5,0,0:0:0:0:
116,280,234413,2,0,P|72:236|64:176,1,100
100,108,234788,1,0,0:0:0:0:
160,188,234975,1,0,0:0:0:0:
208,100,235163,2,0,P|260:172|216:268,1,200,8|0,0:0|0:0,0:0:0:0:
172,352,235725,1,0,0:0:0:0:
268,324,235913,5,0,0:0:0:0:
400,176,236100,1,0,0:0:0:0:
356,320,236288,1,0,0:0:0:0:
328,124,236475,1,0,0:0:0:0:
408,256,236663,2,0,P|316:224|248:136,1,200,8|0,0:0|0:0,0:0:0:0:
212,240,237225,5,0,0:0:0:0:
268,324,237413,2,0,P|208:336|152:320,1,100
84,380,237788,2,0,P|72:312|88:272,1,100
128,196,238163,2,0,B|180:152|252:236|328:176,1,200,8|0,0:0|0:0,0:0:0:0:
260,100,238725,1,0,0:0:0:0:
360,84,238913,1,0,0:0:0:0:
416,168,239100,1,0,0:0:0:0:
468,252,239288,5,0,0:0:0:0:
284,328,239475,1,0,0:0:0:0:
136,192,239663,1,8,0:0:0:0:
244,24,239850,1,0,0:0:0:0:
440,72,240038,1,0,0:0:0:0:
468,252,240225,1,0,0:0:0:0:
308,180,240413,1,4,0:0:0:0:
