osu file format v12

[General]
AudioFilename: Blumenkranz.mp3
AudioLeadIn: 0
PreviewTime: 120363
Countdown: 0
SampleSet: Normal
StackLeniency: 0.7
Mode: 0
LetterboxInBreaks: 0
WidescreenStoryboard: 1

[Editor]
Bookmarks: 171131,240363
DistanceSpacing: 1
BeatDivisor: 4
GridSize: 8
TimelineZoom: 1

[Metadata]
Title:Blumenkranz
TitleUnicode:Blumenkranz
Artist:Cyua
ArtistUnicode:Cyua
Creator:Shinxyn
Version:Easy
Source:Kill la Kill
Tags:Hiroyuki Sawano
BeatmapID:380473
BeatmapSetID:155034

[Difficulty]
HPDrainRate:2
CircleSize:4
OverallDifficulty:2
ApproachRate:3
SliderMultiplier:0.8
SliderTickRate:1

[Events]
//Background and Video events
0,0,"kiryuuin.jpg",0,0
//Break Periods
2,96613,100973
2,144413,154973
//Storyboard Layer 0 (Background)
//Storyboard Layer 1 (Fail)
//Storyboard Layer 2 (Pass)
//Storyboard Layer 3 (Foreground)
//Storyboard Sound Samples
//Background Colour Transformations
3,100,163,162,255

[TimingPoints]
413,375,4,1,0,70,1,0
24413,-100,4,2,0,70,0,0
36413,-100,4,1,0,70,0,0
48413,-100,4,2,0,50,0,0
72413,-100,4,1,1,70,0,1
96413,-100,4,1,0,40,0,0
108413,-100,4,1,0,50,0,0
120413,-100,4,1,1,70,0,1
144413,-100,4,2,0,50,0,0
168413,-100,4,2,0,60,0,0
180225,-100,4,2,0,80,0,0
192413,-100,4,1,1,70,0,0
216413,-100,4,1,1,70,0,1
240413,-100,4,1,0,30,0,0

[Colours]
Combo1 : 255,0,255
Combo2 : 255,0,0
Combo3 : 255,128,0
Combo4 : 255,255,0
Combo5 : 0,255,0
Combo6 : 0,128,255
Combo7 : 128,128,255

[HitObjects]
288,248,12413,5,0,0:0:0:0:
176,128,13163,1,8,0:0:0:0:
336,128,13913,5,0,0:0:0:0:
232,248,14663,1,8,0:0:0:0:
256,88,15413,5,0,0:0:0:0:
416,64,16163,2,0,P|448:152|416:256,1,160,8|0,0:0|0:0,0:0:0:0:
400,288,17288,1,0,0:0:0:0:
336,336,17663,1,8,0:0:0:0:
176,336,18413,5,0,0:0:0:0:
40,256,19163,1,8,0:0:0:0:
96,104,19913,1,0,0:0:0:0:
224,192,20663,1,8,0:0:0:0:
384,192,21413,6,0,B|432:128|416:24,2,160,0|8|0,0:0|0:0|0:0,0:0:0:0:
392,272,23288,1,0,0:0:0:0:
312,264,23663,2,0,B|248:312|144:296,1,160,8|0,0:0|0:0,0:0:0:0:
40,192,25163,5,0,0:0:0:0:
152,80,25913,1,0,0:0:0:0:
152,80,26663,1,0,0:0:0:0:
312,80,27413,1,0,0:0:0:0:
312,80,28163,1,0,0:0:0:0:
424,192,28913,1,0,0:0:0:0:
424,192,29663,1,0,0:0:0:0:
312,304,30413,5,0,0:0:0:0:
312,304,31163,1,0,0:0:0:0:
192,192,31913,1,0,0:0:0:0:
192,192,32663,1,0,0:0:0:0:
200,48,35288,5,0,0:0:0:0:
200,48,35663,1,0,0:0:0:0:
200,48,36038,1,0,0:0:0:0:
288,48,36413,6,0,L|464:48,1,160,0|8,0:0|0:0,0:0:0:0:
400,200,37913,1,0,0:0:0:0:
256,272,38663,1,8,0:0:0:0:
256,112,39413,5,0,0:0:0:0:
120,192,40163,1,8,0:0:0:0:
256,272,40913,1,0,0:0:0:0:
392,192,41663,1,8,0:0:0:0:
384,32,42413,6,0,P|344:96|270:145,2,160,0|8|0,0:0|0:0|0:0,0:0:0:0:
224,16,44663,1,8,0:0:0:0:
160,64,45038,1,0,0:0:0:0:
104,120,45413,5,0,0:0:0:0:
32,264,46163,2,0,P|96:296|200:280,2,160,8|0|8,0:0|0:0|0:0,0:0:0:0:
64,192,48038,1,0,0:0:0:0:
144,192,48413,5,0,1:0:0:0:
288,256,49163,2,0,L|464:256,2,160,0|0|0,1:0|1:0|1:0,2:0:0:0:
224,112,51413,2,0,L|48:112,2,160,0|0|0,1:0|1:0|1:0,1:0:0:0:
384,112,53663,1,0,1:0:0:0:
312,256,54413,6,0,P|232:232|152:256,1,160,0|0,1:0|1:0,0:0:0:0:
24,336,55913,2,0,P|24:208|80:184,1,160,0|0,1:0|1:0,0:0:0:0:
152,80,57413,5,0,1:0:0:0:
312,112,58163,1,0,1:0:0:0:
184,208,58913,2,0,P|248:248|360:232,2,160,0|0|0,1:0|1:0|1:0,0:0:0:0:
96,72,61163,5,8,1:0:0:0:
256,96,61913,1,0,1:0:0:0:
416,120,62663,1,8,1:0:0:0:
416,280,63413,5,0,1:0:0:0:
256,256,64163,1,8,1:0:0:0:
104,216,64913,1,0,1:0:0:0:
104,216,65663,1,8,1:0:0:0:
160,64,66413,6,0,P|224:24|240:24,3,80,0|0|8|0,1:0|0:0|1:0|0:0,0:0:0:0:
232,104,67913,2,0,P|288:88|312:64,3,80,0|0|8|0,1:0|0:0|1:0|0:0,0:0:0:0:
256,192,69413,12,0,70725,0:0:0:0:
176,320,72413,5,4,0:0:0:0:
256,320,72788,1,0,0:0:0:0:
328,288,73163,2,0,P|384:232|384:144,3,160,8|0|8|0,0:0|0:0|0:0|0:0,0:0:0:0:
360,80,75788,1,0,0:0:0:0:
288,40,76163,6,0,P|216:24|128:56,2,160,8|0|8,0:0|0:0|0:0,0:0:0:0:
240,192,78413,5,0,0:0:0:0:
80,192,79163,1,8,0:0:0:0:
168,320,79913,1,0,0:0:0:0:
328,320,80663,1,8,0:0:0:0:
432,192,81413,5,0,0:0:0:0:
400,120,81788,1,0,0:0:0:0:
328,96,82163,1,8,0:0:0:0:
336,176,82538,2,0,B|352:192|328:216|288:176|288:176|304:192|280:216|240:176|240:176|256:192|232:216|192:176|192:176|208:192|184:216|144:176|144:176|160:192|136:216|80:160|80:160,1,400,0|4,0:0|0:0,0:0:0:0:
24,112,84788,5,0,0:0:0:0:
104,80,85163,2,0,P|192:64|272:72,1,160,8|0,0:0|0:0,0:0:0:0:
416,112,86663,2,0,P|488:160|536:240,1,160,8|0,0:0|0:0,0:0:0:0:
480,288,87788,5,0,0:0:0:0:
400,296,88163,2,0,P|328:272|256:212,2,160,8|0|8,0:0|0:0|0:0,0:0:0:0:
248,336,90413,6,0,P|208:312|176:272,1,80
136,224,91163,2,0,P|108:195|73:175,1,80,8|0,0:0|0:0,0:0:0:0:
0,152,91913,1,0,0:0:0:0:
64,96,92288,1,0,0:0:0:0:
136,128,92663,1,8,0:0:0:0:
304,88,93413,5,0,0:0:0:0:
424,192,94163,1,8,0:0:0:0:
304,296,94913,1,0,0:0:0:0:
184,192,95663,2,0,L|368:192,1,160,0|4,0:0|0:0,0:0:0:0:
311,183,102413,6,0,P|256:136|200:184,2,160,0|8|8,0:0|0:0|0:0,0:0:0:0:
256,336,104663,1,8,0:0:0:0:
128,240,105413,6,0,P|48:200|32:104,1,160,0|8,0:0|0:0,0:0:0:0:
184,112,106913,2,0,P|256:80|328:112,1,160,8|8,0:0|0:0,0:0:0:0:
400,256,108413,6,0,L|288:256,1,80,8|8,0:0|0:0,0:0:0:0:
336,336,109163,2,0,L|176:336,1,160,8|0,0:0|0:0,0:0:0:0:
184,256,110288,2,0,L|104:256,1,80,0|8,0:0|0:0,0:0:0:0:
160,104,111413,6,0,P|216:48|216:40,1,80,8|8,0:0|0:0,0:0:0:0:
296,56,112163,2,0,P|336:128|432:144,1,160,8|0,0:0|0:0,0:0:0:0:
408,232,113288,2,0,P|368:240|328:280,1,80,0|8,0:0|0:0,0:0:0:0:
176,272,114413,6,0,P|140:199|64:168,2,160,0|8|0,0:0|0:0|0:0,0:0:0:0:
96,288,116288,1,0,0:0:0:0:
32,232,116663,1,8,0:0:0:0:
80,80,117413,6,0,P|128:112|160:104,1,80,8|0,0:0|0:0,0:0:0:0:
224,80,118163,2,0,P|312:80|392:112,1,160,8|8,0:0|0:0,0:0:0:0:
448,144,119288,1,4,0:0:0:0:
336,352,120413,6,0,P|258:359|176:352,2,160,4|8|0,0:0|0:0|0:0,0:0:0:0:
408,320,122288,1,0,0:0:0:0:
472,272,122663,1,8,0:0:0:0:
400,128,123413,5,0,0:0:0:0:
328,160,123788,1,0,0:0:0:0:
256,128,124163,1,8,0:0:0:0:
184,160,124538,1,0,0:0:0:0:
112,128,124913,2,0,L|32:128,2,80,0|0|8,0:0|0:0|0:0,0:0:0:0:
64,280,126413,6,0,B|136:280|152:256|232:256,1,160,0|8,0:0|0:0,0:0:0:0:
384,240,127913,1,0,0:0:0:0:
448,192,128288,1,0,0:0:0:0:
384,144,128663,1,8,0:0:0:0:
224,144,129413,6,0,L|128:144,1,80
120,224,130163,2,0,L|208:224,1,80,8|0,0:0|0:0,0:0:0:0:
224,304,130913,2,0,L|120:304,1,80
64,304,131663,2,0,L|8:136,1,160,8|0,0:0|0:0,0:0:0:0:
152,64,133163,6,0,P|224:88|304:72,1,160,8|0,0:0|0:0,0:0:0:0:
376,40,134288,1,0,0:0:0:0:
456,24,134663,1,8,0:0:0:0:
488,96,135038,1,0,0:0:0:0:
488,176,135413,2,0,P|448:248|272:304,1,240,0|0,0:0|0:0,0:0:0:0:
80,248,137663,5,8,0:0:0:0:
40,176,138038,1,0,0:0:0:0:
120,176,138413,2,0,P|208:216|232:280,2,160,0|8|0,0:0|0:0|0:0,0:0:0:0:
80,104,140288,1,0,0:0:0:0:
160,104,140663,2,0,P|232:136|288:200,1,160,8|0,0:0|0:0,0:0:0:0:
288,280,141788,2,0,P|352:248|352:152,1,160
312,96,142913,5,0,0:0:0:0:
312,96,143288,1,0,0:0:0:0:
312,96,143663,1,8,0:0:0:0:
256,192,156413,12,0,159413,0:0:0:0:
192,208,160538,5,0,0:0:0:0:
216,136,160913,1,0,0:0:0:0:
296,136,161288,1,0,0:0:0:0:
320,208,161663,1,0,0:0:0:0:
256,256,162038,1,0,0:0:0:0:
256,192,162413,12,0,165413,0:0:0:0:
136,272,168413,6,0,B|184:272|208:304|208:304|304:304,1,160
432,232,169913,2,0,B|384:232|360:200|360:200|256:200,1,160
200,200,171038,1,0,0:0:0:0:
88,80,171788,6,0,B|128:104|160:80|160:80|200:48|240:80|240:80|272:104|311:84,1,240
464,136,173663,1,0,0:0:0:0:
408,192,174038,1,0,2:0:0:0:
328,192,174413,6,0,B|276:165|216:208|160:168,3,160
320,160,178538,5,0,0:0:0:0:
256,112,178913,5,0,2:0:0:0:
192,160,179288,5,0,2:0:0:0:
216,232,179663,5,0,2:0:0:0:
296,232,180038,5,0,2:0:0:0:
328,304,180413,6,0,P|264:328|160:288,1,160,8|0,0:0|0:0,0:0:0:0:
64,192,181913,1,0,0:0:0:0:
160,64,182663,1,0,0:0:0:0:
240,64,183038,1,0,0:0:0:0:
320,64,183413,6,0,P|400:96|424:160,1,160,8|0,0:0|0:0,0:0:0:0:
272,216,184913,1,0,0:0:0:0:
424,256,185663,1,0,0:0:0:0:
376,320,186038,1,0,0:0:0:0:
296,344,186413,5,8,0:0:0:0:
216,328,186788,2,0,P|128:296|64:240,2,160
272,272,188663,1,0,0:0:0:0:
136,192,189413,5,0,0:0:0:0:
64,48,190163,1,0,0:0:0:0:
224,64,190913,1,0,0:0:0:0:
80,128,191663,1,0,0:0:0:0:
48,200,192038,1,0,0:0:0:0:
96,264,192413,6,0,P|176:280|256:264,3,160,4|8|0|8,0:0|0:0|0:0|0:0,0:0:0:0:
392,192,195413,6,0,P|400:120|352:32,2,160,0|8|0,0:0|0:0|0:0,0:0:0:0:
312,328,197663,5,8,0:0:0:0:
360,264,198038,1,0,0:0:0:0:
304,208,198413,2,0,P|264:128|288:48,2,160,0|8|0,0:0|0:0|0:0,0:0:0:0:
168,296,200663,5,8,0:0:0:0:
128,224,201038,1,0,0:0:0:0:
208,224,201413,2,0,P|240:136|216:64,1,160,0|8,0:0|0:0,0:0:0:0:
144,72,202538,1,0,0:0:0:0:
80,120,202913,1,0,0:0:0:0:
56,200,203288,1,0,0:0:0:0:
56,280,203663,1,8,0:0:0:0:
208,328,204413,6,0,P|288:328|336:248,1,160,4|8,0:0|0:0,0:0:0:0:
344,192,205538,1,0,0:0:0:0:
336,112,205913,2,0,P|280:48|184:56,1,160,0|8,0:0|0:0,0:0:0:0:
72,128,207413,6,0,P|32:200|72:296,2,160,0|8|0,0:0|0:0|0:0,0:0:0:0:
192,232,209663,5,8,0:0:0:0:
256,280,210038,1,0,0:0:0:0:
264,200,210413,2,0,B|336:216|336:288|336:288|392:264|392:192,1,240
392,112,211913,1,0,0:0:0:0:
264,16,212663,5,8,0:0:0:0:
184,40,213038,1,0,0:0:0:0:
136,112,213413,2,0,P|72:168|48:256,2,160,0|8|0,0:0|0:0|0:0,0:0:0:0:
176,184,215288,2,0,P|136:224|184:328,1,160
240,328,216413,6,0,P|288:256|240:184,2,160,4|8|0,0:0|0:0|0:0,0:0:0:0:
104,248,218663,1,8,0:0:0:0:
120,168,219038,1,0,0:0:0:0:
240,64,219788,5,0,0:0:0:0:
320,40,220163,2,0,P|416:40|480:80,2,160,8|0|8,0:0|0:0|0:0,0:0:0:0:
304,120,222038,1,0,0:0:0:0:
232,144,222413,5,0,0:0:0:0:
96,232,223163,1,8,0:0:0:0:
216,344,223913,1,0,0:0:0:0:
352,256,224663,1,8,0:0:0:0:
232,144,225413,6,0,P|176:112|80:104,2,160,0|8|0,0:0|0:0|0:0,0:0:0:0:
296,200,227288,1,0,0:0:0:0:
352,256,227663,1,8,0:0:0:0:
432,280,228038,1,0,0:0:0:0:
416,200,228413,5,4,0:0:0:0:
320,328,229163,2,0,P|256:280|208:208,1,160,8|0,0:0|0:0,0:0:0:0:
160,64,230663,2,0,P|240:56|344:96,1,160,8|0,0:0|0:0,0:0:0:0:
384,112,231788,5,0,0:0:0:0:
440,168,232163,2,0,P|392:216|280:240,1,160,8|0,0:0|0:0,0:0:0:0:
144,240,233663,1,8,0:0:0:0:
144,240,234038,1,0,0:0:0:0:
80,288,234413,6,0,P|62:253|80:200,1,80
128,160,235163,2,0,P|164:159|212:191,1,80,8|0,0:0|0:0,0:0:0:0:
224,256,235913,1,0,0:0:0:0:
168,320,236288,1,0,0:0:0:0:
144,240,236663,1,8,0:0:0:0:
184,88,237413,5,0,0:0:0:0:
184,88,237788,1,0,0:0:0:0:
256,56,238163,1,8,0:0:0:0:
256,56,238538,1,0,0:0:0:0:
328,88,238913,2,0,P|344:168|328:264,1,160,0|8,0:0|0:0,0:0:0:0:
256,272,240038,1,0,0:0:0:0:
256,192,240413,5,4,0:0:0:0:
