osu file format v14

[General]
AudioFilename: Cytus - The Purified.mp3
AudioLeadIn: 0
PreviewTime: -1
Countdown: 1
SampleSet: Normal
StackLeniency: 0.7
Mode: 0
LetterboxInBreaks: 1
WidescreenStoryboard: 0

[Editor]
DistanceSpacing: 0.7
BeatDivisor: 4
GridSize: 4
TimelineZoom: 1.1

[Metadata]
Title:The Purified
TitleUnicode:The Purified
Artist:Cytus
ArtistUnicode:Cytus
Creator:WilczekCK
Version:Holy Satan
Source:
Tags:Cytus The Purified
BeatmapID:764119
BeatmapSetID:346128

[Difficulty]
HPDrainRate:8
CircleSize:5
OverallDifficulty:6
ApproachRate:9.5
SliderMultiplier:1.4
SliderTickRate:1

[Events]
//Background and Video events
0,0,"645vMCI.jpg",0,0
//Break Periods
2,75656,83113
2,104293,109363
//Storyboard Layer 0 (Background)
//Storyboard Layer 1 (Fail)
//Storyboard Layer 2 (Pass)
//Storyboard Layer 3 (Foreground)
//Storyboard Sound Samples

[TimingPoints]
116,340.909090909091,4,1,0,70,1,0

[Colours]
Combo1 : 145,50,239
Combo2 : 255,255,255
Combo3 : 255,0,6

[HitObjects]
32,104,461,6,0,L|100:176,1,70
191,176,1820,2,0,B|232:209|232:209|251:175|251:175|223:204|223:204|313:161|313:161|352:167|352:167|295:170|295:170|352:244,1,420
106,68,3184,5,0,0:0:0:0:
213,194,3354,1,0,0:0:0:0:
108,227,4547,6,0,B|170:163|341:284|281:24|428:161|481:84,1,385,4|2,0:0|0:0,0:0:0:0:
75,321,5911,5,0,0:0:0:0:
201,221,6081,1,0,0:0:0:0:
274,348,7275,6,0,B|228:282|376:232|280:136|280:136|219:157|219:157|146:262|208:28|220:121,1,455,4|2,0:0|0:0,0:0:0:0:
441,59,8638,2,0,L|387:130,1,70
74,318,9661,5,0,0:0:0:0:
142,184,9831,1,0,0:0:0:0:
381,188,10684,5,0,0:0:0:0:
412,317,10854,1,0,0:0:0:0:
102,226,12743,5,0,0:0:0:0:
123,215,12828,1,0,0:0:0:0:
140,205,12923,5,0,0:0:0:0:
162,191,13008,1,0,0:0:0:0:
183,180,13071,1,0,0:0:0:0:
198,170,13156,5,0,0:0:0:0:
220,156,13241,1,0,0:0:0:0:
241,145,13326,1,0,0:0:0:0:
265,134,13413,6,0,P|314:127|330:180,1,105
314,195,13753,5,0,0:0:0:0:
293,206,13838,1,0,0:0:0:0:
271,220,13923,1,0,0:0:0:0:
256,230,14008,5,0,0:0:0:0:
235,241,14093,1,0,0:0:0:0:
213,255,14178,1,0,0:0:0:0:
196,265,14263,5,0,0:0:0:0:
57,288,14416,6,0,L|71:242,2,35
122,266,14779,6,0,L|108:312,2,35
73,160,15119,5,0,0:0:0:0:
97,118,15204,1,0,0:0:0:0:
182,128,15374,1,0,0:0:0:0:
216,74,15459,2,0,B|268:98|268:98|308:78,1,70
374,87,15799,5,0,0:0:0:0:
391,116,15884,1,0,0:0:0:0:
350,119,15969,1,0,0:0:0:0:
297,183,16139,5,0,0:0:0:0:
314,212,16224,1,0,0:0:0:0:
273,215,16309,1,0,0:0:0:0:
199,210,16479,6,0,L|196:259,2,35
123,259,16820,5,0,0:0:0:0:
108,282,16905,1,0,0:0:0:0:
98,308,16990,1,0,0:0:0:0:
96,330,17075,1,0,0:0:0:0:
108,345,17160,1,0,0:0:0:0:
127,351,17245,1,0,0:0:0:0:
155,354,17330,2,0,L|248:354,1,70
252,358,17585,1,0,0:0:0:0:
275,356,17670,1,0,0:0:0:0:
287,354,17755,1,0,0:0:0:0:
299,345,17840,1,0,0:0:0:0:
309,336,17925,1,0,0:0:0:0:
318,326,18010,1,0,0:0:0:0:
352,274,18184,6,0,L|355:216,1,35
281,232,18354,2,0,L|251:186,1,35
335,184,18524,2,0,L|357:150,1,35
277,130,18694,2,0,L|239:135,1,35
214,210,18864,2,0,L|188:259,1,35
168,146,19034,2,0,L|139:100,1,35
214,73,19204,2,0,L|271:58,1,35
279,59,19374,1,0,0:0:0:0:
303,61,19459,1,0,0:0:0:0:
334,62,19544,1,0,0:0:0:0:
360,65,19629,1,0,0:0:0:0:
424,96,19714,6,0,L|391:134,1,35
483,135,19884,2,0,L|505:181,1,35
431,176,20054,1,0,0:0:0:0:
403,183,20139,1,0,0:0:0:0:
380,183,20224,1,0,0:0:0:0:
354,182,20309,1,0,0:0:0:0:
331,181,20394,1,0,0:0:0:0:
309,179,20479,1,0,0:0:0:0:
290,176,20564,1,0,0:0:0:0:
276,165,20649,1,0,0:0:0:0:
267,154,20734,1,0,0:0:0:0:
268,135,20819,2,0,L|382:134,1,105
432,133,21252,5,0,0:0:0:0:
396,175,21344,1,0,0:0:0:0:
357,214,21429,1,0,0:0:0:0:
456,225,21599,5,0,0:0:0:0:
419,267,21684,1,0,0:0:0:0:
382,306,21769,1,0,0:0:0:0:
73,147,21939,5,0,0:0:0:0:
110,186,22024,1,0,0:0:0:0:
145,223,22109,1,0,0:0:0:0:
39,274,22279,5,0,0:0:0:0:
80,308,22364,1,0,0:0:0:0:
124,341,22449,1,0,0:0:0:0:
252,349,22619,5,0,0:0:0:0:
253,322,22701,1,0,0:0:0:0:
253,294,22786,1,0,0:0:0:0:
253,266,22871,1,0,0:0:0:0:
251,238,22956,1,0,0:0:0:0:
265,213,23042,1,0,0:0:0:0:
282,191,23127,1,0,0:0:0:0:
308,182,23212,1,0,0:0:0:0:
311,154,23297,1,0,0:0:0:0:
293,132,23383,1,0,0:0:0:0:
266,122,23468,1,0,0:0:0:0:
244,139,23553,1,0,0:0:0:0:
254,164,23638,1,0,0:0:0:0:
171,49,23809,6,0,L|134:113,1,70
334,92,24149,2,2,L|374:173,1,70
180,197,24489,2,0,L|134:273,1,70
324,220,24829,2,2,L|363:303,1,70
353,283,25209,6,2,L|324:220,1,70
143,256,25549,2,0,L|180:197,1,70
364,154,25889,2,2,L|334:92,1,70
135,109,26229,2,0,L|171:49,1,70
254,331,26536,5,0,0:0:0:0:
242,309,26621,1,0,0:0:0:0:
230,287,26706,1,0,0:0:0:0:
224,262,26792,1,0,0:0:0:0:
220,237,26877,1,0,0:0:0:0:
230,214,26962,1,0,0:0:0:0:
253,207,27047,1,0,0:0:0:0:
277,211,27133,1,0,0:0:0:0:
297,224,27218,1,0,0:0:0:0:
302,247,27303,1,0,0:0:0:0:
281,259,27388,1,0,0:0:0:0:
257,253,27473,1,0,0:0:0:0:
246,230,27559,1,0,0:0:0:0:
246,205,27644,1,0,0:0:0:0:
256,183,27729,1,0,0:0:0:0:
274,166,27814,1,0,0:0:0:0:
293,151,27900,1,0,0:0:0:0:
313,137,27985,1,0,0:0:0:0:
335,126,28070,1,0,0:0:0:0:
357,116,28155,1,0,0:0:0:0:
379,126,28241,1,0,0:0:0:0:
399,139,28326,1,0,0:0:0:0:
383,158,28411,1,0,0:0:0:0:
362,170,28496,1,0,0:0:0:0:
367,193,28581,1,0,0:0:0:0:
391,195,28667,1,0,0:0:0:0:
415,197,28752,1,0,0:0:0:0:
432,184,28837,2,0,L|476:182,3,35
329,285,29263,5,0,0:0:0:0:
211,327,29433,1,0,0:0:0:0:
177,214,29603,5,0,0:0:0:0:
329,285,29773,1,0,0:0:0:0:
329,285,29943,5,0,0:0:0:0:
307,177,30113,1,0,0:0:0:0:
211,327,30283,5,0,0:0:0:0:
177,214,30453,1,0,0:0:0:0:
244,267,30818,6,0,L|248:176,2,70
100,45,31498,5,0,0:0:0:0:
266,130,31668,1,0,0:0:0:0:
424,323,31838,5,0,0:0:0:0:
318,257,32008,1,0,0:0:0:0:
144,184,32178,5,0,0:0:0:0:
27,317,32348,1,0,0:0:0:0:
458,40,32518,5,0,0:0:0:0:
345,133,32688,2,0,L|277:201,2,70
198,227,33198,5,0,0:0:0:0:
155,202,33368,1,0,0:0:0:0:
203,173,33538,1,0,0:0:0:0:
156,157,33708,1,0,0:0:0:0:
208,129,33878,1,0,0:0:0:0:
159,109,34048,1,0,0:0:0:0:
209,89,34218,2,0,B|183:59|183:59|142:71|142:71|96:30,1,140
74,162,34728,5,0,0:0:0:0:
436,160,34898,1,0,0:0:0:0:
138,333,35068,1,0,0:0:0:0:
247,27,35238,1,0,0:0:0:0:
356,327,35408,1,0,0:0:0:0:
74,162,35577,5,0,0:0:0:0:
436,160,35747,1,0,0:0:0:0:
138,333,35917,1,0,0:0:0:0:
247,27,36087,1,0,0:0:0:0:
356,327,36257,2,0,L|301:264,1,70
261,208,36597,5,0,0:0:0:0:
236,183,36682,1,0,0:0:0:0:
214,160,36767,1,0,0:0:0:0:
160,196,36937,1,0,0:0:0:0:
183,224,37022,1,0,0:0:0:0:
208,252,37107,1,0,0:0:0:0:
134,282,37275,6,0,L|90:215,1,70,0|0,0:3|0:3,0:3:0:0:
134,282,37616,6,0,L|90:215,1,70,0|0,0:3|0:3,0:3:0:0:
134,282,37956,6,0,L|90:215,1,70,0|0,0:3|0:3,0:3:0:0:
134,282,38297,6,0,L|90:215,1,70,0|0,0:3|0:3,0:3:0:0:
134,282,38638,6,0,L|90:215,1,70,0|0,0:3|0:3,0:3:0:0:
134,282,38979,6,0,L|90:215,1,70,0|0,0:3|0:3,0:3:0:0:
134,282,39320,6,0,L|90:215,1,70,0|0,0:3|0:3,0:3:0:0:
134,282,39661,6,0,L|92:216,1,70
171,202,40002,2,0,L|222:285,1,70
287,302,40337,5,0,0:0:0:0:
368,48,40507,1,0,0:0:0:0:
453,305,40677,1,0,0:0:0:0:
407,170,40847,2,0,L|308:172,1,70
138,42,41208,6,0,P|98:116|98:120,1,70
251,162,41548,1,0,0:0:0:0:
106,310,41718,6,0,P|180:350|184:350,1,70
251,162,42058,1,0,0:0:0:0:
374,342,42228,6,0,P|414:268|414:264,1,70
251,162,42567,1,0,0:0:0:0:
406,74,42737,6,0,P|332:34|328:34,1,70
251,162,43077,1,0,0:0:0:0:
111,42,43241,6,0,L|199:41,1,70
109,129,43581,2,0,L|207:128,1,70
103,203,43922,1,0,0:0:0:0:
103,203,44093,2,0,L|256:204,1,140
165,44,44604,5,0,0:0:0:0:
405,157,44775,1,0,0:0:0:0:
118,226,44945,1,0,0:0:0:0:
387,306,45116,1,0,0:0:0:0:
198,110,45286,6,0,P|185:196|188:206,1,70
255,152,45627,1,0,0:0:0:0:
255,152,45797,1,0,0:0:0:0:
330,177,45968,6,0,P|327:142|313:109,1,70
96,87,46479,5,0,0:0:0:0:
425,175,46820,1,0,0:0:0:0:
426,200,46991,1,0,0:0:0:0:
290,279,47331,1,0,0:0:0:0:
258,279,47417,1,0,0:0:0:0:
219,276,47502,1,0,0:0:0:0:
117,222,47672,5,0,0:0:0:0:
186,117,47843,1,0,0:0:0:0:
253,210,48013,1,0,0:0:0:0:
301,114,48184,2,0,L|351:116,2,35
366,217,48525,1,0,0:0:0:0:
422,108,48695,1,0,0:0:0:0:
453,221,48866,2,0,L|503:223,2,35
422,108,49206,1,0,0:0:0:0:
366,217,49377,1,0,0:0:0:0:
301,114,49547,2,0,L|351:116,2,35
253,210,49888,1,0,0:0:0:0:
186,117,50059,1,0,0:0:0:0:
301,114,50229,2,0,L|351:116,2,35
186,117,50570,5,0,0:0:0:0:
253,210,50741,5,0,0:0:0:0:
280,156,50911,6,0,L|330:158,2,35
224,216,51252,6,0,L|174:214,2,35
308,96,51593,6,0,L|358:98,2,35
196,288,51934,6,0,L|146:286,2,35
320,68,52275,6,0,L|370:70,2,35
120,336,52616,6,0,L|70:334,2,35
344,24,52956,6,0,L|394:26,2,35
264,184,53297,6,0,L|198:185,8,35
178,196,55002,6,0,L|118:247,1,70
334,188,56366,6,0,L|394:137,1,70
252,114,57729,6,0,L|201:54,1,70
265,205,58241,5,0,0:0:0:0:
290,206,58326,1,0,0:0:0:0:
314,129,58496,1,0,0:0:0:0:
336,125,58581,1,0,0:0:0:0:
379,236,58752,1,0,0:0:0:0:
401,238,58837,1,0,0:0:0:0:
421,237,58922,1,0,0:0:0:0:
456,238,59008,2,0,L|456:173,3,35
252,270,60456,6,0,L|201:330,1,70
130,82,63354,5,8,0:0:0:0:
212,154,63866,1,8,0:0:0:0:
212,154,63951,1,8,0:0:0:0:
212,154,64036,1,8,0:0:0:0:
212,154,64206,1,8,0:0:0:0:
212,154,64377,1,8,0:0:0:0:
252,238,64547,2,0,B|315:144|318:124|240:196|351:222|183:192|398:173|257:334|317:47|177:259|418:118|314:225|314:225|267:253|268:255,1,280
91,267,65570,6,0,L|125:244,2,35
181,285,65911,1,0,0:0:0:0:
225,236,66081,1,0,0:0:0:0:
278,193,66252,1,0,0:0:0:0:
355,228,66422,2,0,L|354:128,1,70
427,318,67275,6,0,B|526:285|230:247|450:209|450:209|485:258|365:163|460:178|416:178,1,280
455,96,68127,2,0,L|407:93,2,35
400,92,68383,1,0,0:0:0:0:
400,92,68468,1,0,0:0:0:0:
323,93,68638,2,0,L|273:96,2,35
161,143,68979,2,0,B|124:208|126:230|149:180|90:161|79:300|158:207|137:295|161:227|190:199|161:223|162:219,1,140
229,254,69491,5,0,0:0:0:0:
501,340,69661,1,0,0:0:0:0:
391,50,69831,1,0,0:0:0:0:
226,242,70002,1,0,0:0:0:0:
138,110,70343,5,0,0:0:0:0:
138,110,70513,1,0,0:0:0:0:
209,117,70684,2,2,L|208:156,1,35
263,112,70854,2,2,L|257:164,1,35
319,111,71025,2,2,L|321:153,1,35
374,111,71195,2,0,L|379:196,1,70
329,190,71366,2,0,L|281:192,1,35
339,252,71536,2,0,L|289:256,1,35
351,303,71706,2,0,B|388:338|388:338|442:299,1,105
450,239,72047,2,0,L|444:168,2,70,0|2|0,0:0|0:0|0:0,0:0:0:0:
368,248,72559,5,0,0:0:0:0:
280,224,72729,2,0,L|188:208,1,70
216,148,73070,1,0,0:0:0:0:
216,124,73155,1,0,0:0:0:0:
216,96,73241,2,0,L|272:92,2,35
352,100,73581,1,0,0:0:0:0:
160,104,73752,1,0,0:0:0:0:
352,100,73922,1,0,0:0:0:0:
160,104,74093,1,0,0:0:0:0:
64,208,74263,6,0,L|152:208,1,70
64,280,74604,2,0,L|200:280,1,105
248,184,74945,2,0,L|248:260,1,70
336,208,75286,2,0,L|336:252,2,35
240,152,83638,6,0,L|300:192,1,70
240,152,85002,6,0,L|300:192,1,70
240,152,85684,6,0,L|300:192,1,70
240,152,86366,6,0,L|300:192,1,70
328,220,86706,1,0,0:0:0:0:
356,240,86877,1,0,0:0:0:0:
376,256,87047,1,0,0:0:0:0:
408,280,87218,2,0,L|336:232,2,70
456,312,87729,2,0,L|452:228,2,70
452,160,88241,1,0,0:0:0:0:
452,312,88411,1,0,0:0:0:0:
356,352,88752,6,0,L|320:332,1,35
308,256,88922,2,0,L|272:272,1,35
248,344,89093,1,0,0:0:0:0:
212,344,89178,1,0,0:0:0:0:
176,344,89263,1,0,0:0:0:0:
124,308,89434,2,0,L|192:260,4,70
228,236,90286,1,0,0:0:0:0:
252,212,90343,1,0,0:0:0:0:
288,160,90456,2,0,P|128:140|168:340,1,420
232,336,91650,1,0,0:0:0:0:
400,260,91820,6,0,L|408:184,1,70
336,176,92161,2,0,L|312:200,1,23.3333333333333
280,136,92331,2,0,L|280:96,1,23.3333333333333
224,80,92502,5,0,0:0:0:0:
160,196,92672,1,0,0:0:0:0:
308,184,92843,1,0,0:0:0:0:
240,204,93013,2,0,L|252:280,1,70
312,288,93354,1,0,0:0:0:0:
356,280,93411,1,0,0:0:0:0:
436,192,93525,1,0,0:0:0:0:
396,124,93695,2,0,B|352:140|352:140|324:112,1,70
172,68,94036,6,0,L|100:112,1,70
340,316,94377,6,0,L|412:272,1,70
132,276,94718,6,0,L|176:348,1,70
380,108,95059,6,0,L|336:36,1,70
172,188,95400,5,0,0:0:0:0:
208,192,95570,1,0,0:0:0:0:
312,192,95741,1,0,0:0:0:0:
340,176,95826,1,0,0:0:0:0:
368,196,95911,1,0,0:0:0:0:
256,192,96081,12,0,97275,0:0:0:0:
144,124,98468,5,0,0:0:0:0:
392,236,98638,1,0,0:0:0:0:
256,192,100002,5,0,0:0:0:0:
164,240,101195,5,0,0:0:0:0:
244,172,101280,1,0,0:0:0:0:
320,104,101366,1,0,0:0:0:0:
260,192,102729,5,0,0:0:0:0:
416,292,103922,5,0,0:0:0:0:
132,120,104093,1,0,0:0:0:0:
280,112,109888,6,4,L|312:188,1,70,4|0,0:0|0:0,0:0:0:0:
351,134,110229,2,4,L|388:212,1,70,4|0,0:0|0:0,0:0:0:0:
216,176,110570,6,4,L|185:239,1,70,4|0,0:0|0:0,0:0:0:0:
56,336,110911,6,0,L|144:336,1,70
196,336,111252,2,0,L|264:288,1,70
192,240,111593,2,0,L|108:240,1,70
56,240,111934,2,0,L|55:141,1,70
120,56,112275,1,0,0:0:0:0:
120,56,112786,1,0,0:0:0:0:
120,56,112957,1,0,0:0:0:0:
240,84,113127,5,0,0:0:0:0:
272,64,113212,1,0,0:0:0:0:
304,84,113297,1,0,0:0:0:0:
240,160,113468,5,0,0:0:0:0:
272,180,113553,1,0,0:0:0:0:
304,160,113638,1,0,0:0:0:0:
232,124,113809,6,0,L|308:124,1,70
408,168,114150,1,0,0:0:0:0:
248,328,114320,1,0,0:0:0:0:
84,164,114491,1,0,0:0:0:0:
240,28,114661,1,0,0:0:0:0:
152,92,114831,6,0,L|208:140,1,70
356,88,115172,6,0,L|308:144,1,70
360,292,115513,6,0,L|304:244,1,70
156,296,115854,6,0,L|204:240,1,70
256,172,116195,5,0,0:0:0:0:
256,172,116280,5,0,0:0:0:0:
256,172,116366,2,0,L|304:112,1,70
368,48,116706,5,0,0:0:0:0:
124,144,116877,1,0,0:0:0:0:
144,336,117047,5,0,0:0:0:0:
388,240,117218,1,0,0:0:0:0:
176,88,117388,5,0,0:0:0:0:
232,144,117558,1,0,0:0:0:0:
336,248,117729,1,0,0:0:0:0:
284,192,117899,1,0,0:0:0:0:
288,104,118070,2,0,B|348:164|268:80|268:80|300:120,1,140
100,236,118581,5,0,0:0:0:0:
100,212,118667,1,0,0:0:0:0:
100,192,118752,1,0,0:0:0:0:
136,188,118837,1,0,0:0:0:0:
136,168,118922,1,0,0:0:0:0:
160,164,119008,1,0,0:0:0:0:
184,180,119093,2,0,L|184:248,2,35
256,212,119434,6,0,L|292:276,1,70
320,288,119689,1,0,0:0:0:0:
352,288,119775,1,0,0:0:0:0:
372,272,119860,1,0,0:0:0:0:
380,248,119945,1,0,0:0:0:0:
368,228,120030,1,0,0:0:0:0:
352,220,120116,1,0,0:0:0:0:
328,216,120201,2,0,L|328:104,1,105
444,88,120627,5,0,0:0:0:0:
152,236,120797,2,0,L|152:336,1,70
68,88,121138,5,0,0:0:0:0:
360,236,121308,2,0,L|360:336,1,70
288,332,121650,6,0,L|248:316,1,35
264,264,121820,2,0,L|264:224,1,35
212,296,121991,2,0,L|152:336,1,70
168,240,122331,1,0,0:0:0:0:
264,168,122502,1,0,0:0:0:0:
148,140,122672,1,0,0:0:0:0:
148,140,122843,2,0,L|208:96,1,70
292,88,123184,1,0,0:0:0:0:
316,84,123269,1,0,0:0:0:0:
352,80,123354,2,0,P|332:168|328:176,1,70
316,184,123695,2,0,L|280:232,2,35
