osu file format v14

[General]
AudioFilename: Cypis - Impra jest tu.mp3
AudioLeadIn: 0
PreviewTime: -1
Countdown: 0
SampleSet: None
StackLeniency: 0.7
Mode: 0
LetterboxInBreaks: 1
WidescreenStoryboard: 1

[Editor]
Bookmarks: 25655,76800
DistanceSpacing: 0.5
BeatDivisor: 4
GridSize: 4
TimelineZoom: 1.4

[Metadata]
Title:Impra jest tu
TitleUnicode:Impra jest tu
Artist:Cypis
ArtistUnicode:Cypis
Creator:Dolot
Version:Wysoki pojebany AR 10
Source:
Tags:cypis polska polish impra jest tu
BeatmapID:1290660
BeatmapSetID:609312

[Difficulty]
HPDrainRate:8
CircleSize:3
OverallDifficulty:9
ApproachRate:10
SliderMultiplier:2.3
SliderTickRate:1

[Events]
//Background and Video events
//Break Periods
//Storyboard Layer 0 (Background)
//Storyboard Layer 1 (Fail)
//Storyboard Layer 2 (Pass)
//Storyboard Layer 3 (Foreground)
//Storyboard Sound Samples

[TimingPoints]
6450,398.036353986997,4,1,0,100,1,0
19187,-66.6666666666667,4,1,0,100,0,0
70135,397.936353986997,4,1,0,100,1,0
70135,-100,4,1,0,100,0,0
95602,-66.6666666666667,4,1,0,100,0,0
146538,-100,4,1,0,15,0,0
152905,-100,4,1,0,75,0,0

[Colours]
Combo1 : 255,255,255
Combo2 : 255,128,255
Combo3 : 81,159,255
Combo4 : 147,77,242

[HitObjects]
424,112,6450,6,0,P|376:76|288:72,1,115
332,180,6848,1,0,0:0:0:0:
332,180,7047,1,0,0:0:0:0:
228,224,7246,1,0,0:0:0:0:
228,224,7445,1,0,0:0:0:0:
88,272,7644,2,0,P|140:304|224:312,1,115
424,112,8042,6,0,P|372:80|288:72,1,115
88,272,8440,2,0,P|140:304|224:312,1,115
152,104,8838,1,0,0:0:0:0:
360,280,9037,1,0,0:0:0:0:
88,272,9236,1,0,0:0:0:0:
424,112,9435,1,0,0:0:0:0:
256,192,9634,6,0,L|384:192,1,115
256,192,10032,1,0,0:0:0:0:
256,192,10231,1,0,0:0:0:0:
256,192,10430,2,0,L|128:192,1,115
256,192,10828,1,0,0:0:0:0:
256,192,11027,1,0,0:0:0:0:
256,192,11226,6,0,L|256:332,1,115
80,304,11624,1,0,0:0:0:0:
44,184,11823,1,0,0:0:0:0:
144,104,12022,1,0,0:0:0:0:
256,16,12221,1,0,0:0:0:0:
368,104,12420,1,0,0:0:0:0:
468,184,12619,1,0,0:0:0:0:
432,304,12818,1,0,0:0:0:0:
256,192,13017,1,0,0:0:0:0:
256,192,13117,1,0,0:0:0:0:
256,192,13216,1,0,0:0:0:0:
256,16,13415,1,0,0:0:0:0:
144,104,13614,6,0,P|80:132|48:188,1,115
54,167,13913,1,0,0:0:0:0:
54,167,14012,1,0,0:0:0:0:
96,288,14211,1,0,0:0:0:0:
368,280,14410,2,0,P|432:252|464:196,1,115
457,216,14709,1,0,0:0:0:0:
457,216,14808,1,0,0:0:0:0:
416,96,15007,1,0,0:0:0:0:
256,48,15206,5,0,0:0:0:0:
249,102,15305,1,0,0:0:0:0:
269,156,15405,1,0,0:0:0:0:
276,213,15504,1,0,0:0:0:0:
251,264,15604,1,0,0:0:0:0:
256,48,15803,2,0,L|256:-32,2,57.5
256,48,16201,1,0,0:0:0:0:
156,188,16400,6,0,P|108:220|100:320,1,115
368,288,16798,2,0,P|416:256|424:156,1,115
156,188,17196,1,0,0:0:0:0:
368,288,17395,1,0,0:0:0:0:
256,48,17595,1,0,0:0:0:0:
256,48,17794,1,0,0:0:0:0:
256,48,17993,1,0,0:0:0:0:
156,188,18192,1,0,0:0:0:0:
156,188,18391,1,0,0:0:0:0:
368,288,18590,1,0,0:0:0:0:
368,288,18789,1,0,0:0:0:0:
368,288,18988,1,0,0:0:0:0:
256,48,19188,6,0,P|328:72|312:176,1,172.500006580353
280,204,19486,1,0,0:0:0:0:
212,184,19586,2,0,P|140:208|156:312,1,172.500006580353
188,340,19884,1,0,0:0:0:0:
256,336,19984,2,0,B|356:320|264:224|416:216,1,172.500006580353
420,176,20282,1,0,0:0:0:0:
407,109,20381,1,0,0:0:0:0:
360,59,20481,1,0,0:0:0:0:
295,41,20580,1,0,0:0:0:0:
229,60,20680,1,0,0:0:0:0:
184,111,20780,6,0,B|120:144|160:252|68:272,2,172.500006580353
172,180,21277,1,0,0:0:0:0:
184,247,21376,1,0,0:0:0:0:
231,297,21476,1,0,0:0:0:0:
296,315,21576,2,0,B|360:282|320:174|412:154,2,172.500006580353
231,297,22073,1,0,0:0:0:0:
184,247,22172,1,0,0:0:0:0:
172,180,22271,1,0,0:0:0:0:
184,111,22371,2,0,B|120:144|160:252|68:272,2,172.500006580353
312,56,22968,5,0,0:0:0:0:
312,56,23068,1,0,0:0:0:0:
312,56,23167,1,0,0:0:0:0:
184,247,23366,2,0,L|184:339,4,86.2500032901765
60,64,23963,1,0,0:0:0:0:
128,63,24062,1,0,0:0:0:0:
173,112,24162,1,0,0:0:0:0:
221,159,24261,1,0,0:0:0:0:
289,162,24361,1,0,0:0:0:0:
443,137,24560,5,0,0:0:0:0:
463,202,24659,1,0,0:0:0:0:
456,270,24759,1,0,0:0:0:0:
421,329,24858,1,0,0:0:0:0:
365,368,24958,1,0,0:0:0:0:
297,381,25057,1,0,0:0:0:0:
231,364,25157,1,0,0:0:0:0:
177,322,25256,1,0,0:0:0:0:
145,262,25356,1,0,0:0:0:0:
140,194,25455,1,0,0:0:0:0:
165,130,25555,1,0,0:0:0:0:
256,192,25655,12,0,27147,0:0:0:0:
256,192,27247,12,0,28740,0:0:0:0:
256,192,28839,12,0,29536,0:0:0:0:
440,60,29735,5,0,0:0:0:0:
440,60,29834,1,0,0:0:0:0:
440,60,29934,1,0,0:0:0:0:
184,128,30133,1,0,0:0:0:0:
184,128,30232,1,0,0:0:0:0:
184,128,30332,1,0,0:0:0:0:
184,128,30431,1,0,0:0:0:0:
184,128,30531,1,0,0:0:0:0:
184,128,30630,1,0,0:0:0:0:
184,128,30730,1,0,0:0:0:0:
332,256,30929,6,0,L|408:296,2,86.2500032901765
124,260,31327,1,0,0:0:0:0:
124,260,31426,1,0,0:0:0:0:
124,260,31526,1,0,0:0:0:0:
124,260,31625,1,0,0:0:0:0:
124,260,31725,1,0,0:0:0:0:
464,48,31924,5,0,0:0:0:0:
376,48,32123,1,0,0:0:0:0:
288,48,32322,1,0,0:0:0:0:
200,48,32521,1,0,0:0:0:0:
48,136,32720,5,0,0:0:0:0:
136,136,32919,1,0,0:0:0:0:
224,136,33118,1,0,0:0:0:0:
312,136,33317,1,0,0:0:0:0:
464,220,33516,5,0,0:0:0:0:
376,220,33715,1,0,0:0:0:0:
288,220,33914,1,0,0:0:0:0:
200,220,34113,1,0,0:0:0:0:
52,300,34312,5,0,0:0:0:0:
140,300,34511,1,0,0:0:0:0:
228,300,34710,1,0,0:0:0:0:
308,304,34909,1,0,0:0:0:0:
60,56,35108,5,0,0:0:0:0:
452,56,35307,1,0,0:0:0:0:
76,136,35506,1,0,0:0:0:0:
436,136,35705,1,0,0:0:0:0:
100,216,35904,1,0,0:0:0:0:
412,216,36103,1,0,0:0:0:0:
128,296,36302,1,0,0:0:0:0:
384,296,36501,1,0,0:0:0:0:
256,40,36700,5,0,0:0:0:0:
384,296,36899,1,0,0:0:0:0:
256,40,37098,1,0,0:0:0:0:
128,296,37297,1,0,0:0:0:0:
256,40,37496,1,0,0:0:0:0:
128,296,37695,1,0,0:0:0:0:
256,192,37894,1,0,0:0:0:0:
256,192,38093,1,0,0:0:0:0:
84,100,38292,5,0,0:0:0:0:
428,100,38491,1,0,0:0:0:0:
260,344,38690,1,0,0:0:0:0:
256,192,38889,1,0,0:0:0:0:
84,100,39088,1,0,0:0:0:0:
428,100,39287,1,0,0:0:0:0:
260,344,39487,1,0,0:0:0:0:
260,344,39586,1,0,0:0:0:0:
108,232,39885,5,0,0:0:0:0:
356,80,40084,1,0,0:0:0:0:
108,232,40283,1,0,0:0:0:0:
356,80,40482,1,0,0:0:0:0:
236,152,40681,1,0,0:0:0:0:
356,80,40880,1,0,0:0:0:0:
108,232,41079,1,0,0:0:0:0:
108,232,41178,1,0,0:0:0:0:
48,48,41477,5,0,0:0:0:0:
464,336,41676,1,0,0:0:0:0:
48,48,41875,1,0,0:0:0:0:
464,336,42074,1,0,0:0:0:0:
256,192,42273,1,0,0:0:0:0:
356,80,42472,1,0,0:0:0:0:
356,80,42571,1,0,0:0:0:0:
356,80,42870,1,0,0:0:0:0:
24,384,43069,5,0,0:0:0:0:
24,384,43268,1,0,0:0:0:0:
24,384,43467,1,0,0:0:0:0:
24,384,43666,1,0,0:0:0:0:
24,280,43865,1,0,0:0:0:0:
24,280,43964,1,0,0:0:0:0:
24,188,44163,1,0,0:0:0:0:
24,188,44462,1,0,0:0:0:0:
288,60,44661,5,0,0:0:0:0:
288,60,44860,1,0,0:0:0:0:
404,280,45059,1,0,0:0:0:0:
404,280,45258,1,0,0:0:0:0:
288,60,45457,1,0,0:0:0:0:
404,280,45656,1,0,0:0:0:0:
404,280,45855,1,0,0:0:0:0:
288,60,46054,1,0,0:0:0:0:
404,280,46253,1,0,0:0:0:0:
404,280,46452,1,0,0:0:0:0:
288,60,46651,1,0,0:0:0:0:
404,280,46850,1,0,0:0:0:0:
404,280,47049,1,0,0:0:0:0:
288,60,47248,1,0,0:0:0:0:
404,280,47447,1,0,0:0:0:0:
404,280,47646,1,0,0:0:0:0:
56,48,47845,5,0,0:0:0:0:
80,252,48044,1,0,0:0:0:0:
56,48,48243,1,0,0:0:0:0:
256,304,48442,1,0,0:0:0:0:
56,48,48641,1,0,0:0:0:0:
432,252,48840,1,0,0:0:0:0:
56,48,49039,1,0,0:0:0:0:
56,48,49139,1,0,0:0:0:0:
468,40,49437,5,0,0:0:0:0:
468,40,49636,1,0,0:0:0:0:
468,40,49835,1,0,0:0:0:0:
468,40,50034,1,0,0:0:0:0:
468,40,50233,1,0,0:0:0:0:
468,40,50433,1,0,0:0:0:0:
468,40,50632,1,0,0:0:0:0:
468,40,50831,1,0,0:0:0:0:
48,344,51030,5,0,0:0:0:0:
136,340,51229,1,0,0:0:0:0:
216,308,51428,1,0,0:0:0:0:
284,252,51627,1,0,0:0:0:0:
328,180,51826,1,0,0:0:0:0:
344,96,52025,1,0,0:0:0:0:
292,28,52224,1,0,0:0:0:0:
208,20,52423,1,0,0:0:0:0:
464,48,52622,5,0,0:0:0:0:
464,136,52821,1,0,0:0:0:0:
440,220,53020,1,0,0:0:0:0:
384,284,53219,1,0,0:0:0:0:
300,308,53418,1,0,0:0:0:0:
300,308,53617,1,0,0:0:0:0:
212,312,53816,1,0,0:0:0:0:
128,288,54015,1,0,0:0:0:0:
60,72,54214,5,0,0:0:0:0:
148,72,54413,1,0,0:0:0:0:
236,72,54612,1,0,0:0:0:0:
324,72,54811,1,0,0:0:0:0:
324,160,55010,1,0,0:0:0:0:
236,164,55209,1,0,0:0:0:0:
148,168,55408,1,0,0:0:0:0:
148,168,55507,1,0,0:0:0:0:
60,168,55806,5,0,0:0:0:0:
60,256,56005,1,0,0:0:0:0:
148,256,56204,1,0,0:0:0:0:
236,256,56403,1,0,0:0:0:0:
324,252,56602,1,0,0:0:0:0:
324,252,56801,1,0,0:0:0:0:
412,252,57000,1,0,0:0:0:0:
412,252,57100,1,0,0:0:0:0:
216,36,57398,5,0,0:0:0:0:
296,36,57597,1,0,0:0:0:0:
160,88,57796,1,0,0:0:0:0:
352,88,57995,1,0,0:0:0:0:
104,140,58194,1,0,0:0:0:0:
408,140,58393,1,0,0:0:0:0:
104,216,58592,1,0,0:0:0:0:
408,216,58791,1,0,0:0:0:0:
160,268,58990,1,0,0:0:0:0:
352,268,59189,1,0,0:0:0:0:
216,316,59388,1,0,0:0:0:0:
296,316,59587,1,0,0:0:0:0:
260,192,59786,1,0,0:0:0:0:
260,192,59985,1,0,0:0:0:0:
260,192,60184,1,0,0:0:0:0:
260,192,60383,1,0,0:0:0:0:
448,108,60582,5,0,0:0:0:0:
387,47,60781,1,0,0:0:0:0:
326,107,60980,1,0,0:0:0:0:
265,46,61179,1,0,0:0:0:0:
203,107,61379,1,0,0:0:0:0:
203,107,61478,1,0,0:0:0:0:
144,44,61777,1,0,0:0:0:0:
83,104,61976,1,0,0:0:0:0:
143,164,62175,5,0,0:0:0:0:
203,224,62374,1,0,0:0:0:0:
263,163,62573,1,0,0:0:0:0:
323,223,62772,1,0,0:0:0:0:
383,162,62971,1,0,0:0:0:0:
443,222,63170,1,0,0:0:0:0:
443,222,63369,1,0,0:0:0:0:
382,282,63568,1,0,0:0:0:0:
56,304,63767,5,0,0:0:0:0:
452,56,63966,1,0,0:0:0:0:
56,304,64165,1,0,0:0:0:0:
452,56,64364,1,0,0:0:0:0:
148,128,64563,1,0,0:0:0:0:
348,64,64762,1,0,0:0:0:0:
404,252,64961,1,0,0:0:0:0:
192,304,65160,1,0,0:0:0:0:
88,44,65359,5,0,0:0:0:0:
476,136,65558,1,0,0:0:0:0:
88,240,65757,1,0,0:0:0:0:
336,328,65956,1,0,0:0:0:0:
200,40,66155,1,0,0:0:0:0:
476,336,66354,1,0,0:0:0:0:
460,40,66553,1,0,0:0:0:0:
72,344,66752,1,0,0:0:0:0:
88,44,66951,5,0,0:0:0:0:
480,232,67150,1,0,0:0:0:0:
188,276,67349,1,0,0:0:0:0:
360,44,67548,1,0,0:0:0:0:
336,328,67747,1,0,0:0:0:0:
72,344,67946,1,0,0:0:0:0:
356,168,68145,1,0,0:0:0:0:
356,168,68245,1,0,0:0:0:0:
68,192,68543,5,0,0:0:0:0:
360,44,68742,1,0,0:0:0:0:
336,328,68941,1,0,0:0:0:0:
128,48,69140,1,0,0:0:0:0:
188,276,69339,1,0,0:0:0:0:
456,240,69538,1,0,0:0:0:0:
360,44,69737,1,0,0:0:0:0:
360,44,69837,1,0,0:0:0:0:
128,48,70135,6,0,L|276:48,1,115
384,336,70532,2,0,L|236:336,1,115
120,64,70930,2,0,L|268:64,1,115
392,320,71328,2,0,L|244:320,1,115
48,192,71726,5,0,0:0:0:0:
48,192,71925,1,0,0:0:0:0:
256,192,72124,1,0,0:0:0:0:
256,192,72323,1,0,0:0:0:0:
464,192,72522,1,0,0:0:0:0:
464,192,72721,1,0,0:0:0:0:
256,40,72920,1,0,0:0:0:0:
48,192,73119,1,0,0:0:0:0:
464,192,73318,6,0,L|464:60,2,115
256,316,73915,1,0,0:0:0:0:
256,260,74014,1,0,0:0:0:0:
256,204,74114,1,0,0:0:0:0:
64,316,74313,1,0,0:0:0:0:
92,264,74412,1,0,0:0:0:0:
140,228,74512,1,0,0:0:0:0:
196,208,74611,1,0,0:0:0:0:
256,204,74711,1,0,0:0:0:0:
312,208,74810,1,0,0:0:0:0:
372,228,74910,6,0,P|428:284|456:332,1,115
447,313,75208,1,0,0:0:0:0:
468,260,75308,1,0,0:0:0:0:
480,204,75407,1,0,0:0:0:0:
476,148,75507,1,0,0:0:0:0:
452,96,75606,1,0,0:0:0:0:
408,60,75706,1,0,0:0:0:0:
352,48,75805,1,0,0:0:0:0:
296,48,75905,1,0,0:0:0:0:
244,72,76004,1,0,0:0:0:0:
224,128,76104,1,0,0:0:0:0:
244,180,76203,1,0,0:0:0:0:
268,232,76303,1,0,0:0:0:0:
264,288,76402,1,0,0:0:0:0:
224,328,76501,6,0,P|140:284|116:228,1,115
48,187,76899,1,0,0:0:0:0:
132,88,77098,1,0,0:0:0:0:
132,88,77198,1,0,0:0:0:0:
132,88,77297,1,0,0:0:0:0:
213,169,77496,1,0,0:0:0:0:
294,87,77695,1,0,0:0:0:0:
375,168,77894,2,0,L|448:168,2,57.5
293,86,78292,1,0,0:0:0:0:
293,86,78491,1,0,0:0:0:0:
211,167,78690,5,0,0:0:0:0:
211,167,78790,1,0,0:0:0:0:
211,167,78889,1,0,0:0:0:0:
129,248,79088,1,0,0:0:0:0:
129,248,79287,1,0,0:0:0:0:
48,328,79486,2,0,L|152:328,2,57.5
163,328,79884,1,0,0:0:0:0:
278,328,80083,1,0,0:0:0:0:
393,328,80282,5,0,0:0:0:0:
433,287,80381,1,0,0:0:0:0:
392,246,80481,1,0,0:0:0:0:
473,164,80680,1,0,0:0:0:0:
473,164,80879,1,0,0:0:0:0:
76,88,81078,1,0,0:0:0:0:
132,68,81177,1,0,0:0:0:0:
188,56,81277,1,0,0:0:0:0:
348,76,81476,1,0,0:0:0:0:
80,240,81675,1,0,0:0:0:0:
132,268,81774,1,0,0:0:0:0:
188,272,81874,1,0,0:0:0:0:
244,276,81973,1,0,0:0:0:0:
300,264,82073,1,0,0:0:0:0:
348,76,82272,1,0,0:0:0:0:
188,56,82471,1,0,0:0:0:0:
132,68,82669,1,0,0:0:0:0:
76,88,82868,6,0,P|112:144|196:180,1,115
151,169,83266,1,0,0:0:0:0:
151,169,83465,1,0,0:0:0:0:
348,76,83664,1,0,0:0:0:0:
348,76,83863,1,0,0:0:0:0:
424,160,84062,1,0,0:0:0:0:
424,160,84261,1,0,0:0:0:0:
412,276,84460,6,0,P|360:256|268:256,1,115
188,272,84858,1,0,0:0:0:0:
80,236,85057,1,0,0:0:0:0:
188,272,85256,1,0,0:0:0:0:
80,236,85455,1,0,0:0:0:0:
256,40,85654,1,0,0:0:0:0:
256,40,85754,1,0,0:0:0:0:
256,40,85853,1,0,0:0:0:0:
256,40,85952,1,0,0:0:0:0:
256,40,86052,5,0,0:0:0:0:
256,40,86251,1,0,0:0:0:0:
256,40,86450,2,0,L|256:180,1,115
256,272,86848,1,0,0:0:0:0:
464,152,87047,1,0,0:0:0:0:
256,272,87246,1,0,0:0:0:0:
48,152,87445,1,0,0:0:0:0:
256,272,87644,5,0,0:0:0:0:
256,52,87843,1,0,0:0:0:0:
256,52,87942,1,0,0:0:0:0:
256,52,88042,2,0,L|256:188,2,115
256,52,88639,1,0,0:0:0:0:
256,52,88838,1,0,0:0:0:0:
256,272,89036,1,0,0:0:0:0:
256,216,89136,1,0,0:0:0:0:
256,272,89235,5,0,0:0:0:0:
256,272,89434,1,0,0:0:0:0:
256,272,89633,1,0,0:0:0:0:
40,192,89832,1,0,0:0:0:0:
155,192,89932,1,0,0:0:0:0:
269,192,90031,1,0,0:0:0:0:
256,52,90230,1,0,0:0:0:0:
256,52,90429,1,0,0:0:0:0:
472,192,90628,1,0,0:0:0:0:
357,192,90728,1,0,0:0:0:0:
243,192,90827,1,0,0:0:0:0:
256,52,91026,1,0,0:0:0:0:
256,52,91225,1,0,0:0:0:0:
56,52,91424,5,0,0:0:0:0:
112,68,91524,1,0,0:0:0:0:
156,104,91623,1,0,0:0:0:0:
256,52,91822,1,0,0:0:0:0:
256,52,92021,1,0,0:0:0:0:
456,52,92220,1,0,0:0:0:0:
400,68,92320,1,0,0:0:0:0:
356,104,92419,1,0,0:0:0:0:
256,52,92618,1,0,0:0:0:0:
256,52,92817,1,0,0:0:0:0:
408,256,93016,5,0,0:0:0:0:
356,280,93115,1,0,0:0:0:0:
300,296,93215,1,0,0:0:0:0:
244,304,93314,1,0,0:0:0:0:
188,296,93414,1,0,0:0:0:0:
100,224,93613,1,0,0:0:0:0:
100,224,93812,1,0,0:0:0:0:
100,224,94011,1,0,0:0:0:0:
256,52,94210,5,0,0:0:0:0:
312,64,94309,1,0,0:0:0:0:
360,96,94409,1,0,0:0:0:0:
380,148,94508,1,0,0:0:0:0:
372,204,94608,1,0,0:0:0:0:
320,228,94707,1,0,0:0:0:0:
264,232,94807,1,0,0:0:0:0:
224,192,94906,1,0,0:0:0:0:
180,152,95006,1,0,0:0:0:0:
124,140,95105,1,0,0:0:0:0:
72,164,95204,1,0,0:0:0:0:
56,220,95304,1,0,0:0:0:0:
80,272,95403,1,0,0:0:0:0:
440,64,95602,5,0,0:0:0:0:
440,64,95801,1,0,0:0:0:0:
460,148,96000,1,0,0:0:0:0:
460,148,96199,1,0,0:0:0:0:
428,228,96398,1,0,0:0:0:0:
428,228,96597,1,0,0:0:0:0:
356,276,96796,1,0,0:0:0:0:
356,276,96995,1,0,0:0:0:0:
272,296,97194,5,0,0:0:0:0:
200,252,97393,1,0,0:0:0:0:
272,296,97592,1,0,0:0:0:0:
204,244,97791,1,0,0:0:0:0:
276,208,97990,1,0,0:0:0:0:
276,208,98189,1,0,0:0:0:0:
356,176,98388,1,0,0:0:0:0:
356,176,98587,1,0,0:0:0:0:
288,124,98786,5,0,0:0:0:0:
208,96,98985,1,0,0:0:0:0:
276,40,99184,1,0,0:0:0:0:
288,124,99383,1,0,0:0:0:0:
96,168,99582,1,0,0:0:0:0:
120,84,99781,1,0,0:0:0:0:
208,96,99980,1,0,0:0:0:0:
120,84,100179,1,0,0:0:0:0:
108,304,100378,5,0,0:0:0:0:
180,256,100577,1,0,0:0:0:0:
180,256,100676,1,0,0:0:0:0:
180,256,100776,1,0,0:0:0:0:
252,304,100975,1,0,0:0:0:0:
336,280,101174,1,0,0:0:0:0:
252,304,101373,1,0,0:0:0:0:
336,280,101571,1,0,0:0:0:0:
336,280,101770,1,0,0:0:0:0:
48,40,101969,5,0,0:0:0:0:
48,40,102168,1,0,0:0:0:0:
134,40,102367,1,0,0:0:0:0:
134,40,102566,1,0,0:0:0:0:
220,40,102765,1,0,0:0:0:0:
306,40,102964,1,0,0:0:0:0:
392,40,103163,1,0,0:0:0:0:
478,40,103362,1,0,0:0:0:0:
464,344,103561,5,0,0:0:0:0:
464,344,103760,1,0,0:0:0:0:
378,344,103959,1,0,0:0:0:0:
378,344,104158,1,0,0:0:0:0:
292,344,104357,1,0,0:0:0:0:
206,344,104556,1,0,0:0:0:0:
120,344,104755,1,0,0:0:0:0:
34,344,104954,1,0,0:0:0:0:
256,68,105153,5,0,0:0:0:0:
84,192,105352,1,0,0:0:0:0:
256,316,105551,1,0,0:0:0:0:
428,192,105750,1,0,0:0:0:0:
104,60,105949,1,0,0:0:0:0:
408,324,106148,1,0,0:0:0:0:
408,60,106347,1,0,0:0:0:0:
104,324,106546,1,0,0:0:0:0:
24,192,106745,5,0,0:0:0:0:
256,192,106944,1,0,0:0:0:0:
488,192,107143,1,0,0:0:0:0:
256,192,107342,1,0,0:0:0:0:
104,60,107541,1,0,0:0:0:0:
104,324,107739,1,0,0:0:0:0:
408,60,107938,1,0,0:0:0:0:
408,324,108137,1,0,0:0:0:0:
256,36,108336,5,0,0:0:0:0:
256,36,108535,1,0,0:0:0:0:
408,60,108734,1,0,0:0:0:0:
408,60,108933,1,0,0:0:0:0:
488,192,109132,1,0,0:0:0:0:
488,192,109331,1,0,0:0:0:0:
408,324,109530,1,0,0:0:0:0:
408,324,109729,1,0,0:0:0:0:
256,348,109928,5,0,0:0:0:0:
256,348,110127,1,0,0:0:0:0:
104,324,110326,1,0,0:0:0:0:
104,324,110525,1,0,0:0:0:0:
24,192,110724,1,0,0:0:0:0:
24,192,110923,1,0,0:0:0:0:
104,60,111122,1,0,0:0:0:0:
104,60,111221,1,0,0:0:0:0:
104,60,111321,1,0,0:0:0:0:
364,52,111520,5,0,0:0:0:0:
364,52,111719,1,0,0:0:0:0:
364,140,111918,1,0,0:0:0:0:
364,140,112117,1,0,0:0:0:0:
364,228,112316,1,0,0:0:0:0:
364,272,112415,1,0,0:0:0:0:
364,316,112515,1,0,0:0:0:0:
364,228,112714,1,0,0:0:0:0:
364,272,112813,1,0,0:0:0:0:
364,316,112913,1,0,0:0:0:0:
104,304,113112,5,0,0:0:0:0:
43,243,113311,1,0,0:0:0:0:
103,182,113510,1,0,0:0:0:0:
42,121,113709,1,0,0:0:0:0:
102,60,113907,1,0,0:0:0:0:
41,0,114106,1,0,0:0:0:0:
102,60,114305,1,0,0:0:0:0:
42,121,114405,1,0,0:0:0:0:
103,182,114504,1,0,0:0:0:0:
420,52,114703,5,0,0:0:0:0:
384,132,114902,1,0,0:0:0:0:
304,160,115101,1,0,0:0:0:0:
224,128,115300,1,0,0:0:0:0:
280,64,115499,1,0,0:0:0:0:
200,28,115698,1,0,0:0:0:0:
116,52,115897,1,0,0:0:0:0:
116,52,116096,1,0,0:0:0:0:
92,272,116295,5,0,0:0:0:0:
92,272,116594,1,0,0:0:0:0:
92,272,116892,1,0,0:0:0:0:
172,308,117091,1,0,0:0:0:0:
256,300,117290,1,0,0:0:0:0:
332,260,117489,1,0,0:0:0:0:
372,184,117688,1,0,0:0:0:0:
344,104,117887,5,0,0:0:0:0:
344,104,117986,1,0,0:0:0:0:
344,104,118086,1,0,0:0:0:0:
264,72,118285,1,0,0:0:0:0:
264,72,118484,1,0,0:0:0:0:
180,56,118683,1,0,0:0:0:0:
180,56,118882,1,0,0:0:0:0:
96,80,119081,1,0,0:0:0:0:
96,80,119180,1,0,0:0:0:0:
96,80,119280,1,0,0:0:0:0:
372,184,119479,5,0,0:0:0:0:
285,184,119678,1,0,0:0:0:0:
198,184,119877,1,0,0:0:0:0:
111,184,120076,1,0,0:0:0:0:
111,269,120274,1,0,0:0:0:0:
197,269,120473,1,0,0:0:0:0:
283,269,120672,1,0,0:0:0:0:
369,269,120871,1,0,0:0:0:0:
48,40,121070,5,0,0:0:0:0:
134,40,121269,1,0,0:0:0:0:
220,40,121468,1,0,0:0:0:0:
306,40,121667,1,0,0:0:0:0:
392,40,121866,1,0,0:0:0:0:
478,40,122065,1,0,0:0:0:0:
478,40,122264,1,0,0:0:0:0:
478,40,122364,1,0,0:0:0:0:
478,40,122463,1,0,0:0:0:0:
48,128,122662,5,0,0:0:0:0:
48,128,122861,1,0,0:0:0:0:
134,128,123060,1,0,0:0:0:0:
134,128,123259,1,0,0:0:0:0:
220,128,123458,1,0,0:0:0:0:
220,128,123657,1,0,0:0:0:0:
306,128,123856,1,0,0:0:0:0:
306,128,123955,1,0,0:0:0:0:
306,128,124055,1,0,0:0:0:0:
440,264,124254,5,0,0:0:0:0:
400,284,124353,1,0,0:0:0:0:
356,288,124453,1,0,0:0:0:0:
292,220,124652,1,0,0:0:0:0:
252,204,124751,1,0,0:0:0:0:
208,200,124851,1,0,0:0:0:0:
144,256,125050,1,0,0:0:0:0:
144,256,125249,1,0,0:0:0:0:
64,220,125448,1,0,0:0:0:0:
72,176,125547,1,0,0:0:0:0:
100,140,125647,1,0,0:0:0:0:
144,64,125846,5,0,0:0:0:0:
144,64,126045,1,0,0:0:0:0:
208,120,126244,1,0,0:0:0:0:
208,120,126442,1,0,0:0:0:0:
276,68,126641,1,0,0:0:0:0:
360,92,126840,1,0,0:0:0:0:
392,120,126940,1,0,0:0:0:0:
412,160,127039,1,0,0:0:0:0:
384,240,127238,1,0,0:0:0:0:
76,236,127437,5,0,0:0:0:0:
136,296,127636,1,0,0:0:0:0:
196,235,127835,1,0,0:0:0:0:
135,174,128034,1,0,0:0:0:0:
436,148,128233,1,0,0:0:0:0:
376,88,128432,1,0,0:0:0:0:
316,149,128631,1,0,0:0:0:0:
377,210,128830,1,0,0:0:0:0:
256,192,129029,5,0,0:0:0:0:
256,192,129228,1,0,0:0:0:0:
256,192,129328,1,0,0:0:0:0:
256,192,129427,1,0,0:0:0:0:
256,192,129527,1,0,0:0:0:0:
256,192,129626,1,0,0:0:0:0:
256,192,129725,1,0,0:0:0:0:
256,192,129825,1,0,0:0:0:0:
256,104,130024,1,0,0:0:0:0:
180,64,130223,1,0,0:0:0:0:
256,104,130422,1,0,0:0:0:0:
332,60,130621,5,0,0:0:0:0:
400,112,130820,1,0,0:0:0:0:
432,192,131019,1,0,0:0:0:0:
412,276,131218,1,0,0:0:0:0:
332,304,131417,1,0,0:0:0:0:
332,304,131616,1,0,0:0:0:0:
248,320,131815,1,0,0:0:0:0:
248,320,132014,1,0,0:0:0:0:
48,112,132213,5,0,0:0:0:0:
260,36,132412,1,0,0:0:0:0:
464,112,132611,1,0,0:0:0:0:
260,36,132809,1,0,0:0:0:0:
464,272,133008,5,0,0:0:0:0:
252,348,133207,1,0,0:0:0:0:
48,272,133406,1,0,0:0:0:0:
252,348,133604,1,0,0:0:0:0:
256,336,133804,6,0,P|184:312|200:208,1,172.500006580353
232,180,134103,1,0,0:0:0:0:
300,200,134202,2,0,P|372:176|356:72,1,172.500006580353
324,44,134501,1,0,0:0:0:0:
256,48,134600,2,0,B|156:64|248:160|96:168,1,172.500006580353
92,208,134899,1,0,0:0:0:0:
105,275,134998,1,0,0:0:0:0:
152,325,135098,1,0,0:0:0:0:
217,343,135197,1,0,0:0:0:0:
283,324,135297,1,0,0:0:0:0:
328,273,135396,6,0,B|392:240|352:132|444:112,2,172.500006580353
340,204,135893,1,0,0:0:0:0:
328,137,135993,1,0,0:0:0:0:
281,87,136092,1,0,0:0:0:0:
216,69,136192,2,0,B|152:102|192:210|100:230,2,172.500006580353
281,87,136689,1,0,0:0:0:0:
328,137,136789,1,0,0:0:0:0:
340,204,136888,1,0,0:0:0:0:
328,273,136988,2,0,B|392:240|352:132|444:112,2,172.500006580353
200,328,137585,5,0,0:0:0:0:
200,328,137684,1,0,0:0:0:0:
200,328,137784,1,0,0:0:0:0:
328,137,137983,2,0,L|328:45,4,86.2500032901765
452,320,138580,1,0,0:0:0:0:
384,321,138679,1,0,0:0:0:0:
339,272,138779,1,0,0:0:0:0:
291,225,138878,1,0,0:0:0:0:
223,222,138977,1,0,0:0:0:0:
69,247,139176,5,0,0:0:0:0:
49,182,139276,1,0,0:0:0:0:
56,114,139375,1,0,0:0:0:0:
91,55,139475,1,0,0:0:0:0:
147,16,139574,1,0,0:0:0:0:
215,3,139674,1,0,0:0:0:0:
281,20,139773,1,0,0:0:0:0:
335,62,139873,1,0,0:0:0:0:
367,122,139972,1,0,0:0:0:0:
372,190,140072,1,0,0:0:0:0:
347,254,140171,1,0,0:0:0:0:
256,192,140271,12,0,141763,0:0:0:0:
256,192,141863,12,0,143356,0:0:0:0:
256,192,143454,12,0,144151,0:0:0:0:
72,324,144350,5,0,0:0:0:0:
72,324,144449,1,0,0:0:0:0:
72,324,144549,1,0,0:0:0:0:
328,256,144748,1,0,0:0:0:0:
328,256,144847,1,0,0:0:0:0:
328,256,144947,1,0,0:0:0:0:
328,256,145046,1,0,0:0:0:0:
328,256,145146,1,0,0:0:0:0:
328,256,145245,1,0,0:0:0:0:
328,256,145344,1,0,0:0:0:0:
180,128,145543,6,0,L|104:88,2,86.2500032901765
388,124,145941,1,0,0:0:0:0:
388,124,146041,1,0,0:0:0:0:
388,124,146140,1,0,0:0:0:0:
388,124,146240,1,0,0:0:0:0:
388,124,146339,1,0,0:0:0:0:
384,336,146538,6,0,L|236:336,1,115
128,48,146935,2,0,L|276:48,1,115
392,320,147333,2,0,L|244:320,1,115
120,64,147731,2,0,L|268:64,1,115
464,192,148129,5,0,0:0:0:0:
464,192,148328,1,0,0:0:0:0:
256,192,148527,1,0,0:0:0:0:
256,192,148726,1,0,0:0:0:0:
48,192,148925,1,0,0:0:0:0:
48,192,149124,1,0,0:0:0:0:
256,344,149323,1,0,0:0:0:0:
464,192,149522,1,0,0:0:0:0:
48,192,149721,6,0,L|48:324,2,115
256,68,150318,1,0,0:0:0:0:
256,124,150417,1,0,0:0:0:0:
256,180,150517,1,0,0:0:0:0:
448,68,150716,1,0,0:0:0:0:
420,120,150815,1,0,0:0:0:0:
372,156,150915,1,0,0:0:0:0:
316,176,151014,1,0,0:0:0:0:
256,180,151114,1,0,0:0:0:0:
200,176,151213,1,0,0:0:0:0:
140,156,151313,6,0,P|84:100|56:52,1,115
65,71,151611,1,0,0:0:0:0:
44,124,151711,1,0,0:0:0:0:
32,180,151810,1,0,0:0:0:0:
36,236,151910,1,0,0:0:0:0:
60,288,152009,1,0,0:0:0:0:
104,324,152109,1,0,0:0:0:0:
160,336,152208,1,0,0:0:0:0:
216,336,152308,1,0,0:0:0:0:
268,312,152407,1,0,0:0:0:0:
288,256,152507,1,0,0:0:0:0:
268,204,152606,1,0,0:0:0:0:
244,152,152706,1,0,0:0:0:0:
248,96,152805,1,0,0:0:0:0:
288,56,152904,6,0,P|372:100|396:156,1,115
464,197,153303,1,0,0:0:0:0:
380,296,153502,1,0,0:0:0:0:
380,296,153602,1,0,0:0:0:0:
380,296,153701,1,0,0:0:0:0:
299,215,153900,1,0,0:0:0:0:
218,297,154099,1,0,0:0:0:0:
137,216,154298,2,0,L|64:216,2,57.5
219,298,154696,1,0,0:0:0:0:
219,298,154895,1,0,0:0:0:0:
301,217,155094,5,0,0:0:0:0:
301,217,155194,1,0,0:0:0:0:
301,217,155293,1,0,0:0:0:0:
383,136,155492,1,0,0:0:0:0:
383,136,155691,1,0,0:0:0:0:
464,56,155890,2,0,L|360:56,2,57.5
349,56,156288,1,0,0:0:0:0:
234,56,156487,1,0,0:0:0:0:
119,56,156686,5,0,0:0:0:0:
79,97,156785,1,0,0:0:0:0:
120,138,156885,1,0,0:0:0:0:
39,220,157084,1,0,0:0:0:0:
39,220,157283,1,0,0:0:0:0:
436,296,157482,1,0,0:0:0:0:
380,316,157581,1,0,0:0:0:0:
324,328,157681,1,0,0:0:0:0:
164,308,157880,1,0,0:0:0:0:
432,144,158079,1,0,0:0:0:0:
380,116,158178,1,0,0:0:0:0:
324,112,158278,1,0,0:0:0:0:
268,108,158377,1,0,0:0:0:0:
212,120,158477,1,0,0:0:0:0:
164,308,158676,1,0,0:0:0:0:
324,328,158875,1,0,0:0:0:0:
380,316,159073,1,0,0:0:0:0:
472,44,159272,5,0,0:0:0:0:
