osu file format v14

[General]
AudioFilename: End of the World.mp3
AudioLeadIn: 0
PreviewTime: 148051
Countdown: 0
SampleSet: Normal
StackLeniency: 0.7
Mode: 1
LetterboxInBreaks: 0
WidescreenStoryboard: 0

[Editor]
DistanceSpacing: 1.6
BeatDivisor: 12
GridSize: 32
TimelineZoom: 2.999999

[Metadata]
Title:End of the World
TitleUnicode:End of the World
Artist:CyoucyoP feat.Hatsune Miku
ArtistUnicode:蝶々P feat.初音ミク
Creator:TKS
Version:Oni
Source:
Tags:vocaloid papiyon VOCAROCK chouchou
BeatmapID:506032
BeatmapSetID:215476

[Difficulty]
HPDrainRate:6
CircleSize:5
OverallDifficulty:6
ApproachRate:5
SliderMultiplier:1.4
SliderTickRate:1

[Events]
//Background and Video events
0,0,"bg_mini.jpg",0,180
Video,25,"endof.avi"
//Break Periods
//Storyboard Layer 0 (Background)
//Storyboard Layer 1 (Fail)
//Storyboard Layer 2 (Pass)
//Storyboard Layer 3 (Foreground)
//Storyboard Sound Samples

[TimingPoints]
1963,319.148936170213,4,1,0,85,1,0
12814,319.148936170213,4,1,0,85,1,0
33452,-111.111111111111,4,1,0,70,0,0
43425,-100,4,1,0,85,0,0
53665,319.148936170213,3,1,0,70,1,0
53718,-125,3,1,0,70,0,0
59409,319.148936170213,4,1,0,85,1,0
61324,319.148936170213,4,1,0,85,1,1
71536,-100,4,1,0,85,0,0
82042,-111.111111111111,4,1,0,70,0,0
102175,319.148936170213,3,1,0,70,1,0
102175,-111.111111111111,3,1,0,70,0,0
102467,-125,3,1,0,70,0,0
107919,319.148936170213,4,1,0,85,1,0
109249,-100,3,3,0,5,0,0
109781,-100,3,1,0,85,0,0
109834,319.148936170213,4,1,0,85,1,1
130259,-100,4,1,0,85,0,0
135365,-100,4,1,0,85,0,1
140472,319.148936170213,3,1,0,70,1,0
140764,-125,3,1,0,70,0,0
146216,319.148936170213,4,1,0,85,1,0
148131,319.148936170213,4,1,0,85,1,0
148343,-117.647058823529,4,1,0,65,0,0
148583,-125,4,1,0,65,0,0
157359,-121.951219512195,4,1,0,65,0,0
157678,-117.647058823529,4,1,0,65,0,0
157838,-113.636363636364,4,1,0,65,0,0
157998,-109.89010989011,4,1,0,65,0,0
158343,-100,4,1,0,85,0,1
168556,-100,4,1,0,85,0,0
192785,-100,4,1,0,75,0,0
193024,-100,4,1,0,70,0,0
193263,-100,4,1,0,65,0,0
193423,-100,4,1,0,60,0,0
193662,-100,4,1,0,55,0,0
193902,-100,4,1,0,50,0,0
194061,-100,4,1,0,40,0,0

[HitObjects]
256,192,1324,5,8,0:0:0:0:
256,192,1643,1,8,0:0:0:0:
256,192,1803,1,8,0:0:0:0:
256,192,1962,1,4,0:0:0:0:
256,192,2282,1,8,0:0:0:0:
256,192,2441,1,0,0:0:0:0:
256,192,2601,1,0,0:0:0:0:
256,192,2681,1,0,0:0:0:0:
256,192,2760,1,0,0:0:0:0:
256,192,2840,1,0,0:0:0:0:
256,192,2920,1,8,0:0:0:0:
256,192,3080,1,8,0:0:0:0:
256,192,3159,1,8,0:0:0:0:
256,192,3239,1,8,0:0:0:0:
256,192,3558,1,8,0:0:0:0:
256,192,3718,1,8,0:0:0:0:
256,192,3877,1,0,0:0:0:0:
256,192,4037,1,8,0:0:0:0:
256,192,4117,1,8,0:0:0:0:
256,192,4197,1,8,0:0:0:0:
256,192,4356,1,8,0:0:0:0:
256,192,4516,1,0,0:0:0:0:
256,192,4835,1,8,0:0:0:0:
256,192,4994,1,0,0:0:0:0:
256,192,5154,1,0,0:0:0:0:
256,192,5234,1,0,0:0:0:0:
256,192,5314,1,0,0:0:0:0:
256,192,5473,1,8,0:0:0:0:
256,192,5633,1,8,0:0:0:0:
256,192,5713,1,8,0:0:0:0:
256,192,5792,1,0,0:0:0:0:
256,192,6111,1,8,0:0:0:0:
256,192,6191,1,8,0:0:0:0:
256,192,6271,1,0,0:0:0:0:
256,192,6590,1,8,0:0:0:0:
256,192,6750,1,0,0:0:0:0:
256,192,6909,1,8,0:0:0:0:
256,192,7069,1,4,0:0:0:0:
256,192,7388,1,8,0:0:0:0:
256,192,7548,1,0,0:0:0:0:
256,192,7707,1,0,0:0:0:0:
256,192,7787,1,0,0:0:0:0:
256,192,7867,1,0,0:0:0:0:
256,192,8026,1,8,0:0:0:0:
256,192,8186,1,8,0:0:0:0:
256,192,8266,1,8,0:0:0:0:
256,192,8345,1,8,0:0:0:0:
256,192,8665,1,8,0:0:0:0:
256,192,8824,1,8,0:0:0:0:
256,192,8984,1,0,0:0:0:0:
256,192,9064,1,0,0:0:0:0:
256,192,9143,1,0,0:0:0:0:
256,192,9303,1,8,0:0:0:0:
256,192,9463,1,8,0:0:0:0:
256,192,9542,1,8,0:0:0:0:
256,192,9622,1,0,0:0:0:0:
256,192,9941,1,8,0:0:0:0:
256,192,10101,1,0,0:0:0:0:
256,192,10260,1,8,0:0:0:0:
256,192,10340,1,8,0:0:0:0:
256,192,10420,1,0,0:0:0:0:
256,192,10580,1,8,0:0:0:0:
256,192,10739,1,8,0:0:0:0:
256,192,10899,1,4,0:0:0:0:
256,192,11058,1,8,0:0:0:0:
256,192,11218,1,8,0:0:0:0:
256,192,11298,1,8,0:0:0:0:
256,192,11377,1,0,0:0:0:0:
256,192,11457,1,0,0:0:0:0:
256,192,11537,1,8,0:0:0:0:
256,192,11697,1,0,0:0:0:0:
256,192,11776,1,8,0:0:0:0:
256,192,11856,1,0,0:0:0:0:
256,192,12016,1,8,0:0:0:0:
256,192,12095,1,8,0:0:0:0:
256,192,12814,1,4,0:0:0:0:
256,192,13053,1,0,0:0:0:0:
256,192,13133,1,8,0:0:0:0:
256,192,13292,1,8,0:0:0:0:
256,192,13452,1,0,0:0:0:0:
256,192,13611,1,8,0:0:0:0:
256,192,13691,1,8,0:0:0:0:
256,192,13771,1,0,0:0:0:0:
256,192,13851,1,0,0:0:0:0:
256,192,13931,1,8,0:0:0:0:
256,192,14090,1,0,0:0:0:0:
256,192,14409,1,8,0:0:0:0:
256,192,14569,1,8,0:0:0:0:
256,192,14728,1,0,0:0:0:0:
256,192,14808,1,0,0:0:0:0:
256,192,14888,1,0,0:0:0:0:
256,192,14968,1,0,0:0:0:0:
256,192,15048,1,8,0:0:0:0:
256,192,15207,1,8,0:0:0:0:
256,192,15367,1,0,0:0:0:0:
256,192,15606,1,0,0:0:0:0:
256,192,15686,1,8,0:0:0:0:
256,192,15845,1,8,0:0:0:0:
256,192,16005,1,0,0:0:0:0:
256,192,16165,1,8,0:0:0:0:
256,192,16244,1,8,0:0:0:0:
256,192,16324,1,0,0:0:0:0:
256,192,16404,1,0,0:0:0:0:
256,192,16484,1,8,0:0:0:0:
256,192,16643,1,0,0:0:0:0:
256,192,16962,1,8,0:0:0:0:
256,192,17042,1,8,0:0:0:0:
256,192,17122,1,8,0:0:0:0:
256,192,17282,1,0,0:0:0:0:
256,192,17441,1,8,0:0:0:0:
256,192,17601,1,8,0:0:0:0:
256,192,17681,1,8,0:0:0:0:
256,192,17760,1,8,0:0:0:0:
256,192,17840,1,8,0:0:0:0:
256,192,17920,1,0,0:0:0:0:
256,192,18159,1,0,0:0:0:0:
256,192,18239,1,8,0:0:0:0:
256,192,18399,1,8,0:0:0:0:
256,192,18558,1,0,0:0:0:0:
256,192,18718,1,8,0:0:0:0:
256,192,18798,1,8,0:0:0:0:
256,192,18877,1,0,0:0:0:0:
256,192,18957,1,0,0:0:0:0:
256,192,19037,1,8,0:0:0:0:
256,192,19196,1,0,0:0:0:0:
256,192,19516,1,8,0:0:0:0:
256,192,19675,1,8,0:0:0:0:
256,192,19755,1,8,0:0:0:0:
256,192,19835,1,8,0:0:0:0:
256,192,19994,1,0,0:0:0:0:
256,192,20154,1,8,0:0:0:0:
256,192,20314,1,8,0:0:0:0:
256,192,20393,1,8,0:0:0:0:
256,192,20473,1,0,0:0:0:0:
256,192,20712,1,0,0:0:0:0:
256,192,20792,1,8,0:0:0:0:
256,192,20952,1,8,0:0:0:0:
256,192,21111,1,0,0:0:0:0:
256,192,21271,1,8,0:0:0:0:
256,192,21351,1,8,0:0:0:0:
256,192,21431,1,0,0:0:0:0:
256,192,21510,1,0,0:0:0:0:
256,192,21590,1,8,0:0:0:0:
256,192,21750,1,12,0:0:0:0:
256,192,21909,1,0,0:0:0:0:
256,192,21989,1,8,0:0:0:0:
256,192,22069,1,0,0:0:0:0:
256,192,22228,1,8,0:0:0:0:
256,192,22388,1,8,0:0:0:0:
256,192,22548,1,0,0:0:0:0:
256,192,22707,1,8,0:0:0:0:
256,192,22787,1,8,0:0:0:0:
256,192,22867,1,8,0:0:0:0:
256,192,23026,1,4,0:0:0:0:
256,192,23266,1,0,0:0:0:0:
256,192,23345,1,8,0:0:0:0:
256,192,23505,1,8,0:0:0:0:
256,192,23665,1,0,0:0:0:0:
256,192,23744,1,0,0:0:0:0:
256,192,23824,1,8,0:0:0:0:
256,192,23904,1,8,0:0:0:0:
256,192,23984,1,0,0:0:0:0:
256,192,24143,1,8,0:0:0:0:
256,192,24303,1,0,0:0:0:0:
256,192,24622,1,8,0:0:0:0:
256,192,24782,1,8,0:0:0:0:
256,192,24941,1,0,0:0:0:0:
256,192,25101,1,0,0:0:0:0:
256,192,25181,1,0,0:0:0:0:
256,192,25260,1,8,0:0:0:0:
256,192,25340,1,8,0:0:0:0:
256,192,25420,1,8,0:0:0:0:
256,192,25579,1,0,0:0:0:0:
256,192,25819,1,0,0:0:0:0:
256,192,25899,1,8,0:0:0:0:
256,192,26058,1,8,0:0:0:0:
256,192,26218,1,0,0:0:0:0:
256,192,26298,1,0,0:0:0:0:
256,192,26377,1,8,0:0:0:0:
256,192,26457,1,8,0:0:0:0:
256,192,26537,1,0,0:0:0:0:
256,192,26696,1,8,0:0:0:0:
256,192,26856,1,0,0:0:0:0:
256,192,27175,1,8,0:0:0:0:
256,192,27335,1,0,0:0:0:0:
256,192,27415,1,0,0:0:0:0:
256,192,27494,1,0,0:0:0:0:
256,192,27654,1,8,0:0:0:0:
256,192,27814,1,8,0:0:0:0:
256,192,27893,1,8,0:0:0:0:
256,192,27973,1,8,0:0:0:0:
256,192,28053,1,8,0:0:0:0:
256,192,28133,1,0,0:0:0:0:
256,192,28372,1,0,0:0:0:0:
256,192,28452,1,8,0:0:0:0:
256,192,28611,1,8,0:0:0:0:
256,192,28771,1,0,0:0:0:0:
256,192,28851,1,0,0:0:0:0:
256,192,28931,1,8,0:0:0:0:
256,192,29010,1,8,0:0:0:0:
256,192,29090,1,0,0:0:0:0:
256,192,29250,1,8,0:0:0:0:
256,192,29409,1,0,0:0:0:0:
256,192,29728,1,8,0:0:0:0:
256,192,29888,1,8,0:0:0:0:
256,192,29968,1,8,0:0:0:0:
256,192,30048,1,8,0:0:0:0:
256,192,30127,1,8,0:0:0:0:
256,192,30207,1,0,0:0:0:0:
256,192,30367,1,8,0:0:0:0:
256,192,30526,1,8,0:0:0:0:
256,192,30606,1,8,0:0:0:0:
256,192,30686,1,0,0:0:0:0:
256,192,30925,1,0,0:0:0:0:
256,192,31005,1,8,0:0:0:0:
256,192,31165,1,8,0:0:0:0:
256,192,31324,1,0,0:0:0:0:
256,192,31404,1,0,0:0:0:0:
256,192,31484,1,8,0:0:0:0:
256,192,31564,1,8,0:0:0:0:
256,192,31643,1,0,0:0:0:0:
256,192,31803,1,8,0:0:0:0:
256,192,31962,1,12,0:0:0:0:
256,192,32122,1,0,0:0:0:0:
256,192,32202,1,0,0:0:0:0:
256,192,32441,1,8,0:0:0:0:
256,192,32601,1,8,0:0:0:0:
256,192,32760,1,0,0:0:0:0:
256,192,32840,1,0,0:0:0:0:
256,192,32920,1,8,0:0:0:0:
256,192,33000,1,8,0:0:0:0:
256,192,33079,1,8,0:0:0:0:
256,192,33239,1,4,0:0:0:0:
256,192,33478,1,0,0:0:0:0:
256,192,33718,1,0,0:0:0:0:
256,192,33877,1,0,0:0:0:0:
256,192,34037,1,8,0:0:0:0:
256,192,34356,1,8,0:0:0:0:
256,192,34516,1,0,0:0:0:0:
256,192,34755,1,0,0:0:0:0:
256,192,34994,1,8,0:0:0:0:
256,192,35154,1,0,0:0:0:0:
256,192,35473,1,8,0:0:0:0:
256,192,35792,1,0,0:0:0:0:
256,192,36032,1,0,0:0:0:0:
256,192,36271,1,0,0:0:0:0:
256,192,36431,1,0,0:0:0:0:
256,192,36590,1,8,0:0:0:0:
256,192,36909,1,8,0:0:0:0:
256,192,37069,1,0,0:0:0:0:
256,192,37308,1,8,0:0:0:0:
256,192,37548,1,8,0:0:0:0:
256,192,37707,1,0,0:0:0:0:
256,192,38026,1,8,0:0:0:0:
256,192,38345,1,4,0:0:0:0:
256,192,38585,1,0,0:0:0:0:
256,192,38824,1,0,0:0:0:0:
256,192,38984,1,0,0:0:0:0:
256,192,39143,1,8,0:0:0:0:
256,192,39462,1,8,0:0:0:0:
256,192,39622,1,0,0:0:0:0:
256,192,39861,1,0,0:0:0:0:
256,192,40101,1,8,0:0:0:0:
256,192,40260,1,0,0:0:0:0:
256,192,40579,1,8,0:0:0:0:
256,192,40899,1,0,0:0:0:0:
256,192,41138,1,0,0:0:0:0:
256,192,41377,1,0,0:0:0:0:
256,192,41537,1,0,0:0:0:0:
256,192,41696,1,8,0:0:0:0:
256,192,42016,1,8,0:0:0:0:
256,192,42175,1,8,0:0:0:0:
256,192,42415,1,0,0:0:0:0:
256,192,42654,1,8,0:0:0:0:
256,192,42814,1,0,0:0:0:0:
256,192,42973,1,0,0:0:0:0:
256,192,43133,1,8,0:0:0:0:
256,192,43212,1,8,0:0:0:0:
256,192,43292,1,8,0:0:0:0:
256,192,43452,1,4,0:0:0:0:
256,192,43771,1,8,0:0:0:0:
256,192,43931,1,0,0:0:0:0:
256,192,44090,1,0,0:0:0:0:
256,192,44170,1,0,0:0:0:0:
256,192,44250,1,0,0:0:0:0:
256,192,44409,1,8,0:0:0:0:
256,192,44569,1,8,0:0:0:0:
256,192,44728,1,0,0:0:0:0:
256,192,45048,1,8,0:0:0:0:
256,192,45207,1,0,0:0:0:0:
256,192,45287,1,8,0:0:0:0:
256,192,45367,1,0,0:0:0:0:
256,192,45526,1,0,0:0:0:0:
256,192,45686,1,8,0:0:0:0:
256,192,46005,1,0,0:0:0:0:
256,192,46324,1,8,0:0:0:0:
256,192,46484,1,0,0:0:0:0:
256,192,46643,1,0,0:0:0:0:
256,192,46723,1,0,0:0:0:0:
256,192,46803,1,0,0:0:0:0:
256,192,46962,1,8,0:0:0:0:
256,192,47122,1,0,0:0:0:0:
256,192,47282,1,8,0:0:0:0:
256,192,47601,1,8,0:0:0:0:
256,192,47760,1,0,0:0:0:0:
256,192,47920,1,0,0:0:0:0:
256,192,48000,1,8,0:0:0:0:
256,192,48079,1,0,0:0:0:0:
256,192,48239,1,8,0:0:0:0:
256,192,48399,1,8,0:0:0:0:
256,192,48558,1,4,0:0:0:0:
256,192,48877,1,8,0:0:0:0:
256,192,49037,1,0,0:0:0:0:
256,192,49196,1,0,0:0:0:0:
256,192,49276,1,0,0:0:0:0:
256,192,49356,1,0,0:0:0:0:
256,192,49516,1,8,0:0:0:0:
256,192,49675,1,8,0:0:0:0:
256,192,49835,1,0,0:0:0:0:
256,192,50154,1,8,0:0:0:0:
256,192,50314,1,0,0:0:0:0:
256,192,50393,1,8,0:0:0:0:
256,192,50473,1,0,0:0:0:0:
256,192,50633,1,0,0:0:0:0:
256,192,50792,1,8,0:0:0:0:
256,192,51111,1,0,0:0:0:0:
256,192,51431,1,8,0:0:0:0:
256,192,51590,1,0,0:0:0:0:
256,192,51750,1,0,0:0:0:0:
256,192,51829,1,0,0:0:0:0:
256,192,51909,1,0,0:0:0:0:
256,192,52069,1,8,0:0:0:0:
256,192,52228,1,8,0:0:0:0:
256,192,52388,1,0,0:0:0:0:
256,192,52707,1,8,0:0:0:0:
256,192,52867,1,0,0:0:0:0:
256,192,53026,1,0,0:0:0:0:
256,192,53106,1,8,0:0:0:0:
256,192,53186,1,0,0:0:0:0:
256,192,53345,1,8,0:0:0:0:
256,192,53425,1,8,0:0:0:0:
256,192,53505,1,8,0:0:0:0:
256,192,53665,1,4,0:0:0:0:
256,192,53984,1,8,0:0:0:0:
256,192,54303,1,8,0:0:0:0:
256,192,54622,1,0,0:0:0:0:
256,192,54941,1,8,0:0:0:0:
256,192,55260,1,8,0:0:0:0:
256,192,55420,1,8,0:0:0:0:
256,192,55579,1,0,0:0:0:0:
256,192,55899,1,8,0:0:0:0:
256,192,56218,1,8,0:0:0:0:
256,192,56537,1,0,0:0:0:0:
256,192,56856,1,8,0:0:0:0:
256,192,57016,1,0,0:0:0:0:
256,192,57175,1,8,0:0:0:0:
256,192,57335,1,0,0:0:0:0:
256,192,57494,1,4,0:0:0:0:
256,192,57813,1,8,0:0:0:0:
256,192,58133,1,8,0:0:0:0:
256,192,58452,1,0,0:0:0:0:
256,192,58771,1,8,0:0:0:0:
256,192,59090,1,8,0:0:0:0:
256,192,59250,1,8,0:0:0:0:
256,192,59409,1,4,0:0:0:0:
256,192,59728,1,8,0:0:0:0:
256,192,60047,1,0,0:0:0:0:
256,192,60206,1,0,0:0:0:0:
256,192,60366,1,8,0:0:0:0:
256,192,60446,1,8,0:0:0:0:
256,192,60526,1,8,0:0:0:0:
256,192,60685,1,0,0:0:0:0:
256,192,60765,1,0,0:0:0:0:
256,192,60845,1,8,0:0:0:0:
256,192,60924,1,8,0:0:0:0:
256,192,61004,1,8,0:0:0:0:
256,192,61164,1,8,0:0:0:0:
256,192,61323,1,4,0:0:0:0:
256,192,61563,1,8,0:0:0:0:
256,192,61643,1,0,0:0:0:0:
256,192,61802,1,8,0:0:0:0:
256,192,61962,1,0,0:0:0:0:
256,192,62042,1,0,0:0:0:0:
256,192,62121,1,0,0:0:0:0:
256,192,62281,1,8,0:0:0:0:
256,192,62441,1,8,0:0:0:0:
256,192,62600,1,0,0:0:0:0:
256,192,62760,1,0,0:0:0:0:
256,192,62839,1,0,0:0:0:0:
256,192,62919,1,8,0:0:0:0:
256,192,63079,1,8,0:0:0:0:
256,192,63238,1,0,0:0:0:0:
256,192,63318,1,8,0:0:0:0:
256,192,63398,1,0,0:0:0:0:
256,192,63478,1,0,0:0:0:0:
256,192,63558,1,8,0:0:0:0:
256,192,63717,1,8,0:0:0:0:
256,192,63877,1,0,0:0:0:0:
256,192,64116,1,8,0:0:0:0:
256,192,64196,1,0,0:0:0:0:
256,192,64355,1,8,0:0:0:0:
256,192,64515,1,0,0:0:0:0:
256,192,64595,1,8,0:0:0:0:
256,192,64675,1,0,0:0:0:0:
256,192,64834,1,8,0:0:0:0:
256,192,64994,1,8,0:0:0:0:
256,192,65153,1,0,0:0:0:0:
256,192,65313,1,8,0:0:0:0:
256,192,65393,1,8,0:0:0:0:
256,192,65472,1,0,0:0:0:0:
256,192,65552,1,0,0:0:0:0:
256,192,65632,1,8,0:0:0:0:
256,192,65792,1,8,0:0:0:0:
256,192,65951,1,0,0:0:0:0:
256,192,66031,1,0,0:0:0:0:
256,192,66111,1,8,0:0:0:0:
256,192,66191,1,8,0:0:0:0:
256,192,66270,1,0,0:0:0:0:
256,192,66430,1,12,0:0:0:0:
256,192,66669,1,0,0:0:0:0:
256,192,66749,1,8,0:0:0:0:
256,192,66909,1,0,0:0:0:0:
256,192,67068,1,8,0:0:0:0:
256,192,67148,1,0,0:0:0:0:
256,192,67228,1,0,0:0:0:0:
256,192,67387,1,8,0:0:0:0:
256,192,67547,1,8,0:0:0:0:
256,192,67706,1,0,0:0:0:0:
256,192,67786,1,0,0:0:0:0:
256,192,67866,1,0,0:0:0:0:
256,192,68026,1,8,0:0:0:0:
256,192,68185,1,0,0:0:0:0:
256,192,68265,1,0,0:0:0:0:
256,192,68345,1,8,0:0:0:0:
256,192,68504,1,0,0:0:0:0:
256,192,68664,1,8,0:0:0:0:
256,192,68744,1,8,0:0:0:0:
256,192,68824,1,0,0:0:0:0:
256,192,68983,1,0,0:0:0:0:
256,192,69302,1,8,0:0:0:0:
256,192,69462,1,0,0:0:0:0:
256,192,69621,1,0,0:0:0:0:
256,192,69701,1,8,0:0:0:0:
256,192,69781,1,0,0:0:0:0:
256,192,69941,1,8,0:0:0:0:
256,192,70100,1,8,0:0:0:0:
256,192,70260,1,0,0:0:0:0:
256,192,70579,1,8,0:0:0:0:
256,192,70898,1,0,0:0:0:0:
256,192,71058,1,8,0:0:0:0:
256,192,71137,1,0,0:0:0:0:
256,192,71217,1,8,0:0:0:0:
256,192,71297,1,0,0:0:0:0:
256,192,71377,1,8,0:0:0:0:
256,192,71536,1,4,0:0:0:0:
256,192,71776,1,0,0:0:0:0:
256,192,71855,1,8,0:0:0:0:
256,192,72015,1,8,0:0:0:0:
256,192,72175,1,0,0:0:0:0:
256,192,72254,1,0,0:0:0:0:
256,192,72334,1,8,0:0:0:0:
256,192,72414,1,8,0:0:0:0:
256,192,72494,1,0,0:0:0:0:
256,192,72653,1,8,0:0:0:0:
256,192,72813,1,0,0:0:0:0:
256,192,73132,1,8,0:0:0:0:
256,192,73292,1,8,0:0:0:0:
256,192,73451,1,0,0:0:0:0:
256,192,73611,1,0,0:0:0:0:
256,192,73691,1,0,0:0:0:0:
256,192,73770,1,8,0:0:0:0:
256,192,73850,1,8,0:0:0:0:
256,192,73930,1,8,0:0:0:0:
256,192,74089,1,0,0:0:0:0:
256,192,74329,1,0,0:0:0:0:
256,192,74409,1,8,0:0:0:0:
256,192,74568,1,8,0:0:0:0:
256,192,74728,1,0,0:0:0:0:
256,192,74808,1,0,0:0:0:0:
256,192,74887,1,8,0:0:0:0:
256,192,74967,1,8,0:0:0:0:
256,192,75047,1,0,0:0:0:0:
256,192,75206,1,8,0:0:0:0:
256,192,75366,1,0,0:0:0:0:
256,192,75685,1,8,0:0:0:0:
256,192,75845,1,0,0:0:0:0:
256,192,75925,1,0,0:0:0:0:
256,192,76004,1,0,0:0:0:0:
256,192,76164,1,8,0:0:0:0:
256,192,76324,1,8,0:0:0:0:
256,192,76403,1,8,0:0:0:0:
256,192,76483,1,8,0:0:0:0:
256,192,76563,1,8,0:0:0:0:
256,192,76643,1,0,0:0:0:0:
256,192,76882,1,0,0:0:0:0:
256,192,76962,1,8,0:0:0:0:
256,192,77121,1,8,0:0:0:0:
256,192,77281,1,0,0:0:0:0:
256,192,77361,1,0,0:0:0:0:
256,192,77441,1,8,0:0:0:0:
256,192,77520,1,8,0:0:0:0:
256,192,77600,1,0,0:0:0:0:
256,192,77760,1,8,0:0:0:0:
256,192,77919,1,0,0:0:0:0:
256,192,78238,1,8,0:0:0:0:
256,192,78398,1,8,0:0:0:0:
256,192,78478,1,8,0:0:0:0:
256,192,78558,1,8,0:0:0:0:
256,192,78637,1,8,0:0:0:0:
256,192,78717,1,0,0:0:0:0:
256,192,78877,1,8,0:0:0:0:
256,192,79036,1,8,0:0:0:0:
256,192,79116,1,8,0:0:0:0:
256,192,79196,1,0,0:0:0:0:
256,192,79435,1,0,0:0:0:0:
256,192,79515,1,8,0:0:0:0:
256,192,79675,1,8,0:0:0:0:
256,192,79834,1,0,0:0:0:0:
256,192,79914,1,0,0:0:0:0:
256,192,79994,1,8,0:0:0:0:
256,192,80074,1,8,0:0:0:0:
256,192,80153,1,0,0:0:0:0:
256,192,80313,1,8,0:0:0:0:
256,192,80472,1,12,0:0:0:0:
256,192,80632,1,0,0:0:0:0:
256,192,80712,1,0,0:0:0:0:
256,192,80951,1,0,0:0:0:0:
256,192,81111,1,8,0:0:0:0:
256,192,81270,1,8,0:0:0:0:
256,192,81430,1,8,0:0:0:0:
256,192,81510,1,8,0:0:0:0:
256,192,81589,1,8,0:0:0:0:
256,192,81749,1,4,0:0:0:0:
256,192,82068,1,8,0:0:0:0:
256,192,82228,1,0,0:0:0:0:
256,192,82547,1,8,0:0:0:0:
256,192,82706,1,0,0:0:0:0:
256,192,82866,1,8,0:0:0:0:
256,192,83185,1,0,0:0:0:0:
256,192,83345,1,8,0:0:0:0:
256,192,83504,1,0,0:0:0:0:
256,192,83824,1,0,0:0:0:0:
256,192,83903,1,0,0:0:0:0:
256,192,83983,1,8,0:0:0:0:
256,192,84302,1,0,0:0:0:0:
256,192,84621,1,8,0:0:0:0:
256,192,84781,1,0,0:0:0:0:
256,192,85100,1,8,0:0:0:0:
256,192,85260,1,0,0:0:0:0:
256,192,85419,1,8,0:0:0:0:
256,192,85738,1,0,0:0:0:0:
256,192,85898,1,8,0:0:0:0:
256,192,86217,1,0,0:0:0:0:
256,192,86377,1,0,0:0:0:0:
256,192,86456,1,0,0:0:0:0:
256,192,86536,1,8,0:0:0:0:
256,192,86696,1,8,0:0:0:0:
256,192,86855,1,4,0:0:0:0:
256,192,87175,1,8,0:0:0:0:
256,192,87334,1,0,0:0:0:0:
256,192,87653,1,8,0:0:0:0:
256,192,87813,1,0,0:0:0:0:
256,192,87972,1,8,0:0:0:0:
256,192,88292,1,0,0:0:0:0:
256,192,88451,1,8,0:0:0:0:
256,192,88611,1,0,0:0:0:0:
256,192,88930,1,0,0:0:0:0:
256,192,89010,1,0,0:0:0:0:
256,192,89089,1,8,0:0:0:0:
256,192,89409,1,0,0:0:0:0:
256,192,89728,1,8,0:0:0:0:
256,192,89887,1,0,0:0:0:0:
256,192,90206,1,8,0:0:0:0:
256,192,90366,1,0,0:0:0:0:
256,192,90526,1,8,0:0:0:0:
256,192,90845,1,0,0:0:0:0:
256,192,91004,1,8,0:0:0:0:
256,192,91324,1,8,0:0:0:0:
256,192,91403,1,8,0:0:0:0:
256,192,91483,1,0,0:0:0:0:
256,192,91643,1,8,0:0:0:0:
256,192,91802,1,8,0:0:0:0:
256,192,91962,1,4,0:0:0:0:
256,192,92281,1,8,0:0:0:0:
256,192,92441,1,0,0:0:0:0:
256,192,92760,1,8,0:0:0:0:
256,192,92919,1,8,0:0:0:0:
256,192,93079,1,0,0:0:0:0:
256,192,93398,1,0,0:0:0:0:
256,192,93558,1,8,0:0:0:0:
256,192,93717,1,0,0:0:0:0:
256,192,94036,1,0,0:0:0:0:
256,192,94196,1,8,0:0:0:0:
256,192,94355,1,8,0:0:0:0:
256,192,94515,1,0,0:0:0:0:
256,192,94834,1,8,0:0:0:0:
256,192,94994,1,0,0:0:0:0:
256,192,95313,1,0,0:0:0:0:
256,192,95472,1,0,0:0:0:0:
256,192,95632,1,8,0:0:0:0:
256,192,95951,1,0,0:0:0:0:
256,192,96111,1,8,0:0:0:0:
256,192,96270,1,0,0:0:0:0:
256,192,96430,1,0,0:0:0:0:
256,192,96510,1,8,0:0:0:0:
256,192,96589,1,0,0:0:0:0:
256,192,96749,1,8,0:0:0:0:
256,192,96909,1,8,0:0:0:0:
256,192,97068,1,4,0:0:0:0:
256,192,97387,1,8,0:0:0:0:
256,192,97547,1,0,0:0:0:0:
256,192,97866,1,8,0:0:0:0:
256,192,98026,1,8,0:0:0:0:
256,192,98185,1,0,0:0:0:0:
256,192,98504,1,0,0:0:0:0:
256,192,98664,1,8,0:0:0:0:
256,192,98824,1,0,0:0:0:0:
256,192,99143,1,0,0:0:0:0:
256,192,99302,1,8,0:0:0:0:
256,192,99462,1,8,0:0:0:0:
256,192,99621,1,0,0:0:0:0:
256,192,99941,1,8,0:0:0:0:
256,192,100100,1,0,0:0:0:0:
256,192,100419,1,0,0:0:0:0:
256,192,100579,1,8,0:0:0:0:
256,192,100738,1,0,0:0:0:0:
256,192,101058,1,0,0:0:0:0:
256,192,101217,1,8,0:0:0:0:
256,192,101377,1,0,0:0:0:0:
256,192,101536,1,0,0:0:0:0:
256,192,101616,1,0,0:0:0:0:
256,192,101696,1,0,0:0:0:0:
256,192,101855,1,8,0:0:0:0:
256,192,101935,1,8,0:0:0:0:
256,192,102015,1,8,0:0:0:0:
256,192,102175,1,4,0:0:0:0:
256,192,102494,1,8,0:0:0:0:
256,192,102813,1,8,0:0:0:0:
256,192,103132,1,0,0:0:0:0:
256,192,103451,1,8,0:0:0:0:
256,192,103770,1,8,0:0:0:0:
256,192,104089,1,0,0:0:0:0:
256,192,104409,1,8,0:0:0:0:
256,192,104728,1,8,0:0:0:0:
256,192,104887,1,8,0:0:0:0:
256,192,105047,1,0,0:0:0:0:
256,192,105366,1,8,0:0:0:0:
256,192,105526,1,0,0:0:0:0:
256,192,105685,1,8,0:0:0:0:
256,192,106004,1,4,0:0:0:0:
256,192,106323,1,8,0:0:0:0:
256,192,106643,1,8,0:0:0:0:
256,192,106962,1,0,0:0:0:0:
256,192,107281,1,8,0:0:0:0:
256,192,107600,1,8,0:0:0:0:
256,192,107760,1,8,0:0:0:0:
256,192,107919,1,4,0:0:0:0:
256,192,108238,1,8,0:0:0:0:
256,192,108557,1,0,0:0:0:0:
256,192,108716,1,0,0:0:0:0:
256,192,108876,1,8,0:0:0:0:
256,192,108956,1,8,0:0:0:0:
256,192,109036,1,0,0:0:0:0:
256,192,109115,1,0,0:0:0:0:
256,192,109195,1,0,0:0:0:0:
256,192,109833,1,4,0:0:0:0:
256,192,110073,1,8,0:0:0:0:
256,192,110153,1,0,0:0:0:0:
256,192,110312,1,8,0:0:0:0:
256,192,110472,1,0,0:0:0:0:
256,192,110552,1,0,0:0:0:0:
256,192,110631,1,0,0:0:0:0:
256,192,110711,1,0,0:0:0:0:
256,192,110791,1,8,0:0:0:0:
256,192,110951,1,8,0:0:0:0:
256,192,111110,1,0,0:0:0:0:
256,192,111270,1,0,0:0:0:0:
256,192,111349,1,0,0:0:0:0:
256,192,111429,1,8,0:0:0:0:
256,192,111589,1,8,0:0:0:0:
256,192,111748,1,0,0:0:0:0:
256,192,111828,1,8,0:0:0:0:
256,192,111908,1,0,0:0:0:0:
256,192,112068,1,8,0:0:0:0:
256,192,112227,1,8,0:0:0:0:
256,192,112387,1,0,0:0:0:0:
256,192,112626,1,8,0:0:0:0:
256,192,112706,1,0,0:0:0:0:
256,192,112865,1,8,0:0:0:0:
256,192,113025,1,0,0:0:0:0:
256,192,113105,1,8,0:0:0:0:
256,192,113185,1,0,0:0:0:0:
256,192,113264,1,0,0:0:0:0:
256,192,113344,1,8,0:0:0:0:
256,192,113504,1,8,0:0:0:0:
256,192,113663,1,0,0:0:0:0:
256,192,113823,1,8,0:0:0:0:
256,192,113903,1,8,0:0:0:0:
256,192,113982,1,0,0:0:0:0:
256,192,114062,1,0,0:0:0:0:
256,192,114142,1,8,0:0:0:0:
256,192,114302,1,8,0:0:0:0:
256,192,114461,1,0,0:0:0:0:
256,192,114541,1,0,0:0:0:0:
256,192,114621,1,8,0:0:0:0:
256,192,114701,1,8,0:0:0:0:
256,192,114780,1,0,0:0:0:0:
256,192,114940,1,12,0:0:0:0:
256,192,115179,1,0,0:0:0:0:
256,192,115259,1,8,0:0:0:0:
256,192,115419,1,0,0:0:0:0:
256,192,115578,1,8,0:0:0:0:
256,192,115658,1,0,0:0:0:0:
256,192,115738,1,0,0:0:0:0:
256,192,115897,1,8,0:0:0:0:
256,192,116057,1,8,0:0:0:0:
256,192,116216,1,0,0:0:0:0:
256,192,116296,1,0,0:0:0:0:
256,192,116376,1,0,0:0:0:0:
256,192,116536,1,8,0:0:0:0:
256,192,116695,1,0,0:0:0:0:
256,192,116775,1,0,0:0:0:0:
256,192,116855,1,8,0:0:0:0:
256,192,117014,1,0,0:0:0:0:
256,192,117174,1,8,0:0:0:0:
256,192,117254,1,8,0:0:0:0:
256,192,117334,1,0,0:0:0:0:
256,192,117493,1,0,0:0:0:0:
256,192,117812,1,8,0:0:0:0:
256,192,117972,1,0,0:0:0:0:
256,192,118131,1,0,0:0:0:0:
256,192,118211,1,8,0:0:0:0:
256,192,118291,1,0,0:0:0:0:
256,192,118451,1,8,0:0:0:0:
256,192,118610,1,8,0:0:0:0:
256,192,118770,1,0,0:0:0:0:
256,192,119089,1,8,0:0:0:0:
256,192,119408,1,0,0:0:0:0:
256,192,119568,1,8,0:0:0:0:
256,192,119647,1,0,0:0:0:0:
256,192,119727,1,8,0:0:0:0:
256,192,119807,1,0,0:0:0:0:
256,192,119887,1,8,0:0:0:0:
256,192,120046,1,4,0:0:0:0:
256,192,120365,1,8,0:0:0:0:
256,192,120525,1,0,0:0:0:0:
256,192,120685,1,8,0:0:0:0:
256,192,120764,1,8,0:0:0:0:
256,192,120844,1,0,0:0:0:0:
256,192,120924,1,0,0:0:0:0:
256,192,121004,1,8,0:0:0:0:
256,192,121084,1,8,0:0:0:0:
256,192,121163,1,0,0:0:0:0:
256,192,121323,1,0,0:0:0:0:
256,192,121482,1,8,0:0:0:0:
256,192,121642,1,0,0:0:0:0:
256,192,121722,1,0,0:0:0:0:
256,192,121802,1,8,0:0:0:0:
256,192,121961,1,8,0:0:0:0:
256,192,122041,1,8,0:0:0:0:
256,192,122121,1,0,0:0:0:0:
256,192,122201,1,0,0:0:0:0:
256,192,122280,1,8,0:0:0:0:
256,192,122599,1,0,0:0:0:0:
256,192,122759,1,0,0:0:0:0:
256,192,122919,1,8,0:0:0:0:
256,192,123078,1,8,0:0:0:0:
256,192,123238,1,0,0:0:0:0:
256,192,123397,1,0,0:0:0:0:
256,192,123557,1,8,0:0:0:0:
256,192,123637,1,0,0:0:0:0:
256,192,123716,1,8,0:0:0:0:
256,192,123876,1,0,0:0:0:0:
256,192,123956,1,0,0:0:0:0:
256,192,124036,1,8,0:0:0:0:
256,192,124115,1,8,0:0:0:0:
256,192,124195,1,0,0:0:0:0:
256,192,124275,1,0,0:0:0:0:
256,192,124355,1,8,0:0:0:0:
256,192,124514,1,0,0:0:0:0:
256,192,124594,1,8,0:0:0:0:
256,192,124674,1,0,0:0:0:0:
256,192,124754,1,0,0:0:0:0:
256,192,124834,1,8,0:0:0:0:
256,192,124993,1,8,0:0:0:0:
256,192,125153,1,4,0:0:0:0:
256,192,125472,1,8,0:0:0:0:
256,192,125631,1,0,0:0:0:0:
256,192,125711,1,8,0:0:0:0:
256,192,125791,1,0,0:0:0:0:
256,192,125951,1,8,0:0:0:0:
256,192,126030,1,0,0:0:0:0:
256,192,126110,1,8,0:0:0:0:
256,192,126190,1,8,0:0:0:0:
256,192,126270,1,0,0:0:0:0:
256,192,126429,1,8,0:0:0:0:
256,192,126589,1,0,0:0:0:0:
256,192,126748,1,8,0:0:0:0:
256,192,126908,1,0,0:0:0:0:
256,192,127068,1,8,0:0:0:0:
256,192,127227,1,0,0:0:0:0:
256,192,127387,1,8,0:0:0:0:
256,192,127546,1,8,0:0:0:0:
256,192,127626,1,8,0:0:0:0:
256,192,127706,1,0,0:0:0:0:
256,192,127865,1,0,0:0:0:0:
256,192,128025,1,8,0:0:0:0:
256,192,128105,1,8,0:0:0:0:
256,192,128185,1,0,0:0:0:0:
256,192,128344,1,0,0:0:0:0:
256,192,128424,1,8,0:0:0:0:
256,192,128504,1,0,0:0:0:0:
256,192,128584,1,8,0:0:0:0:
256,192,128663,1,0,0:0:0:0:
256,192,128823,1,8,0:0:0:0:
256,192,128982,1,0,0:0:0:0:
256,192,129062,1,0,0:0:0:0:
256,192,129142,1,0,0:0:0:0:
256,192,129302,1,8,0:0:0:0:
256,192,129461,1,8,0:0:0:0:
256,192,129621,1,0,0:0:0:0:
256,192,129701,1,0,0:0:0:0:
256,192,129780,1,0,0:0:0:0:
256,192,129860,1,0,0:0:0:0:
256,192,129940,1,8,0:0:0:0:
256,192,130259,1,4,0:0:0:0:
256,192,130578,1,8,0:0:0:0:
256,192,130738,1,0,0:0:0:0:
256,192,130818,1,0,0:0:0:0:
256,192,130897,1,8,0:0:0:0:
256,192,131216,1,8,0:0:0:0:
256,192,131536,1,0,0:0:0:0:
256,192,131695,1,8,0:0:0:0:
256,192,131855,1,8,0:0:0:0:
256,192,131935,1,8,0:0:0:0:
256,192,132014,1,0,0:0:0:0:
256,192,132174,1,8,0:0:0:0:
256,192,132334,1,0,0:0:0:0:
256,192,132413,1,8,0:0:0:0:
256,192,132493,1,0,0:0:0:0:
256,192,132653,1,8,0:0:0:0:
256,192,132812,1,0,0:0:0:0:
256,192,133131,1,8,0:0:0:0:
256,192,133291,1,0,0:0:0:0:
256,192,133371,1,0,0:0:0:0:
256,192,133451,1,8,0:0:0:0:
256,192,133770,1,8,0:0:0:0:
256,192,133929,1,0,0:0:0:0:
256,192,134009,1,8,0:0:0:0:
256,192,134089,1,0,0:0:0:0:
256,192,134248,1,8,0:0:0:0:
256,192,134408,1,0,0:0:0:0:
256,192,134488,1,0,0:0:0:0:
256,192,134568,1,0,0:0:0:0:
256,192,134647,1,0,0:0:0:0:
256,192,134727,1,8,0:0:0:0:
256,192,134887,1,0,0:0:0:0:
256,192,135046,1,8,0:0:0:0:
256,192,135126,1,8,0:0:0:0:
256,192,135206,1,0,0:0:0:0:
256,192,135365,1,12,0:0:0:0:
256,192,135685,1,8,0:0:0:0:
256,192,135844,1,0,0:0:0:0:
256,192,136004,1,8,0:0:0:0:
256,192,136084,1,8,0:0:0:0:
256,192,136163,1,0,0:0:0:0:
256,192,136243,1,0,0:0:0:0:
256,192,136323,1,8,0:0:0:0:
256,192,136482,1,0,0:0:0:0:
256,192,136642,1,8,0:0:0:0:
256,192,136722,1,8,0:0:0:0:
256,192,136802,1,0,0:0:0:0:
256,192,136961,1,8,0:0:0:0:
256,192,137041,1,0,0:0:0:0:
256,192,137121,1,8,0:0:0:0:
256,192,137280,1,0,0:0:0:0:
256,192,137360,1,8,0:0:0:0:
256,192,137440,1,8,0:0:0:0:
256,192,137599,1,8,0:0:0:0:
256,192,137919,1,0,0:0:0:0:
256,192,138025,1,0,0:0:0:0:
256,192,138131,1,0,0:0:0:0:
256,192,138238,1,8,0:0:0:0:
256,192,138344,1,0,0:0:0:0:
256,192,138451,1,0,0:0:0:0:
256,192,138557,1,8,0:0:0:0:
256,192,138663,1,0,0:0:0:0:
256,192,138770,1,0,0:0:0:0:
256,192,138876,1,8,0:0:0:0:
256,192,139036,1,8,0:0:0:0:
256,192,139195,1,0,0:0:0:0:
256,192,139275,1,8,0:0:0:0:
256,192,139355,1,0,0:0:0:0:
256,192,139514,1,8,0:0:0:0:
256,192,139594,1,8,0:0:0:0:
256,192,139674,1,0,0:0:0:0:
256,192,139754,1,0,0:0:0:0:
256,192,139834,1,8,0:0:0:0:
256,192,139993,1,0,0:0:0:0:
256,192,140153,1,8,0:0:0:0:
256,192,140232,1,8,0:0:0:0:
256,192,140312,1,8,0:0:0:0:
256,192,140472,1,4,0:0:0:0:
256,192,140791,1,8,0:0:0:0:
256,192,141110,1,8,0:0:0:0:
256,192,141429,1,0,0:0:0:0:
256,192,141748,1,8,0:0:0:0:
256,192,142067,1,8,0:0:0:0:
256,192,142227,1,8,0:0:0:0:
256,192,142386,1,0,0:0:0:0:
256,192,142706,1,8,0:0:0:0:
256,192,143025,1,8,0:0:0:0:
256,192,143344,1,0,0:0:0:0:
256,192,143663,1,8,0:0:0:0:
256,192,143823,1,0,0:0:0:0:
256,192,143982,1,8,0:0:0:0:
256,192,144142,1,0,0:0:0:0:
256,192,144301,1,4,0:0:0:0:
256,192,144620,1,8,0:0:0:0:
256,192,144940,1,8,0:0:0:0:
256,192,145259,1,0,0:0:0:0:
256,192,145578,1,8,0:0:0:0:
256,192,145897,1,8,0:0:0:0:
256,192,146057,1,8,0:0:0:0:
256,192,146216,1,4,0:0:0:0:
256,192,146535,1,8,0:0:0:0:
256,192,146854,1,0,0:0:0:0:
256,192,147013,1,0,0:0:0:0:
256,192,147173,1,8,0:0:0:0:
256,192,147253,1,8,0:0:0:0:
256,192,147333,1,8,0:0:0:0:
256,192,147492,1,8,0:0:0:0:
256,192,147572,1,8,0:0:0:0:
256,192,147652,1,8,0:0:0:0:
256,192,147731,1,8,0:0:0:0:
256,192,147811,1,0,0:0:0:0:
256,192,147891,1,0,0:0:0:0:
256,192,147971,1,8,0:0:0:0:
256,192,148130,1,4,0:0:0:0:
256,192,148370,1,0,0:0:0:0:
256,192,148609,1,0,0:0:0:0:
256,192,148769,1,8,0:0:0:0:
256,192,149088,1,8,0:0:0:0:
256,192,149407,1,0,0:0:0:0:
256,192,149726,1,8,0:0:0:0:
256,192,149886,1,0,0:0:0:0:
256,192,150205,1,8,0:0:0:0:
256,192,150365,1,8,0:0:0:0:
256,192,150684,1,0,0:0:0:0:
256,192,150923,1,0,0:0:0:0:
256,192,151162,1,0,0:0:0:0:
256,192,151322,1,8,0:0:0:0:
256,192,151641,1,8,0:0:0:0:
256,192,151801,1,8,0:0:0:0:
256,192,151960,1,0,0:0:0:0:
256,192,152120,1,0,0:0:0:0:
256,192,152279,1,8,0:0:0:0:
256,192,152439,1,8,0:0:0:0:
256,192,152758,1,0,0:0:0:0:
256,192,152918,1,8,0:0:0:0:
256,192,153237,1,0,0:0:0:0:
256,192,153476,1,0,0:0:0:0:
256,192,153716,1,0,0:0:0:0:
256,192,153875,1,8,0:0:0:0:
256,192,154194,1,8,0:0:0:0:
256,192,154354,1,0,0:0:0:0:
256,192,154513,1,8,0:0:0:0:
256,192,154833,1,0,0:0:0:0:
256,192,154992,1,8,0:0:0:0:
256,192,155311,1,0,0:0:0:0:
256,192,155471,1,8,0:0:0:0:
256,192,155790,1,0,0:0:0:0:
256,192,156109,1,8,0:0:0:0:
256,192,156269,1,8,0:0:0:0:
256,192,156588,1,0,0:0:0:0:
256,192,156748,1,0,0:0:0:0:
256,192,156907,1,8,0:0:0:0:
256,192,157067,1,0,0:0:0:0:
256,192,157386,1,8,0:0:0:0:
256,192,157705,1,8,0:0:0:0:
256,192,157865,1,8,0:0:0:0:
256,192,158024,1,8,0:0:0:0:
256,192,158104,1,8,0:0:0:0:
256,192,158184,1,8,0:0:0:0:
256,192,158343,1,4,0:0:0:0:
256,192,158583,1,8,0:0:0:0:
256,192,158662,1,0,0:0:0:0:
256,192,158822,1,8,0:0:0:0:
256,192,158982,1,0,0:0:0:0:
256,192,159061,1,0,0:0:0:0:
256,192,159141,1,0,0:0:0:0:
256,192,159301,1,8,0:0:0:0:
256,192,159381,1,0,0:0:0:0:
256,192,159460,1,8,0:0:0:0:
256,192,159620,1,0,0:0:0:0:
256,192,159779,1,0,0:0:0:0:
256,192,159859,1,0,0:0:0:0:
256,192,159939,1,8,0:0:0:0:
256,192,160099,1,8,0:0:0:0:
256,192,160258,1,0,0:0:0:0:
256,192,160338,1,8,0:0:0:0:
256,192,160418,1,0,0:0:0:0:
256,192,160498,1,0,0:0:0:0:
256,192,160577,1,8,0:0:0:0:
256,192,160737,1,8,0:0:0:0:
256,192,160896,1,0,0:0:0:0:
256,192,161136,1,8,0:0:0:0:
256,192,161216,1,0,0:0:0:0:
256,192,161375,1,8,0:0:0:0:
256,192,161535,1,0,0:0:0:0:
256,192,161615,1,8,0:0:0:0:
256,192,161694,1,0,0:0:0:0:
256,192,161854,1,8,0:0:0:0:
256,192,161934,1,0,0:0:0:0:
256,192,162013,1,8,0:0:0:0:
256,192,162173,1,0,0:0:0:0:
256,192,162333,1,8,0:0:0:0:
256,192,162412,1,8,0:0:0:0:
256,192,162492,1,0,0:0:0:0:
256,192,162572,1,0,0:0:0:0:
256,192,162652,1,8,0:0:0:0:
256,192,162811,1,8,0:0:0:0:
256,192,162971,1,0,0:0:0:0:
256,192,163051,1,0,0:0:0:0:
256,192,163131,1,8,0:0:0:0:
256,192,163210,1,8,0:0:0:0:
256,192,163290,1,0,0:0:0:0:
256,192,163450,1,12,0:0:0:0:
256,192,163689,1,0,0:0:0:0:
256,192,163769,1,8,0:0:0:0:
256,192,163928,1,0,0:0:0:0:
256,192,164088,1,8,0:0:0:0:
256,192,164168,1,0,0:0:0:0:
256,192,164248,1,0,0:0:0:0:
256,192,164407,1,8,0:0:0:0:
256,192,164567,1,8,0:0:0:0:
256,192,164646,1,8,0:0:0:0:
256,192,164726,1,0,0:0:0:0:
256,192,164886,1,0,0:0:0:0:
256,192,165045,1,8,0:0:0:0:
256,192,165205,1,0,0:0:0:0:
256,192,165285,1,0,0:0:0:0:
256,192,165365,1,8,0:0:0:0:
256,192,165524,1,0,0:0:0:0:
256,192,165684,1,8,0:0:0:0:
256,192,165763,1,8,0:0:0:0:
256,192,165843,1,0,0:0:0:0:
256,192,165923,1,8,0:0:0:0:
256,192,166003,1,0,0:0:0:0:
256,192,166322,1,8,0:0:0:0:
256,192,166482,1,0,0:0:0:0:
256,192,166641,1,0,0:0:0:0:
256,192,166721,1,8,0:0:0:0:
256,192,166801,1,0,0:0:0:0:
256,192,166960,1,8,0:0:0:0:
256,192,167120,1,8,0:0:0:0:
256,192,167279,1,0,0:0:0:0:
256,192,167599,1,8,0:0:0:0:
256,192,167758,1,8,0:0:0:0:
256,192,167918,1,0,0:0:0:0:
256,192,168077,1,8,0:0:0:0:
256,192,168157,1,8,0:0:0:0:
256,192,168237,1,8,0:0:0:0:
256,192,168317,1,8,0:0:0:0:
256,192,168396,1,8,0:0:0:0:
256,192,168556,1,4,0:0:0:0:
256,192,169035,1,8,0:0:0:0:
256,192,169354,1,0,0:0:0:0:
256,192,169513,1,8,0:0:0:0:
256,192,169673,1,8,0:0:0:0:
256,192,169833,1,0,0:0:0:0:
256,192,170152,1,8,0:0:0:0:
256,192,170232,1,8,0:0:0:0:
256,192,170311,1,0,0:0:0:0:
256,192,170471,1,8,0:0:0:0:
256,192,170631,1,8,0:0:0:0:
256,192,170790,1,8,0:0:0:0:
256,192,170870,1,8,0:0:0:0:
256,192,170950,1,8,0:0:0:0:
256,192,171109,1,4,0:0:0:0:
256,192,171349,1,0,0:0:0:0:
256,192,171428,1,8,0:0:0:0:
256,192,171588,1,8,0:0:0:0:
256,192,171748,1,0,0:0:0:0:
256,192,171907,1,8,0:0:0:0:
256,192,171987,1,8,0:0:0:0:
256,192,172067,1,0,0:0:0:0:
256,192,172146,1,0,0:0:0:0:
256,192,172226,1,8,0:0:0:0:
256,192,172386,1,0,0:0:0:0:
256,192,172705,1,8,0:0:0:0:
256,192,172865,1,8,0:0:0:0:
256,192,173024,1,0,0:0:0:0:
256,192,173104,1,0,0:0:0:0:
256,192,173184,1,0,0:0:0:0:
256,192,173263,1,0,0:0:0:0:
256,192,173343,1,8,0:0:0:0:
256,192,173423,1,8,0:0:0:0:
256,192,173503,1,8,0:0:0:0:
256,192,173662,1,0,0:0:0:0:
256,192,173902,1,0,0:0:0:0:
256,192,173982,1,8,0:0:0:0:
256,192,174141,1,8,0:0:0:0:
256,192,174301,1,0,0:0:0:0:
256,192,174460,1,8,0:0:0:0:
256,192,174540,1,8,0:0:0:0:
256,192,174620,1,0,0:0:0:0:
256,192,174700,1,0,0:0:0:0:
256,192,174779,1,8,0:0:0:0:
256,192,174939,1,0,0:0:0:0:
256,192,175258,1,8,0:0:0:0:
256,192,175338,1,8,0:0:0:0:
256,192,175418,1,8,0:0:0:0:
256,192,175577,1,0,0:0:0:0:
256,192,175737,1,8,0:0:0:0:
256,192,175896,1,8,0:0:0:0:
256,192,175976,1,8,0:0:0:0:
256,192,176056,1,8,0:0:0:0:
256,192,176136,1,8,0:0:0:0:
256,192,176216,1,0,0:0:0:0:
256,192,176455,1,0,0:0:0:0:
256,192,176535,1,8,0:0:0:0:
256,192,176694,1,8,0:0:0:0:
256,192,176854,1,0,0:0:0:0:
256,192,177013,1,8,0:0:0:0:
256,192,177093,1,8,0:0:0:0:
256,192,177173,1,0,0:0:0:0:
256,192,177253,1,0,0:0:0:0:
256,192,177333,1,8,0:0:0:0:
256,192,177492,1,0,0:0:0:0:
256,192,177811,1,8,0:0:0:0:
256,192,177971,1,8,0:0:0:0:
256,192,178051,1,8,0:0:0:0:
256,192,178131,1,8,0:0:0:0:
256,192,178290,1,0,0:0:0:0:
256,192,178450,1,8,0:0:0:0:
256,192,178609,1,8,0:0:0:0:
256,192,178689,1,8,0:0:0:0:
256,192,178769,1,0,0:0:0:0:
256,192,179008,1,0,0:0:0:0:
256,192,179088,1,8,0:0:0:0:
256,192,179248,1,8,0:0:0:0:
256,192,179407,1,0,0:0:0:0:
256,192,179567,1,8,0:0:0:0:
256,192,179646,1,8,0:0:0:0:
256,192,179726,1,0,0:0:0:0:
256,192,179806,1,0,0:0:0:0:
256,192,179886,1,8,0:0:0:0:
256,192,180045,1,12,0:0:0:0:
256,192,180205,1,0,0:0:0:0:
256,192,180285,1,8,0:0:0:0:
256,192,180365,1,0,0:0:0:0:
256,192,180524,1,8,0:0:0:0:
256,192,180684,1,8,0:0:0:0:
256,192,180763,1,8,0:0:0:0:
256,192,180843,1,0,0:0:0:0:
256,192,181003,1,8,0:0:0:0:
256,192,181083,1,8,0:0:0:0:
256,192,181162,1,8,0:0:0:0:
256,192,181322,1,4,0:0:0:0:
256,192,181561,1,0,0:0:0:0:
256,192,181641,1,8,0:0:0:0:
256,192,181801,1,8,0:0:0:0:
256,192,181960,1,0,0:0:0:0:
256,192,182040,1,0,0:0:0:0:
256,192,182120,1,8,0:0:0:0:
256,192,182200,1,8,0:0:0:0:
256,192,182279,1,0,0:0:0:0:
256,192,182439,1,8,0:0:0:0:
256,192,182599,1,0,0:0:0:0:
256,192,182918,1,8,0:0:0:0:
256,192,183077,1,8,0:0:0:0:
256,192,183237,1,0,0:0:0:0:
256,192,183317,1,0,0:0:0:0:
256,192,183396,1,0,0:0:0:0:
256,192,183476,1,0,0:0:0:0:
256,192,183556,1,8,0:0:0:0:
256,192,183636,1,8,0:0:0:0:
256,192,183716,1,8,0:0:0:0:
256,192,183875,1,0,0:0:0:0:
256,192,184115,1,0,0:0:0:0:
256,192,184194,1,8,0:0:0:0:
256,192,184354,1,8,0:0:0:0:
256,192,184513,1,0,0:0:0:0:
256,192,184593,1,0,0:0:0:0:
256,192,184673,1,8,0:0:0:0:
256,192,184753,1,8,0:0:0:0:
256,192,184833,1,0,0:0:0:0:
256,192,184992,1,8,0:0:0:0:
256,192,185152,1,0,0:0:0:0:
256,192,185471,1,8,0:0:0:0:
256,192,185631,1,0,0:0:0:0:
256,192,185710,1,0,0:0:0:0:
256,192,185790,1,0,0:0:0:0:
256,192,185950,1,8,0:0:0:0:
256,192,186109,1,8,0:0:0:0:
256,192,186189,1,8,0:0:0:0:
256,192,186269,1,8,0:0:0:0:
256,192,186349,1,8,0:0:0:0:
256,192,186428,1,0,0:0:0:0:
256,192,186668,1,0,0:0:0:0:
256,192,186748,1,8,0:0:0:0:
256,192,186907,1,8,0:0:0:0:
256,192,187067,1,0,0:0:0:0:
256,192,187146,1,0,0:0:0:0:
256,192,187226,1,8,0:0:0:0:
256,192,187306,1,8,0:0:0:0:
256,192,187386,1,0,0:0:0:0:
256,192,187545,1,8,0:0:0:0:
256,192,187705,1,0,0:0:0:0:
256,192,188024,1,8,0:0:0:0:
256,192,188184,1,8,0:0:0:0:
256,192,188263,1,8,0:0:0:0:
256,192,188343,1,8,0:0:0:0:
256,192,188423,1,8,0:0:0:0:
256,192,188503,1,0,0:0:0:0:
256,192,188662,1,8,0:0:0:0:
256,192,188822,1,8,0:0:0:0:
256,192,188902,1,8,0:0:0:0:
256,192,188982,1,0,0:0:0:0:
256,192,189221,1,0,0:0:0:0:
256,192,189301,1,8,0:0:0:0:
256,192,189460,1,8,0:0:0:0:
256,192,189620,1,0,0:0:0:0:
256,192,189700,1,0,0:0:0:0:
256,192,189779,1,8,0:0:0:0:
256,192,189859,1,8,0:0:0:0:
256,192,189939,1,0,0:0:0:0:
256,192,190099,1,8,0:0:0:0:
256,192,190258,1,0,0:0:0:0:
256,192,190418,1,0,0:0:0:0:
256,192,190498,1,8,0:0:0:0:
256,192,190737,1,8,0:0:0:0:
256,192,190896,1,0,0:0:0:0:
256,192,191056,1,0,0:0:0:0:
256,192,191136,1,8,0:0:0:0:
256,192,191375,1,8,0:0:0:0:
256,192,191535,1,0,0:0:0:0:
256,192,191694,1,0,0:0:0:0:
256,192,191774,1,8,0:0:0:0:
256,192,192013,1,8,0:0:0:0:
256,192,192173,1,0,0:0:0:0:
256,192,192333,1,0,0:0:0:0:
256,192,192412,1,8,0:0:0:0:
256,192,192652,1,8,0:0:0:0:
256,192,192811,1,8,0:0:0:0:
256,192,193051,1,8,0:0:0:0:
256,192,193290,1,8,0:0:0:0:
256,192,193450,1,8,0:0:0:0:
256,192,193689,1,8,0:0:0:0:
256,192,193928,1,8,0:0:0:0:
256,192,194088,12,0,197758,0:0:0:0:
