osu file format v14

[General]
AudioFilename: End of the World.mp3
AudioLeadIn: 0
PreviewTime: 148051
Countdown: 0
SampleSet: Normal
StackLeniency: 0.7
Mode: 1
LetterboxInBreaks: 0
WidescreenStoryboard: 0

[Editor]
DistanceSpacing: 1.6
BeatDivisor: 1
GridSize: 32
TimelineZoom: 1.7

[Metadata]
Title:End of the World
TitleUnicode:End of the World
Artist:CyoucyoP feat.Hatsune Miku
ArtistUnicode:蝶々P feat.初音ミク
Creator:TKS
Version:Kantan
Source:
Tags:vocaloid papiyon VOCAROCK chouchou
BeatmapID:506474
BeatmapSetID:215476

[Difficulty]
HPDrainRate:4
CircleSize:5
OverallDifficulty:3
ApproachRate:5
SliderMultiplier:1.2
SliderTickRate:1

[Events]
//Background and Video events
0,0,"bg_mini.jpg",0,180
Video,25,"endof.avi"
//Break Periods
//Storyboard Layer 0 (Background)
//Storyboard Layer 1 (Fail)
//Storyboard Layer 2 (Pass)
//Storyboard Layer 3 (Foreground)
//Storyboard Sound Samples

[TimingPoints]
1963,319.148936170213,4,1,0,85,1,0
12814,319.148936170213,4,1,0,85,1,0
33452,-100,4,1,0,70,0,0
43425,-100,4,1,0,85,0,0
53665,319.148936170213,3,1,0,70,1,0
59409,319.148936170213,4,1,0,85,1,0
61324,319.148936170213,4,1,0,85,1,1
71536,-100,4,1,0,85,0,0
82042,-100,4,1,0,70,0,0
102175,319.148936170213,3,1,0,70,1,0
107919,319.148936170213,4,1,0,85,1,0
109249,-100,3,3,0,5,0,0
109781,-100,3,1,0,85,0,0
109834,319.148936170213,4,1,0,85,1,1
130259,-100,4,1,0,85,0,0
135365,-100,4,1,0,85,0,1
140472,319.148936170213,3,1,0,70,1,0
146216,319.148936170213,4,1,0,85,1,0
148131,319.148936170213,4,1,0,65,1,0
158343,-100,4,1,0,85,0,1
168556,-100,4,1,0,85,0,0
192785,-100,4,1,0,75,0,0
193024,-100,4,1,0,70,0,0
193263,-100,4,1,0,65,0,0
193423,-100,4,1,0,60,0,0
193662,-100,4,1,0,55,0,0
193902,-100,4,1,0,50,0,0
194061,-100,4,1,0,40,0,0

[HitObjects]
256,192,1324,5,8,0:0:0:0:
256,192,1643,1,8,0:0:0:0:
256,192,1963,1,4,0:0:0:0:
256,192,2601,1,0,0:0:0:0:
256,192,3239,1,8,0:0:0:0:
256,192,3877,1,8,0:0:0:0:
256,192,4197,1,0,0:0:0:0:
256,192,4516,1,0,0:0:0:0:
256,192,5154,1,0,0:0:0:0:
256,192,5792,1,8,0:0:0:0:
256,192,6431,1,8,0:0:0:0:
256,192,6750,1,8,0:0:0:0:
256,192,7069,1,4,0:0:0:0:
256,192,7707,1,0,0:0:0:0:
256,192,8345,1,8,0:0:0:0:
256,192,8984,1,8,0:0:0:0:
256,192,9303,1,0,0:0:0:0:
256,192,9622,1,0,0:0:0:0:
256,192,10260,1,8,0:0:0:0:
256,192,10899,1,4,0:0:0:0:
256,192,11537,1,8,0:0:0:0:
256,192,12016,1,8,0:0:0:0:
256,192,12814,1,4,0:0:0:0:
256,192,13452,1,0,0:0:0:0:
256,192,14090,1,8,0:0:0:0:
256,192,14728,1,8,0:0:0:0:
256,192,15367,1,0,0:0:0:0:
256,192,16005,1,0,0:0:0:0:
256,192,16643,1,8,0:0:0:0:
256,192,17282,1,0,0:0:0:0:
256,192,17601,1,8,0:0:0:0:
256,192,17920,1,0,0:0:0:0:
256,192,18558,1,0,0:0:0:0:
256,192,19196,1,8,0:0:0:0:
256,192,19835,1,8,0:0:0:0:
256,192,20473,1,0,0:0:0:0:
256,192,21111,1,0,0:0:0:0:
256,192,21750,1,12,0:0:0:0:
256,192,23026,1,4,0:0:0:0:
256,192,23665,1,8,0:0:0:0:
256,192,24303,1,0,0:0:0:0:
256,192,24941,1,8,0:0:0:0:
256,192,25260,1,8,0:0:0:0:
256,192,25579,1,0,0:0:0:0:
256,192,26218,1,8,0:0:0:0:
256,192,26856,1,0,0:0:0:0:
256,192,27494,1,0,0:0:0:0:
256,192,27814,1,8,0:0:0:0:
256,192,28133,1,0,0:0:0:0:
256,192,28771,1,8,0:0:0:0:
256,192,29409,1,0,0:0:0:0:
256,192,30048,1,8,0:0:0:0:
256,192,30367,1,8,0:0:0:0:
256,192,30686,1,0,0:0:0:0:
256,192,31324,1,8,0:0:0:0:
256,192,31962,1,4,0:0:0:0:
256,192,32601,1,8,0:0:0:0:
256,192,32920,1,8,0:0:0:0:
256,192,33239,1,4,0:0:0:0:
256,192,34516,1,0,0:0:0:0:
256,192,35154,1,8,0:0:0:0:
256,192,35792,1,0,0:0:0:0:
256,192,37069,1,8,0:0:0:0:
256,192,37707,1,8,0:0:0:0:
256,192,38345,1,4,0:0:0:0:
256,192,39622,1,0,0:0:0:0:
256,192,40260,1,8,0:0:0:0:
256,192,40899,1,0,0:0:0:0:
256,192,42175,1,8,0:0:0:0:
256,192,42814,1,8,0:0:0:0:
256,192,43452,1,4,0:0:0:0:
256,192,44090,1,8,0:0:0:0:
256,192,44728,1,0,0:0:0:0:
256,192,45367,1,0,0:0:0:0:
256,192,45686,1,8,0:0:0:0:
256,192,46005,1,0,0:0:0:0:
256,192,46643,1,8,0:0:0:0:
256,192,47282,1,0,0:0:0:0:
256,192,47920,1,8,0:0:0:0:
256,192,48239,1,8,0:0:0:0:
256,192,48558,1,4,0:0:0:0:
256,192,49196,1,8,0:0:0:0:
256,192,49835,1,0,0:0:0:0:
256,192,50473,1,0,0:0:0:0:
256,192,50792,1,8,0:0:0:0:
256,192,51111,1,0,0:0:0:0:
256,192,51750,1,8,0:0:0:0:
256,192,52388,1,8,0:0:0:0:
256,192,52707,1,8,0:0:0:0:
256,192,53026,1,8,0:0:0:0:
256,192,53665,1,4,0:0:0:0:
256,192,54622,1,8,0:0:0:0:
256,192,55579,1,0,0:0:0:0:
256,192,56537,1,8,0:0:0:0:
256,192,57175,1,8,0:0:0:0:
256,192,57494,1,4,0:0:0:0:
256,192,58452,1,8,0:0:0:0:
256,192,59409,8,0,60686,0:0:0:0:
256,192,61324,5,4,0:0:0:0:
256,192,61962,1,0,0:0:0:0:
256,192,62281,1,8,0:0:0:0:
256,192,62600,1,0,0:0:0:0:
256,192,63238,1,8,0:0:0:0:
256,192,63558,1,8,0:0:0:0:
256,192,63877,1,0,0:0:0:0:
256,192,64515,1,8,0:0:0:0:
256,192,65153,1,0,0:0:0:0:
256,192,65632,1,8,0:0:0:0:
256,192,66111,1,8,0:0:0:0:
256,192,66430,1,4,0:0:0:0:
256,192,67068,1,0,0:0:0:0:
256,192,67706,1,0,0:0:0:0:
256,192,68026,1,8,0:0:0:0:
256,192,68345,1,0,0:0:0:0:
256,192,68664,1,8,0:0:0:0:
256,192,68983,1,0,0:0:0:0:
256,192,69621,1,0,0:0:0:0:
256,192,70260,1,0,0:0:0:0:
256,192,70579,1,0,0:0:0:0:
256,192,70898,1,8,0:0:0:0:
256,192,71217,1,8,0:0:0:0:
256,192,71536,1,4,0:0:0:0:
256,192,72175,1,8,0:0:0:0:
256,192,72813,1,0,0:0:0:0:
256,192,73451,1,8,0:0:0:0:
256,192,73770,1,8,0:0:0:0:
256,192,74089,1,0,0:0:0:0:
256,192,74728,1,8,0:0:0:0:
256,192,75366,1,0,0:0:0:0:
256,192,76004,1,0,0:0:0:0:
256,192,76324,1,8,0:0:0:0:
256,192,76643,1,0,0:0:0:0:
256,192,77281,1,8,0:0:0:0:
256,192,77919,1,0,0:0:0:0:
256,192,78558,1,8,0:0:0:0:
256,192,78877,1,8,0:0:0:0:
256,192,79196,1,0,0:0:0:0:
256,192,79834,1,8,0:0:0:0:
256,192,80472,1,4,0:0:0:0:
256,192,81111,1,8,0:0:0:0:
256,192,81430,1,8,0:0:0:0:
256,192,81749,1,4,0:0:0:0:
256,192,82387,1,8,0:0:0:0:
256,192,83026,1,0,0:0:0:0:
256,192,84302,1,0,0:0:0:0:
256,192,84941,1,8,0:0:0:0:
256,192,85579,1,0,0:0:0:0:
256,192,86855,1,4,0:0:0:0:
256,192,87494,1,8,0:0:0:0:
256,192,88132,1,0,0:0:0:0:
256,192,89409,1,0,0:0:0:0:
256,192,90047,1,8,0:0:0:0:
256,192,90685,1,0,0:0:0:0:
256,192,91324,1,8,0:0:0:0:
256,192,91643,1,8,0:0:0:0:
256,192,91962,1,4,0:0:0:0:
256,192,92600,1,8,0:0:0:0:
256,192,93238,1,0,0:0:0:0:
256,192,94196,1,8,0:0:0:0:
256,192,94515,1,0,0:0:0:0:
256,192,95153,1,8,0:0:0:0:
256,192,95792,1,0,0:0:0:0:
256,192,97068,1,4,0:0:0:0:
256,192,97706,1,8,0:0:0:0:
256,192,98345,1,0,0:0:0:0:
256,192,99302,1,8,0:0:0:0:
256,192,99621,1,0,0:0:0:0:
256,192,100260,1,8,0:0:0:0:
256,192,100898,1,0,0:0:0:0:
256,192,101536,1,8,0:0:0:0:
256,192,101855,1,8,0:0:0:0:
256,192,102175,1,4,0:0:0:0:
256,192,103132,1,8,0:0:0:0:
256,192,104089,1,0,0:0:0:0:
256,192,105047,1,8,0:0:0:0:
256,192,105685,1,8,0:0:0:0:
256,192,106004,1,4,0:0:0:0:
256,192,106962,1,8,0:0:0:0:
256,192,107919,8,0,109195,0:0:0:0:
256,192,109834,5,4,0:0:0:0:
256,192,110472,1,8,0:0:0:0:
256,192,110791,1,0,0:0:0:0:
256,192,111110,1,8,0:0:0:0:
256,192,111748,1,8,0:0:0:0:
256,192,112068,1,8,0:0:0:0:
256,192,112387,1,0,0:0:0:0:
256,192,113025,1,0,0:0:0:0:
256,192,113663,1,8,0:0:0:0:
256,192,114142,1,8,0:0:0:0:
256,192,114621,1,8,0:0:0:0:
256,192,114940,1,4,0:0:0:0:
256,192,115578,1,0,0:0:0:0:
256,192,116216,1,0,0:0:0:0:
256,192,116536,1,8,0:0:0:0:
256,192,116855,1,0,0:0:0:0:
256,192,117174,1,8,0:0:0:0:
256,192,117493,1,0,0:0:0:0:
256,192,118131,1,0,0:0:0:0:
256,192,118770,1,0,0:0:0:0:
256,192,119089,1,0,0:0:0:0:
256,192,119408,1,8,0:0:0:0:
256,192,119727,1,8,0:0:0:0:
256,192,120046,1,4,0:0:0:0:
256,192,120685,1,8,0:0:0:0:
256,192,121323,1,0,0:0:0:0:
256,192,121642,1,0,0:0:0:0:
256,192,121961,1,8,0:0:0:0:
256,192,122599,1,0,0:0:0:0:
256,192,123238,1,8,0:0:0:0:
256,192,123876,1,0,0:0:0:0:
256,192,124195,1,0,0:0:0:0:
256,192,124514,1,0,0:0:0:0:
256,192,125153,1,4,0:0:0:0:
256,192,125791,1,8,0:0:0:0:
256,192,126429,1,0,0:0:0:0:
256,192,127068,1,8,0:0:0:0:
256,192,127387,1,8,0:0:0:0:
256,192,127706,1,0,0:0:0:0:
256,192,128344,1,8,0:0:0:0:
256,192,128982,1,8,0:0:0:0:
256,192,129302,1,8,0:0:0:0:
256,192,129621,1,8,0:0:0:0:
256,192,130259,1,4,0:0:0:0:
256,192,130897,1,8,0:0:0:0:
256,192,131855,1,0,0:0:0:0:
256,192,132174,1,8,0:0:0:0:
256,192,132812,1,0,0:0:0:0:
256,192,133451,1,8,0:0:0:0:
256,192,134408,1,8,0:0:0:0:
256,192,134727,1,8,0:0:0:0:
256,192,135365,1,12,0:0:0:0:
256,192,136004,1,0,0:0:0:0:
256,192,136323,1,8,0:0:0:0:
256,192,136642,1,0,0:0:0:0:
256,192,137280,1,8,0:0:0:0:
256,192,137599,1,8,0:0:0:0:
256,192,137919,8,0,139834,0:0:0:0:
256,192,140472,5,4,0:0:0:0:
256,192,141429,1,8,0:0:0:0:
256,192,142386,1,0,0:0:0:0:
256,192,143344,1,8,0:0:0:0:
256,192,143982,1,8,0:0:0:0:
256,192,144301,1,4,0:0:0:0:
256,192,145259,1,8,0:0:0:0:
256,192,146216,8,0,147812,0:0:0:0:
256,192,148131,5,4,0:0:0:0:
256,192,149407,1,0,0:0:0:0:
256,192,150045,1,0,0:0:0:0:
256,192,150684,1,0,0:0:0:0:
256,192,151960,1,0,0:0:0:0:
256,192,153237,1,0,0:0:0:0:
256,192,153875,1,0,0:0:0:0:
256,192,154513,1,0,0:0:0:0:
256,192,155790,1,0,0:0:0:0:
256,192,157067,1,0,0:0:0:0:
256,192,157705,1,8,0:0:0:0:
256,192,158024,1,8,0:0:0:0:
256,192,158343,1,4,0:0:0:0:
256,192,158982,1,0,0:0:0:0:
256,192,159301,1,8,0:0:0:0:
256,192,159620,1,0,0:0:0:0:
256,192,160258,1,8,0:0:0:0:
256,192,160577,1,8,0:0:0:0:
256,192,160896,1,0,0:0:0:0:
256,192,161535,1,8,0:0:0:0:
256,192,161854,1,0,0:0:0:0:
256,192,162173,1,8,0:0:0:0:
256,192,162652,1,8,0:0:0:0:
256,192,163131,1,8,0:0:0:0:
256,192,163450,1,4,0:0:0:0:
256,192,164088,1,0,0:0:0:0:
256,192,164726,1,0,0:0:0:0:
256,192,165045,1,8,0:0:0:0:
256,192,165365,1,0,0:0:0:0:
256,192,165684,1,8,0:0:0:0:
256,192,166003,1,0,0:0:0:0:
256,192,166641,1,0,0:0:0:0:
256,192,167279,1,0,0:0:0:0:
256,192,167599,1,0,0:0:0:0:
256,192,167918,1,8,0:0:0:0:
256,192,168237,1,8,0:0:0:0:
256,192,168556,1,4,0:0:0:0:
256,192,169833,1,0,0:0:0:0:
256,192,170152,1,0,0:0:0:0:
256,192,170471,1,8,0:0:0:0:
256,192,170790,1,8,0:0:0:0:
256,192,171109,1,4,0:0:0:0:
256,192,171748,1,0,0:0:0:0:
256,192,172386,1,8,0:0:0:0:
256,192,173024,1,8,0:0:0:0:
256,192,173343,1,8,0:0:0:0:
256,192,173662,1,0,0:0:0:0:
256,192,174301,1,0,0:0:0:0:
256,192,174939,1,8,0:0:0:0:
256,192,175577,1,0,0:0:0:0:
256,192,175896,1,8,0:0:0:0:
256,192,176216,1,0,0:0:0:0:
256,192,176854,1,0,0:0:0:0:
256,192,177492,1,8,0:0:0:0:
256,192,178131,1,8,0:0:0:0:
256,192,178450,1,8,0:0:0:0:
256,192,178769,1,0,0:0:0:0:
256,192,179407,1,0,0:0:0:0:
256,192,180045,1,12,0:0:0:0:
256,192,181322,1,4,0:0:0:0:
256,192,181960,1,8,0:0:0:0:
256,192,182599,1,0,0:0:0:0:
256,192,183237,1,8,0:0:0:0:
256,192,183556,1,8,0:0:0:0:
256,192,183875,1,0,0:0:0:0:
256,192,184513,1,8,0:0:0:0:
256,192,185152,1,0,0:0:0:0:
256,192,185790,1,0,0:0:0:0:
256,192,186109,1,8,0:0:0:0:
256,192,186428,1,0,0:0:0:0:
256,192,187067,1,8,0:0:0:0:
256,192,187705,1,0,0:0:0:0:
256,192,188343,1,8,0:0:0:0:
256,192,188662,1,8,0:0:0:0:
256,192,188982,1,0,0:0:0:0:
256,192,189620,1,8,0:0:0:0:
256,192,190258,1,0,0:0:0:0:
256,192,190896,1,8,0:0:0:0:
256,192,191535,1,0,0:0:0:0:
256,192,192173,1,8,0:0:0:0:
256,192,192811,8,0,197758,0:0:0:0:
