osu file format v14

[General]
AudioFilename: Cyntia.mp3
AudioLeadIn: 0
PreviewTime: 47677
Countdown: 1
SampleSet: Soft
StackLeniency: 0.7
Mode: 0
LetterboxInBreaks: 1
WidescreenStoryboard: 0

[Editor]
DistanceSpacing: 1
BeatDivisor: 4
GridSize: 4
TimelineZoom: 1

[Metadata]
Title:Akatsuki no Yona (TV Size)
TitleUnicode:Akatsuki no Yona (TV Size)
Artist:Cyntia
ArtistUnicode:Cyntia
Creator:Leslie -
Version:Normal
Source:暁のヨナ
Tags:Yona opening op 2 size the girl standing in blush of dawn version
BeatmapID:760764
BeatmapSetID:344359

[Difficulty]
HPDrainRate:5
CircleSize:3
OverallDifficulty:3
ApproachRate:5
SliderMultiplier:1.2
SliderTickRate:2

[Events]
//Background and Video events
Video,478,"Cyntia.avi"
0,0,"BG.jpg",0,0
//Break Periods
2,14449,19049
//Storyboard Layer 0 (Background)
//Storyboard Layer 1 (Fail)
//Storyboard Layer 2 (Pass)
//Storyboard Layer 3 (Foreground)
//Storyboard Sound Samples

[TimingPoints]
535,428.571428571429,4,2,2,50,1,0
7392,-100,4,2,2,70,0,0
9535,-200,4,2,2,70,0,0
10820,-100,4,2,2,70,0,0
12535,-100,4,2,1,70,0,0
21535,-100,4,2,2,70,0,0
37606,-100,4,2,2,100,0,0
37820,-100,4,2,2,70,0,0
38035,-100,4,2,2,100,0,0
38249,-100,4,2,2,70,0,0
38463,-100,4,2,2,100,0,0
38677,-100,4,2,2,70,0,0
40606,-100,4,2,2,100,0,0
40820,-100,4,2,2,70,0,0
41035,-100,4,2,2,100,0,0
41249,-100,4,2,2,70,0,0
45106,-100,4,1,1,30,0,0
45749,-100,4,1,1,40,0,0
46392,-100,4,1,1,50,0,0
47677,-100,4,2,1,20,0,0
48106,-100,4,3,1,70,0,0
48535,-100,4,2,1,70,0,1
54320,-100,4,2,2,100,0,1
54535,-100,4,2,1,70,0,1
54749,-100,4,2,2,100,0,1
54963,-100,4,2,1,70,0,1
55177,-100,4,2,2,100,0,1
55392,-100,4,2,1,70,0,1
62142,-100,4,2,1,70,0,0
62249,-100,4,2,1,70,0,1
65035,-100,4,2,2,100,0,1
65249,-100,4,2,1,70,0,1
65463,-100,4,2,2,100,0,1
65677,-100,4,2,1,70,0,1
75856,-100,4,2,1,70,0,0
75963,-100,4,2,1,70,0,1
76070,-100,4,2,1,70,0,0

[Colours]
Combo1 : 255,255,0
Combo2 : 255,0,0
Combo3 : 0,128,255
Combo4 : 255,255,255
Combo5 : 0,255,64

[HitObjects]
80,88,535,6,0,P|76:168|92:192,1,90
160,132,1177,1,0,0:0:0:0:
264,68,1606,2,0,L|336:68,3,60
340,156,2570,2,0,P|300:204|260:208,1,90
224,240,3106,2,0,P|164:260|88:244,1,120
256,192,3749,12,0,6535,0:0:0:0:
256,336,6963,6,0,L|116:336,1,120,0|8,0:0|0:0,0:0:0:0:
136,216,7820,2,0,L|136:80,1,120
256,96,8677,1,0,0:0:0:0:
368,56,9106,1,0,0:0:0:0:
480,100,9535,2,0,P|480:184|404:248,1,180
304,192,11249,1,0,0:0:0:0:
216,272,11677,5,0,0:0:0:0:
100,236,12106,1,0,0:0:0:0:
100,116,12535,2,0,L|100:28,1,60,4|0,0:0|0:0,0:0:0:0:
160,56,12963,2,0,L|160:136,1,60,4|0,0:0|0:0,0:0:0:0:
220,116,13392,2,2,L|264:116,3,30
280,116,13820,2,2,L|328:116,3,30
340,116,14249,1,6,0:0:0:0:
92,188,20249,6,0,P|112:272|152:288,1,120,2|8,0:0|0:0,0:0:0:0:
256,288,21106,2,0,P|299:249|299:191,1,120,6|8,0:0|0:0,0:0:0:0:
192,140,21963,1,0,0:0:0:0:
300,84,22392,2,0,L|444:84,1,120,8|0,0:0|0:0,0:0:0:0:
476,192,23249,1,8,0:0:0:0:
432,304,23677,1,0,0:0:0:0:
312,304,24106,1,8,0:0:0:0:
252,304,24320,2,0,L|184:304,1,60
148,192,24963,5,8,0:0:0:0:
68,104,25392,1,0,0:0:0:0:
152,16,25820,1,8,0:0:0:0:
240,100,26249,1,0,0:0:0:0:
360,100,26677,2,0,L|504:100,2,120,8|0|8,0:0|0:0|0:0,0:0:0:0:
364,220,27963,6,0,B|376:276|376:276|364:352,1,120,0|8,0:0|0:0,0:0:0:0:
256,292,28820,1,0,0:0:0:0:
148,340,29249,2,0,B|140:284|140:284|148:220,1,120,8|0,0:0|0:0,0:0:0:0:
148,100,30106,1,8,0:0:0:0:
256,48,30535,1,0,0:0:0:0:
376,44,30963,1,8,0:0:0:0:
320,148,31392,2,0,L|320:232,1,60
320,268,31820,5,8,0:0:0:0:
208,224,32249,2,0,L|64:224,2,120,0|8|0,0:0|0:0|0:0,0:0:0:0:
208,104,33535,2,0,L|332:104,2,120,8|0|8,0:0|0:0|0:0,0:0:0:0:
328,104,34820,1,4,0:0:0:0:
416,188,35249,5,8,0:0:0:0:
420,308,35677,1,0,0:0:0:0:
312,252,36106,1,8,0:0:0:0:
208,188,36535,1,0,0:0:0:0:
212,308,36963,1,8,0:0:0:0:
152,308,37177,2,0,L|68:308,1,60
92,248,37606,1,2,0:0:0:0:
92,188,37820,2,0,L|92:108,1,60,8|2,0:0|0:0,0:0:0:0:
184,52,38463,5,2,0:0:0:0:
256,52,38677,1,8,0:0:0:0:
364,108,39106,2,0,P|380:192|360:224,3,120,0|8|0|8,0:0|0:0|0:0|0:0,0:0:0:0:
324,260,40606,2,0,L|256:260,1,60,2|0,0:0|0:0,0:0:0:0:
204,260,41035,1,2,0:0:0:0:
144,260,41249,1,8,0:0:0:0:
72,164,41677,2,0,B|72:112|72:112|60:72|72:32,2,120,0|8|0,0:0|0:0|0:0,0:0:0:0:
192,164,42963,2,0,B|232:164|232:164|264:152|340:164,2,120,8|0|8,0:0|0:0|0:0,0:0:0:0:
192,284,44249,1,0,0:0:0:0:
312,284,44677,1,8,0:0:0:0:
392,196,45106,5,0,0:0:0:0:
396,76,45535,1,8,0:0:0:0:
276,76,45963,1,0,0:0:0:0:
280,196,46392,1,8,0:0:0:0:
160,192,46820,1,0,0:0:0:0:
160,72,47249,1,8,0:0:0:0:
160,132,47677,2,0,L|28:132,1,120,0|6,0:0|0:0,0:0:0:0:
52,252,48535,6,0,P|80:312|148:320,1,120,2|8,0:0|0:0,0:0:0:0:
248,324,49392,2,0,P|303:305|324:250,1,120,2|8,0:0|0:0,0:0:0:0:
324,132,50249,2,0,P|302:77|247:58,1,120,2|8,0:0|0:0,0:0:0:0:
128,60,51106,2,0,P|72:78|51:133,1,120,2|8,0:0|0:0,0:0:0:0:
156,192,51963,1,2,0:0:0:0:
276,192,52392,1,8,0:0:0:0:
380,132,52820,6,0,L|472:216,1,120,2|8,0:0|0:0,0:0:0:0:
472,332,53677,2,0,L|332:332,1,120,2|8,0:0|0:0,0:0:0:0:
308,292,54320,2,0,L|248:244,1,60,2|2,0:0|0:0,0:0:0:0:
200,256,54749,2,0,L|112:256,1,60,2|8,0:0|0:0,0:0:0:0:
96,216,55177,1,2,0:0:0:0:
52,176,55392,1,2,0:0:0:0:
144,100,55820,6,0,L|288:100,1,120,8|2,0:0|0:0,0:0:0:0:
360,172,56677,2,0,L|496:172,1,120,8|2,0:0|0:0,0:0:0:0:
484,232,57320,1,0,0:0:0:0:
484,292,57535,1,8,0:0:0:0:
364,292,57963,1,2,0:0:0:0:
244,292,58392,2,0,L|104:292,1,120,8|2,0:0|0:0,0:0:0:0:
120,172,59249,2,0,L|268:172,2,120,8|2|8,0:0|0:0|0:0,0:0:0:0:
120,52,60535,2,0,L|268:52,1,120,2|8,0:0|0:0,0:0:0:0:
352,100,61392,5,0,0:0:0:0:
352,220,61820,2,0,P|344:300|308:324,1,120,8|6,0:0|0:0,0:0:0:0:
231,235,62677,2,0,P|201:185|146:165,1,120,8|2,0:0|0:0,0:0:0:0:
92,56,63535,2,0,P|152:44|224:56,1,120,8|2,0:0|0:0,0:0:0:0:
302,51,64392,2,0,P|361:44|420:56,1,120,8|2,0:0|0:0,0:0:0:0:
456,112,65035,2,0,L|456:184,3,60,2|8|2|2,0:0|0:0|0:0|0:0,0:0:0:0:
368,256,66106,2,0,L|248:256,1,120,8|2,0:0|0:0,0:0:0:0:
148,192,66963,6,0,L|148:48,2,120,8|2|8,0:0|0:0|0:0,0:0:0:0:
220,288,68249,1,0,0:0:0:0:
340,288,68677,1,8,0:0:0:0:
412,192,69106,2,0,L|412:48,2,120,2|8|2,0:0|0:0|0:0,0:0:0:0:
292,192,70392,2,0,L|292:44,2,120,8|2|8,0:0|0:0|0:0,0:0:0:0:
292,312,71677,5,2,0:0:0:0:
172,312,72106,1,8,0:0:0:0:
232,208,72535,1,2,0:0:0:0:
112,204,72963,2,0,B|116:88|116:88|224:12,1,240,8|8,0:0|0:0,0:0:0:0:
256,132,74249,1,2,0:0:0:0:
294,16,74677,2,0,B|396:88|396:88|400:204,1,240,8|8,0:0|0:0,0:0:0:0:
332,304,75963,5,4,0:0:0:0:
256,192,76070,12,2,82820,0:0:0:0:
