osu file format v14

[General]
AudioFilename: Akatsuki No Yona OP 2.mp3
AudioLeadIn: 0
PreviewTime: 47674
Countdown: 0
SampleSet: Soft
StackLeniency: 0.5
Mode: 0
LetterboxInBreaks: 0
WidescreenStoryboard: 0

[Editor]
DistanceSpacing: 0.8
BeatDivisor: 2
GridSize: 4
TimelineZoom: 1

[Metadata]
Title:Akatsuki no Hana
TitleUnicode:暁の華
Artist:Cyntia
ArtistUnicode:Cyntia
Creator:LucyS
Version:Normal
Source:暁のヨナ
Tags:Yona opening op 2 size the girl standing in blush of dawn version
BeatmapID:638807
BeatmapSetID:279965

[Difficulty]
HPDrainRate:5
CircleSize:3
OverallDifficulty:4
ApproachRate:5
SliderMultiplier:1.2
SliderTickRate:2

[Events]
//Background and Video events
Video,592,"Akatsuki No Yona OP 2.avi"
0,0,"Bg2.jpg",0,0
//Break Periods
//Storyboard Layer 0 (Background)
//Storyboard Layer 1 (Fail)
//Storyboard Layer 2 (Pass)
//Storyboard Layer 3 (Foreground)
//Storyboard Sound Samples

[TimingPoints]
532,428.571428571429,4,2,1,30,1,0
3103,-117.647058823529,4,2,1,50,0,0
7389,-117.647058823529,4,2,1,60,0,0
12532,-100,4,2,1,100,0,0
13389,-100,4,2,1,80,0,0
21103,-100,4,2,1,70,0,0
22817,-100,4,2,2,70,0,0
23032,-100,4,2,1,70,0,0
23246,-100,4,2,4,70,0,0
23460,-100,4,2,1,70,0,0
24103,-100,4,2,4,70,0,0
24317,-100,4,2,1,70,0,0
25817,-100,4,2,4,70,0,0
26032,-100,4,2,1,70,0,0
26674,-100,4,2,4,70,0,0
26889,-100,4,2,1,70,0,0
27103,-100,4,2,2,70,0,0
27317,-100,4,2,1,70,0,0
29246,-100,4,2,4,70,0,0
29460,-100,4,2,1,70,0,0
30532,-100,4,2,2,70,0,0
30746,-100,4,2,1,70,0,0
32674,-100,4,2,4,70,0,0
32889,-100,4,2,1,70,0,0
33103,-100,4,2,2,70,0,0
33317,-100,4,2,1,70,0,0
33960,-100,4,2,2,70,0,0
34174,-100,4,2,1,70,0,0
34389,-100,4,2,4,70,0,0
34603,-100,4,2,1,70,0,0
36532,-100,4,2,2,70,0,0
36746,-100,4,2,1,70,0,0
40389,-100,4,2,4,70,0,0
40603,-100,4,2,1,70,0,0
42532,-100,4,2,2,70,0,0
42746,-100,4,2,1,70,0,0
43389,-100,4,2,2,70,0,0
43603,-100,4,2,1,70,0,0
44246,-100,4,2,2,70,0,0
44460,-100,4,2,1,70,0,0
48532,-100,4,2,1,80,0,1
50246,-100,4,2,2,80,0,1
50460,-100,4,2,1,80,0,1
53674,-100,4,2,2,80,0,1
53889,-100,4,2,1,80,0,1
57103,-100,4,2,2,80,0,1
57317,-100,4,2,1,80,0,1
58817,-100,4,2,2,80,0,1
59032,-100,4,2,1,80,0,1
60532,-100,4,2,2,80,0,1
60746,-100,4,2,1,80,0,1
61817,-100,4,2,1,80,0,0
62246,-100,4,2,1,80,0,1
63960,-100,4,2,2,80,0,1
64174,-100,4,2,1,80,0,1
67389,-100,4,2,2,80,0,1
67603,-100,4,2,1,80,0,1
70817,-100,4,2,2,80,0,1
71032,-100,4,2,1,80,0,1
72532,-100,4,2,2,80,0,1
72746,-100,4,2,1,80,0,1
74246,-100,4,2,2,80,0,1
74460,-100,4,2,1,80,0,1
75103,-100,4,2,2,80,0,1
75317,-100,4,2,1,80,0,1
75960,-100,4,2,1,80,0,0
89460,-100,4,2,1,50,0,0

[Colours]
Combo1 : 255,187,201
Combo2 : 229,229,229
SliderBorder : 155,0,18

[HitObjects]
272,272,3103,22,0,P|220:276|164:240,1,102.000001945496,0|0,0:0|0:0,0:0:0:0:
136,224,3746,2,0,B|136:116|136:116|48:106|-63:221|16:378|136:373|228:355|268:260|236:168,1,663.000012645722,0|0,0:0|0:0,0:0:0:0:
288,96,6960,1,0,0:0:0:0:
288,96,7389,6,0,B|368:90|404:100,1,102.000001945496,2|0,1:0|0:0,0:0:0:0:
428,192,8246,2,0,B|348:198|312:188,1,102.000001945496,0|0,0:0|0:0,0:0:0:0:
276,192,8889,2,0,L|252:304,1,102.000001945496,0|0,0:0|0:0,0:0:0:0:
244,340,9532,2,0,P|108:288|120:140,1,306.000005836487,0|0,0:0|0:0,0:0:0:0:
192,84,11246,5,0,0:0:0:0:
284,124,11674,1,0,0:0:0:0:
244,216,12103,1,0,0:0:0:0:
336,256,12532,6,0,P|368:260|416:256,1,60,2|0,0:0|0:0,0:0:0:0:
440,244,12960,2,0,P|456:224|480:200,1,60,2|0,0:0|0:0,0:0:0:0:
484,152,13389,2,0,P|478:118|464:80,1,60,0|0,1:0|1:0,0:0:0:0:
428,68,13817,2,0,P|401:62|360:48,1,60,0|0,1:0|1:0,0:0:0:0:
324,44,14246,6,0,L|168:52,1,120,4|0,0:0|1:0,0:0:0:0:
164,140,15103,2,0,P|204:184|208:248,1,120,2|0,0:1|1:0,0:0:0:0:
302,242,15960,2,0,P|308:183|348:140,1,120,2|0,0:1|1:0,0:0:0:0:
396,224,16817,2,0,L|396:300,1,60,2|0,0:0|0:0,0:0:0:0:
364,320,17246,2,0,P|336:336|288:340,1,60,0|0,1:0|1:0,0:0:0:0:
260,340,17674,6,0,P|196:328|128:352,1,120,2|0,0:0|1:0,0:0:0:0:
52,368,18532,2,0,B|20:320|20:320|12:244,1,120,2|0,0:1|1:0,0:0:0:0:
108,252,19389,2,0,B|140:204|140:204|148:128,1,120,2|0,0:1|1:0,0:0:0:0:
52,136,20246,1,0,1:0:0:0:
80,44,20674,1,0,1:0:0:0:
176,48,21103,5,4,0:0:0:0:
176,48,21532,2,0,P|232:32|304:56,1,120,0|2,1:0|0:1,0:0:0:0:
324,84,22174,1,0,0:0:0:0:
392,152,22603,2,0,P|449:166|506:150,2,120,0|0|0,0:0|0:0|0:0,0:0:0:0:
324,84,23889,2,0,B|292:136|292:136|310:262,1,180,0|2,0:0|0:1,0:0:0:0:
320,348,24960,6,0,P|276:360|192:340,1,120,0|2,1:0|0:1,0:0:0:0:
160,328,25603,2,0,P|172:280|148:200,1,120,0|0,0:0|0:0,0:0:0:0:
136,168,26246,2,0,P|212:192|320:160,2,180,2|0|0,0:1|0:0|1:0,0:0:0:0:
48,132,27960,5,2,0:1:0:0:
48,132,28389,2,0,P|36:200|72:264,1,120,0|2,1:0|0:1,0:0:0:0:
76,288,29032,2,0,B|130:285|159:276|159:276|188:284|276:288,1,180,0|2,0:0|0:1,0:0:0:0:
348,304,30103,1,0,1:0:0:0:
372,264,30317,2,0,P|388:204|368:148,1,120,0|0,0:0|0:0,0:0:0:0:
332,124,30960,2,0,L|184:128,1,120,0|2,1:0|0:1,0:0:0:0:
176,216,31817,6,0,L|308:212,1,120,0|2,1:0|0:1,0:0:0:0:
344,216,32460,2,0,P|360:268|320:348,2,120,0|0|0,0:0|0:0|0:0,0:0:0:0:
284,140,33746,2,0,P|268:88|308:8,2,120,0|0|0,0:0|0:0|0:0,0:0:0:0:
300,184,34817,5,6,0:1:0:0:
236,256,35246,2,0,P|208:264|156:264,1,60,0|0,1:0|2:0,0:0:0:0:
128,260,35674,2,0,L|108:132,1,120,2|0,0:1|1:0,0:0:0:0:
100,96,36317,2,0,P|164:104|240:80,1,120,0|2,2:3|2:3,0:0:0:0:
260,72,36960,2,0,P|320:56|400:76,1,120,0|2,1:0|0:1,0:0:0:0:
412,96,37603,2,0,P|424:128|428:164,1,60,2|0,2:3|1:0,0:0:0:0:
428,200,38032,1,2,2:3:0:0:
416,248,38246,6,0,B|364:276|364:276|302:271,1,120,6|0,0:1|1:0,0:0:0:0:
209,271,39103,2,0,B|148:276|148:276|96:248,1,120,2|0,2:0|1:2,0:0:0:0:
152,168,39960,2,0,P|268:116|360:172,1,240,2|2,0:0|0:1,0:0:0:0:
368,264,41246,1,0,1:0:0:0:
368,264,41674,6,0,L|272:344,1,120,6|0,0:1|1:0,0:0:0:0:
236,364,42317,2,0,P|204:312|144:280,1,120,0|0,0:0|0:0,0:0:0:0:
112,260,42960,1,0,1:0:0:0:
92,216,43174,2,0,P|92:156|136:96,1,120,0|0,0:0|0:0,0:0:0:0:
164,80,43817,1,0,1:0:0:0:
212,72,44032,2,0,L|348:76,1,120,0|0,0:0|0:0,0:0:0:0:
376,96,44674,1,0,1:0:0:0:
440,168,45103,6,0,B|408:292,1,120,4|0,2:1|1:0,0:0:0:0:
344,356,45960,2,0,P|312:292|332:232,1,120,2|0,0:1|1:0,0:0:0:0:
324,200,46603,2,0,P|268:188|196:212,1,120,2|2,0:1|0:0,0:0:0:0:
192,248,47246,1,2,0:1:0:0:
172,292,47460,1,2,0:0:0:0:
40,244,48103,1,2,3:0:0:0:
40,244,48532,6,0,B|24:188|24:188|28:124,1,120,6|2,2:1|1:2,0:0:0:0:
64,36,49389,2,0,P|108:64|124:152,1,120,2|2,0:1|1:2,0:0:0:0:
136,172,50032,2,0,P|200:188|280:156,1,120,0|0,0:0|0:0,0:0:0:0:
296,160,50674,1,2,1:2:0:0:
388,184,51103,2,0,P|416:236|384:320,1,120,2|2,0:1|1:2,0:0:0:0:
340,364,51960,6,0,L|208:360,1,120,2|2,0:1|1:2,0:0:0:0:
132,324,52817,2,0,P|104:276|120:200,1,120,2|2,0:1|1:2,0:0:0:0:
136,172,53460,2,0,B|192:144|192:144|264:144,1,120,0|0,0:0|0:0,0:0:0:0:
296,144,54103,1,2,1:2:0:0:
388,176,54532,2,0,P|418:179|448:176,1,60,2|2,0:1|0:0,0:0:0:0:
484,144,54960,1,2,1:2:0:0:
420,72,55389,6,0,L|256:72,1,120,2|2,0:1|1:2,0:0:0:0:
212,112,56246,2,0,P|196:168|232:244,1,120,2|2,0:1|1:2,0:0:0:0:
240,268,56889,2,0,P|299:252|372:268,1,120,0|0,0:0|0:0,0:0:0:0:
400,280,57532,1,2,1:2:0:0:
468,216,57960,2,0,B|432:172|432:172|432:92,1,120,2|2,0:1|1:2,0:0:0:0:
428,60,58603,6,0,P|352:36|240:76,1,180,0|2,0:0|1:2,0:0:0:0:
192,132,59674,2,0,P|219:185|208:264,1,120,2|2,0:1|1:2,0:0:0:0:
196,288,60317,2,0,B|140:304|140:304|72:292,1,120,0|0,0:0|0:0,0:0:0:0:
40,268,60960,1,2,1:2:0:0:
12,176,61389,2,0,P|11:136|16:116,1,60,2|2,0:1|0:0,0:0:0:0:
36,72,61817,2,0,P|72:56|104:32,1,60,2|0,1:2|1:0,0:0:0:0:
136,28,62246,6,0,P|203:16|288:36,1,120,6|2,0:1|1:2,0:0:0:0:
336,76,63103,2,0,P|328:136|368:200,1,120,2|2,0:1|1:2,0:0:0:0:
380,228,63746,2,0,P|336:280|264:292,1,120,0|0,0:0|0:0,0:0:0:0:
240,292,64389,1,2,1:2:0:0:
160,240,64817,1,2,0:1:0:0:
116,264,65032,1,2,0:0:0:0:
76,288,65246,1,2,1:2:0:0:
0,228,65674,6,0,B|0:168|0:168|32:104,1,120,2|2,0:1|1:2,0:0:0:0:
92,44,66532,2,0,P|148:60|228:32,1,120,2|2,0:1|1:2,0:0:0:0:
248,24,67174,2,0,P|228:80|252:160,1,120,0|0,0:0|0:0,0:0:0:0:
264,180,67817,2,0,L|400:168,2,120,2|2|2,1:2|0:1|1:2,0:0:0:0:
192,244,69103,5,4,2:1:0:0:
284,276,69532,1,2,1:2:0:0:
208,336,69960,2,0,L|60:348,1,120,2|2,0:1|1:2,0:0:0:0:
40,340,70603,2,0,P|13:285|28:212,1,120,0|0,0:0|0:0,0:0:0:0:
40,184,71246,1,2,1:2:0:0:
108,116,71674,2,0,L|248:108,1,120,2|2,0:1|1:2,0:0:0:0:
276,112,72317,6,0,P|312:200|268:276,1,180,0|2,0:0|1:2,0:0:0:0:
180,272,73389,2,0,P|196:328|264:368,1,120,2|2,0:1|1:2,0:0:0:0:
292,364,74032,2,0,B|352:348|352:348|436:352,1,120
452,324,74674,1,2,1:2:0:0:
488,292,74889,2,0,B|472:232|472:232|476:148,1,120,0|2,0:0|0:0,0:0:0:0:
448,132,75532,2,0,P|384:116|304:148,1,120,2|4,1:2|2:1,0:0:0:0:
256,184,76389,6,0,P|276:248|248:320,1,120,0|2,1:0|0:1,0:0:0:0:
188,360,77246,1,0,1:0:0:0:
108,308,77674,2,0,P|88:244|116:172,1,120,2|0,0:1|1:0,0:0:0:0:
140,104,78532,2,0,B|199:115|199:115|276:104,1,120,2|0,0:1|1:0,0:0:0:0:
304,92,79174,1,0,1:0:0:0:
352,104,79389,6,0,B|411:115|411:115|488:104,1,120,2|0,0:1|1:0,0:0:0:0:
496,200,80246,2,0,P|492:264|436:320,1,120,2|0,0:1|1:0,0:0:0:0:
368,336,81103,2,0,L|224:328,1,120,2|0,0:1|1:0,0:0:0:0:
152,312,81960,2,0,P|140:268|144:236,1,60,0|0,1:0|1:0,0:0:0:0:
144,204,82389,2,0,P|148:164|136:124,1,60,0|0,1:0|1:0,0:0:0:0:
256,192,82817,12,0,89460,0:0:0:0:
