osu file format v14

[General]
AudioFilename: Akatsuki No Yona OP 2.mp3
AudioLeadIn: 0
PreviewTime: 47674
Countdown: 0
SampleSet: Soft
StackLeniency: 0.5
Mode: 0
LetterboxInBreaks: 0
WidescreenStoryboard: 0

[Editor]
DistanceSpacing: 1
BeatDivisor: 4
GridSize: 4
TimelineZoom: 1

[Metadata]
Title:Akatsuki no Hana
TitleUnicode:暁の華
Artist:Cyntia
ArtistUnicode:Cyntia
Creator:LucyS
Version:Hard
Source:暁のヨナ
Tags:Yona opening op 2 size the girl standing in blush of dawn version
BeatmapID:635005
BeatmapSetID:279965

[Difficulty]
HPDrainRate:6
CircleSize:3.5
OverallDifficulty:6
ApproachRate:7
SliderMultiplier:1.4
SliderTickRate:2

[Events]
//Background and Video events
Video,592,"Akatsuki No Yona OP 2.avi"
0,0,"Bg.jpg",0,0
//Break Periods
//Storyboard Layer 0 (Background)
//Storyboard Layer 1 (Fail)
//Storyboard Layer 2 (Pass)
//Storyboard Layer 3 (Foreground)
//Storyboard Sound Samples

[TimingPoints]
532,428.571428571429,4,2,1,50,1,0
7389,-100,4,2,1,60,0,0
12532,-100,4,2,1,100,0,0
13389,-100,4,2,1,30,0,0
13603,-100,4,2,1,40,0,0
13817,-100,4,2,1,50,0,0
14032,-100,4,2,1,60,0,0
14246,-100,4,2,1,70,0,0
27103,-100,4,2,2,70,0,0
27317,-100,4,2,1,70,0,0
30531,-100,4,2,2,70,0,0
30746,-100,4,2,1,70,0,0
38246,-100,4,2,2,70,0,0
38460,-100,4,2,1,70,0,0
41674,-100,4,2,2,70,0,0
41889,-100,4,2,1,70,0,0
42532,-100,4,2,2,70,0,0
42746,-100,4,2,1,70,0,0
43389,-100,4,2,2,70,0,0
43603,-100,4,2,1,70,0,0
44246,-100,4,2,2,70,0,0
44460,-100,4,2,1,70,0,0
45103,-83.3333333333333,4,2,1,70,0,0
47460,-166.666666666667,4,2,1,70,0,0
48532,-83.3333333333333,4,2,1,80,0,1
50246,-83.3333333333333,4,2,2,80,0,1
50460,-83.3333333333333,4,2,1,80,0,1
53674,-83.3333333333333,4,2,2,80,0,1
53889,-83.3333333333333,4,2,1,80,0,1
55389,-83.3333333333333,4,2,2,80,0,1
55603,-83.3333333333333,4,2,1,80,0,1
57103,-83.3333333333333,4,2,2,80,0,1
57317,-83.3333333333333,4,2,1,80,0,1
61817,-83.3333333333333,4,2,1,60,0,0
62032,-83.3333333333333,4,2,1,70,0,0
62246,-83.3333333333333,4,2,1,80,0,1
68674,-83.3333333333333,4,2,1,60,0,1
68889,-83.3333333333333,4,2,1,70,0,1
69103,-83.3333333333333,4,2,1,80,0,1
70817,-83.3333333333333,4,2,2,80,0,1
71032,-83.3333333333333,4,2,1,80,0,1
72532,-83.3333333333333,4,2,2,80,0,1
72746,-83.3333333333333,4,2,1,80,0,1
75532,-83.3333333333333,4,2,1,60,0,1
75746,-83.3333333333333,4,2,1,70,0,1
75960,-83.3333333333333,4,2,1,80,0,0
89460,-83.3333333333333,4,2,1,50,0,0

[Colours]
Combo1 : 255,187,201
Combo2 : 229,229,229
SliderBorder : 155,0,18

[HitObjects]
324,56,3103,6,0,L|232:60,1,70,0|0,0:0|0:0,0:0:0:0:
188,112,3532,1,0,0:0:0:0:
188,112,3746,6,0,B|148:140|144:196|144:196|92:192|64:240|64:240|84:284|144:284|144:284|136:328|188:368|188:368|236:332|232:284|232:284|284:288|312:240|312:240|280:188|232:196|232:196|312:164,1,770,0|0,0:0|0:0,0:0:0:0:
472,72,6532,2,0,L|476:160,2,70,0|0|0,0:0|0:0|0:0,0:0:0:0:
396,36,7174,1,0,0:0:0:0:
396,36,7389,6,0,B|385:72|385:72|392:200,1,140,2|0,1:0|0:0,0:0:0:0:
320,328,8246,2,0,L|176:328,1,140,0|0,0:0|0:0,0:0:0:0:
140,252,8889,2,0,L|280:253,1,140,0|0,0:0|0:0,0:0:0:0:
352,212,9532,6,0,P|408:80|284:184,1,420,0|0,0:0|0:0,0:0:0:0:
392,296,11246,1,0,0:0:0:0:
345,130,11674,1,0,0:0:0:0:
300,296,12103,1,0,0:0:0:0:
260,130,12532,5,2,0:0:0:0:
260,130,12746,1,0,0:0:0:0:
204,192,12960,1,2,0:0:0:0:
208,196,13174,1,0,0:0:0:0:
152,132,13389,2,0,L|104:136,3,35,0|0|0|0,1:0|1:0|1:0|1:0,0:0:0:0:
76,136,13817,2,0,L|24:124,3,35,0|0|0|0,1:0|1:0|1:0|1:0,0:0:0:0:
4,108,14246,5,4,0:0:0:0:
104,32,14567,1,0,0:0:0:0:
104,32,14674,2,0,P|144:32|184:40,1,70,0|0,1:0|0:0,0:0:0:0:
256,60,15103,2,0,P|291:66|344:60,1,70,2|0,0:1|0:0,0:0:0:0:
404,36,15532,2,0,P|432:88|408:184,1,140,0|2,1:0|0:1,0:0:0:0:
348,268,16282,5,0,0:0:0:0:
348,268,16389,2,0,P|308:268|268:276,1,70,0|0,1:0|0:0,0:0:0:0:
196,296,16818,2,0,P|160:302|108:296,1,70,2|0,0:0|0:0,0:0:0:0:
44,280,17246,1,0,1:0:0:0:
104,220,17460,1,0,1:0:0:0:
24,196,17674,1,2,0:0:0:0:
136,140,17996,5,0,0:0:0:0:
136,140,18103,2,0,L|228:152,1,70,0|0,1:0|0:0,0:0:0:0:
288,148,18532,2,0,L|368:136,1,70,2|0,0:1|0:0,0:0:0:0:
440,120,18960,2,0,P|472:180|448:268,1,140,0|2,1:0|0:1,0:0:0:0:
376,340,19710,5,0,0:0:0:0:
376,340,19817,1,0,1:0:0:0:
296,284,20032,1,0,0:0:0:0:
200,308,20246,2,0,L|212:220,1,70,0|0,1:0|1:0,0:0:0:0:
120,204,20674,2,0,L|108:120,1,70,0|0,1:0|1:0,0:0:0:0:
106,89,20996,1,0,1:0:0:0:
106,89,21103,6,0,B|139:78|176:76|176:76|202:76|244:87,1,140,4|0,0:0|1:0,0:0:0:0:
320,124,21746,1,0,0:0:0:0:
252,172,21960,2,0,P|248:208|260:260,1,70,2|0,0:1|0:0,0:0:0:0:
328,276,22389,2,0,P|332:240|320:188,1,70,0|0,1:0|0:0,0:0:0:0:
244,87,22817,6,0,B|202:76|176:76|176:76|139:78|100:92,1,140,2|0,0:1|1:0,0:0:0:0:
36,140,23460,1,0,0:0:0:0:
112,176,23674,2,0,L|100:272,1,70,2|0,0:1|0:0,0:0:0:0:
188,260,24103,2,0,L|192:336,1,70,0|0,1:0|0:0,0:0:0:0:
256,204,24532,6,0,B|263:163|263:163|256:56,1,140,2|0,0:1|1:0,0:0:0:0:
332,28,25174,1,0,0:0:0:0:
332,28,25389,2,0,P|368:24|424:36,1,70,2|0,0:1|0:0,0:0:0:0:
448,120,25817,2,0,P|412:124|356:112,1,70,0|0,1:0|0:0,0:0:0:0:
256,204,26246,5,2,0:1:0:0:
256,204,26460,2,0,P|248:252|260:288,1,70,0|0,0:0|1:0,0:0:0:0:
320,320,26889,2,0,B|360:320|392:328|392:328|417:293|408:240,1,140,0|0,0:0|0:0,0:0:0:0:
404,180,27532,2,0,L|400:96,1,70,0|0,1:0|0:0,0:0:0:0:
264,68,27960,6,0,B|213:62|176:64|176:64|152:80|116:96,1,140,2|0,0:1|1:0,0:0:0:0:
72,152,28603,1,0,0:0:0:0:
72,152,28817,2,0,L|76:240,1,70,2|0,0:1|0:0,0:0:0:0:
116,296,29246,2,0,L|196:288,1,70,0|0,1:0|0:0,0:0:0:0:
312,228,29674,6,0,L|236:220,1,70,2|0,0:1|0:0,0:0:0:0:
216,140,30103,1,0,1:0:0:0:
364,168,30317,2,0,P|389:244|346:300,1,140,0|0,0:0|0:0,0:0:0:0:
288,332,30960,1,0,1:0:0:0:
204,324,31174,1,0,0:0:0:0:
144,264,31389,6,0,P|140:196|152:120,1,140,2|0,0:1|1:0,0:0:0:0:
192,52,32032,1,0,0:0:0:0:
256,108,32246,1,2,0:1:0:0:
320,52,32460,2,0,P|360:48|408:48,1,70,0|0,0:0|1:0,0:0:0:0:
432,120,32889,6,0,P|392:124|344:124,1,70,0|2,0:0|0:1,0:0:0:0:
320,196,33317,2,0,P|360:200|408:200,1,70,0|0,0:0|1:0,0:0:0:0:
432,272,33746,2,0,P|392:276|344:276,1,70,0|2,0:0|0:1,0:0:0:0:
280,272,34174,1,0,0:0:0:0:
280,272,34389,2,0,P|272:312|276:360,1,70,0|0,1:0|0:0,0:0:0:0:
220,212,34817,6,0,P|228:144|224:72,1,140,6|0,0:1|1:0,0:0:0:0:
296,32,35460,1,0,2:0:0:0:
296,32,35674,2,0,P|330:26|368:24,1,70,2|0,0:1|0:0,0:0:0:0:
428,88,36103,2,0,P|463:88|512:96,1,70,0|0,1:0|2:3,0:0:0:0:
372,156,36532,5,2,0:1:0:0:
404,236,36746,1,2,2:3:0:0:
368,312,36960,2,0,P|332:320|284:320,1,70,0|0,1:0|0:0,0:0:0:0:
160,320,37389,1,2,0:1:0:0:
84,288,37603,1,2,2:3:0:0:
148,232,37817,1,0,1:0:0:0:
148,232,38032,6,0,L|144:76,1,140,2|0,2:3|0:0,0:0:0:0:
108,16,38674,1,0,1:0:0:0:
192,24,38889,1,0,0:0:0:0:
108,16,39103,2,0,P|70:14|24:24,2,70,2|0|0,2:0|0:0|1:2,0:0:0:0:
192,24,39746,1,2,0:0:0:0:
268,56,39960,6,0,B|280:92|284:124|284:124|280:168|264:216,1,140,2|0,0:0|1:0,0:0:0:0:
200,264,40603,2,0,B|191:239|187:195|187:195|191:163|203:127,1,140,2|2,0:0|0:0,0:0:0:0:
320,48,41246,1,0,1:0:0:0:
320,48,41460,6,0,L|480:56,1,140,0|0,0:0|0:0,0:0:0:0:
459,55,42103,1,0,1:0:0:0:
460,194,42317,2,0,L|316:202,1,140,0|0,0:0|0:0,0:0:0:0:
320,201,42960,1,0,1:0:0:0:
184,232,43174,6,0,P|157:294|184:368,1,140,0|0,0:0|0:0,0:0:0:0:
177,360,43817,1,0,1:0:0:0:
334,360,44032,2,0,P|354:295|328:232,1,140,0|0,0:0|0:0,0:0:0:0:
327,231,44674,1,0,1:0:0:0:
256,280,44889,1,0,0:0:0:0:
328,144,45103,6,0,L|320:48,1,83.9999974365235,4|2,2:1|0:1,0:0:0:0:
190,60,45532,2,0,L|184:144,1,83.9999974365235,0|2,1:0|0:1,0:0:0:0:
128,300,45960,2,0,P|160:312|211:307,1,83.9999974365235,2|2,0:1|0:1,0:0:0:0:
306,307,46389,2,0,P|347:312|386:299,1,83.9999974365235,0|2,1:0|0:1,0:0:0:0:
460,244,46817,5,4,2:1:0:0:
388,180,47032,1,2,0:0:0:0:
388,180,47139,1,0,0:0:0:0:
388,180,47246,1,2,0:1:0:0:
320,112,47460,6,0,L|184:116,1,125.999996154785,2|2,0:0|3:0,0:0:0:0:
68,208,48532,5,6,2:1:0:0:
68,208,48960,2,0,P|52:296|116:360,2,167.999994873047,2|2|2,1:2|0:1|1:2,0:0:0:0:
116,140,50032,2,0,B|160:136|196:116|196:116|232:136|296:144,1,167.999994873047,0|0,0:0|0:0,0:0:0:0:
340,196,50674,2,0,L|344:304,1,83.9999974365235,2|0,1:2|0:0,0:0:0:0:
344,364,51103,1,2,0:1:0:0:
416,320,51317,1,2,0:0:0:0:
444,240,51532,1,2,1:2:0:0:
424,160,51746,1,0,0:0:0:0:
380,88,51960,6,0,P|380:40|372:-20,1,83.9999974365235,2|0,0:1|0:0,0:0:0:0:
296,112,52389,2,0,L|304:208,1,83.9999974365235,2|0,1:2|0:0,0:0:0:0:
216,44,52817,2,0,B|167:34|132:32|132:32|92:37|32:52,1,167.999994873047,2|2,0:1|1:2,0:0:0:0:
50,131,53460,2,0,B|91:141|131:146|131:146|166:144|215:134,1,167.999994873047,0|0,0:0|0:0,0:0:0:0:
296,112,54103,2,0,L|304:208,1,83.9999974365235,2|0,1:2|0:0,0:0:0:0:
324,276,54532,1,2,0:1:0:0:
404,300,54746,1,2,0:0:0:0:
384,216,54960,1,2,1:2:0:0:
384,216,55174,6,0,B|396:168|380:140|380:140|388:124|388:124|372:92|384:48,1,167.999994873047,0|0,0:0|0:0,0:0:0:0:
304,24,55817,2,0,P|262:25|184:32,1,83.9999974365235,2|0,1:2|0:0,0:0:0:0:
84,96,56246,2,0,P|124:100|204:104,1,83.9999974365235,2|0,0:1|0:0,0:0:0:0:
228,164,56674,1,2,1:2:0:0:
228,164,56889,2,0,B|216:212|232:240|232:240|224:256|224:256|240:288|228:332,1,167.999994873047,0|0,0:0|0:0,0:0:0:0:
300,372,57532,1,2,1:2:0:0:
416,252,57960,2,0,P|424:208|420:168,1,83.9999974365235,2|2,0:1|0:0,0:0:0:0:
336,88,58389,2,0,P|328:132|332:172,1,83.9999974365235,2|0,1:2|0:0,0:0:0:0:
284,240,58817,6,0,P|196:264|112:228,2,167.999994873047,2|2|2,0:1|1:2|0:1,0:0:0:0:
332,172,59889,1,0,0:0:0:0:
368,248,60103,1,2,1:2:0:0:
368,248,60317,2,0,L|360:344,1,83.9999974365235,0|2,0:0|0:1,0:0:0:0:
284,240,60746,2,0,L|276:144,1,83.9999974365235,0|2,0:0|1:2,0:0:0:0:
140,56,61389,6,0,P|141:99|128:168,1,83.9999974365235,2|2,0:1|0:0,0:0:0:0:
116,220,61817,2,0,L|120:276,3,41.9999987182618,2|0|0|0,1:2|1:0|1:0|1:2,0:0:0:0:
136,300,62246,6,0,P|221:317|317:281,1,167.999994873047,6|2,0:1|1:2,0:0:0:0:
292,92,63103,2,0,P|207:75|111:111,1,167.999994873047,2|2,0:1|1:2,0:0:0:0:
80,184,63746,1,0,0:0:0:0:
80,184,63960,2,0,L|84:280,1,83.9999974365235,2|0,0:1|0:0,0:0:0:0:
164,364,64389,2,0,L|176:276,1,83.9999974365235,2|0,1:2|0:0,0:0:0:0:
208,204,64817,2,0,P|236:176|296:164,2,83.9999974365235,2|2|2,0:1|0:0|1:2,0:0:0:0:
288,264,65460,1,0,0:0:0:0:
288,264,65674,6,0,L|300:96,1,167.999994873047,2|2,0:1|1:2,0:0:0:0:
132,96,66532,2,0,L|144:264,1,167.999994873047,2|2,0:1|1:2,0:0:0:0:
204,324,67174,2,0,P|248:328|292:320,1,83.9999974365235,0|2,0:0|0:1,0:0:0:0:
324,240,67603,1,0,0:0:0:0:
324,240,67817,2,0,P|280:236|236:244,1,83.9999974365235,2|0,1:2|0:0,0:0:0:0:
200,152,68246,6,0,P|244:156|288:148,1,83.9999974365235,2|2,0:1|0:0,0:0:0:0:
360,116,68674,2,0,L|416:128,3,41.9999987182618,2|0|0|0,1:2|1:0|1:0|1:0,0:0:0:0:
440,144,69103,6,0,L|444:232,1,83.9999974365235,4|0,2:1|0:0,0:0:0:0:
344,304,69532,2,0,L|348:212,1,83.9999974365235,2|0,1:2|0:0,0:0:0:0:
304,148,69960,2,0,P|263:143|208:152,1,83.9999974365235,2|0,0:1|0:0,0:0:0:0:
132,196,70389,1,2,1:2:0:0:
172,288,70603,6,0,P|255:303|337:285,1,167.999994873047,0|0,0:0|0:0,0:0:0:0:
428,240,71246,2,0,L|432:348,1,83.9999974365235,2|0,1:2|0:0,0:0:0:0:
352,196,71674,1,2,0:1:0:0:
352,196,71889,2,0,L|364:88,1,83.9999974365235,2|2,0:0|1:2,0:0:0:0:
340,32,72317,6,0,P|257:17|175:35,1,167.999994873047,0|0,0:0|0:0,0:0:0:0:
120,96,72960,2,0,P|116:140|124:204,1,83.9999974365235,2|0,1:2|0:0,0:0:0:0:
192,272,73389,2,0,L|204:180,1,83.9999974365235,2|0,0:1|0:0,0:0:0:0:
264,88,73817,1,2,1:2:0:0:
325,188,74032,6,0,L|336:272,1,83.9999974365235,0|2,0:0|0:1,0:0:0:0:
409,179,74460,2,0,P|411:137|408:96,1,83.9999974365235,0|2,0:0|1:2,0:0:0:0:
320,20,74889,1,0,0:0:0:0:
264,88,75103,1,2,0:1:0:0:
208,20,75317,1,2,0:0:0:0:
152,124,75532,2,0,L|148:184,3,41.9999987182618,2|0|0|0,1:2|1:0|1:0|1:0,0:0:0:0:
144,208,75960,6,0,B|148:248|144:264|144:264|145:298|160:316,1,83.9999974365235,4|0,2:1|0:0,0:0:0:0:
168,328,76282,1,0,0:0:0:0:
168,328,76389,2,0,P|218:333|264:324,1,83.9999974365235,0|0,1:0|0:0,0:0:0:0:
316,276,76817,2,0,L|344:368,1,83.9999974365235,2|0,0:1|0:0,0:0:0:0:
424,360,77246,2,0,L|448:279,1,83.9999974365235,0|0,1:0|0:0,0:0:0:0:
392,120,77674,6,0,B|370:117|352:112|352:112|335:109|288:112,1,83.9999974365235,2|0,0:1|0:0,0:0:0:0:
268,120,77996,1,0,0:0:0:0:
268,120,78103,2,0,P|256:164|264:208,1,83.9999974365235,0|0,1:0|0:0,0:0:0:0:
284,284,78532,1,2,0:1:0:0:
216,332,78746,1,0,0:0:0:0:
216,332,78853,1,0,0:0:0:0:
216,332,78960,2,0,B|120:332,1,83.9999974365235,0|0,1:0|1:0,0:0:0:0:
44,188,79389,6,0,P|36:148|52:92,1,83.9999974365235,2|0,0:1|0:0,0:0:0:0:
64,68,79710,1,0,0:0:0:0:
64,68,79817,2,0,B|104:68|104:68|168:52,1,83.9999974365235,0|0,1:0|0:0,0:0:0:0:
228,36,80246,2,0,L|236:128,1,83.9999974365235,2|0,0:1|0:0,0:0:0:0:
272,196,80674,2,0,P|324:200|376:184,1,83.9999974365235,0|0,1:0|0:0,0:0:0:0:
464,324,81103,6,0,P|412:320|360:336,1,83.9999974365235,2|0,0:1|0:0,0:0:0:0:
344,348,81424,1,0,0:0:0:0:
344,348,81532,2,0,L|248:344,1,83.9999974365235,0|0,1:0|0:0,0:0:0:0:
184,312,81960,2,0,P|181:268|192:200,2,83.9999974365235,0|0|0,1:0|1:0|1:0,0:0:0:0:
108,348,82603,1,0,1:0:0:0:
108,348,82710,1,0,1:0:0:0:
108,348,82817,5,2,0:1:0:0:
256,192,82924,12,0,89460,0:0:0:0:
