osu file format v14

[General]
AudioFilename: Akatsuki No Yona OP 2.mp3
AudioLeadIn: 0
PreviewTime: 47674
Countdown: 0
SampleSet: Soft
StackLeniency: 0.5
Mode: 0
LetterboxInBreaks: 0
WidescreenStoryboard: 0

[Editor]
DistanceSpacing: 1
BeatDivisor: 4
GridSize: 4
TimelineZoom: 1

[Metadata]
Title:Akatsuki no Hana
TitleUnicode:暁の華
Artist:Cyntia
ArtistUnicode:Cyntia
Creator:LucyS
Version:Easy
Source:暁のヨナ
Tags:Yona opening op 2 size the girl standing in blush of dawn version
BeatmapID:637835
BeatmapSetID:279965

[Difficulty]
HPDrainRate:2
CircleSize:3
OverallDifficulty:2
ApproachRate:3
SliderMultiplier:0.8
SliderTickRate:2

[Events]
//Background and Video events
Video,592,"Akatsuki No Yona OP 2.avi"
0,0,"Bg2.jpg",0,0
//Break Periods
2,14446,19663
//Storyboard Layer 0 (Background)
//Storyboard Layer 1 (Fail)
//Storyboard Layer 2 (Pass)
//Storyboard Layer 3 (Foreground)
//Storyboard Sound Samples

[TimingPoints]
532,428.571428571429,4,2,1,50,1,0
7389,-100,4,2,1,60,0,0
12532,-100,4,2,1,100,0,0
13389,-100,4,2,1,80,0,0
21103,-100,4,2,1,70,0,0
48532,-100,4,2,1,80,0,1
61817,-100,4,2,1,80,0,0
62246,-100,4,2,1,80,0,1
75960,-100,4,2,1,80,0,0
89460,-100,4,2,1,50,0,0

[Colours]
Combo1 : 255,187,201
Combo2 : 229,229,229
SliderBorder : 155,0,18

[HitObjects]
180,80,3103,38,0,P|224:76|268:96,1,80,0|0,0:0|0:0,0:0:0:0:
296,160,3960,2,0,B|364:208|337:284|337:284|291:271|256:232|256:232|214:274|173:281|173:281|144:200|220:156,1,480
257,87,6960,1,0,0:0:0:0:
336,80,7389,6,0,P|388:116|436:212,2,160,2|0|0,1:0|0:0|0:0,0:0:0:0:
257,87,9532,2,0,P|144:144|145:255,1,240
164,324,11246,6,0,P|208:320|260:320,1,80
320,292,12103,2,0,P|360:300|408:304,1,80,0|2,0:0|0:0,0:0:0:0:
480,304,12960,1,2,0:0:0:0:
440,236,13389,2,0,P|432:196|428:148,1,80,0|0,1:0|1:0,0:0:0:0:
420,76,14246,5,4,0:0:0:0:
164,112,21103,6,0,P|208:124|256:124,1,80,4|0,0:0|1:0,0:0:0:0:
320,104,21960,1,2,0:1:0:0:
388,144,22389,1,0,1:0:0:0:
412,220,22817,2,0,P|412:272|408:344,2,120,2|0|0,0:1|0:0|1:0,0:0:0:0:
388,144,24532,5,2,0:1:0:0:
320,104,24960,2,0,P|280:104|228:112,1,80,0|2,1:0|0:1,0:0:0:0:
168,140,25817,1,0,1:0:0:0:
105,190,26246,2,0,P|89:245|109:318,2,120,2|0|0,0:1|0:0|1:0,0:0:0:0:
168,140,27960,6,0,P|210:145|248:144,1,80,2|0,0:1|1:0,0:0:0:0:
320,108,28817,2,0,P|359:97|404:96,1,80,2|0,0:1|1:0,0:0:0:0:
476,108,29674,2,0,B|496:136|486:160|486:160|468:184|468:236,2,120,2|0|0,0:1|0:0|1:0,0:0:0:0:
432,40,31389,5,2,0:1:0:0:
372,96,31817,2,0,P|332:108|276:108,1,80,0|2,1:0|0:1,0:0:0:0:
212,108,32674,1,0,1:0:0:0:
136,84,33103,2,0,B|123:120|148:160|148:160|124:188|120:240,1,160,2|2,0:1|0:1,0:0:0:0:
100,312,34389,1,0,1:0:0:0:
180,296,34817,6,0,P|256:276|336:300,1,160,6|2,0:1|0:1,0:0:0:0:
400,344,36103,1,0,1:0:0:0:
416,264,36532,2,0,P|344:212|264:196,1,160,2|2,0:1|0:1,0:0:0:0:
200,172,37817,1,0,1:0:0:0:
260,116,38246,6,0,B|298:112|339:124|339:124|352:80|392:60,1,160,6|2,0:1|2:0,0:0:0:0:
468,72,39532,1,0,1:2:0:0:
424,140,39960,2,0,P|412:184|420:236,1,80,2|0,0:0|1:0,0:0:0:0:
408,296,40817,2,0,P|364:308|312:300,1,80,2|0,0:1|1:0,0:0:0:0:
252,296,41674,6,0,P|214:225|232:144,1,160,6|2,0:1|0:1,0:0:0:0:
272,84,42960,1,0,1:0:0:0:
312,152,43389,2,0,P|388:176|472:144,1,160,2|2,0:1|0:1,0:0:0:0:
496,80,44674,1,0,1:0:0:0:
448,16,45103,6,0,P|417:63|416:93,1,80,4|0,2:1|1:0,0:0:0:0:
416,164,45960,1,2,0:1:0:0:
468,228,46389,1,0,1:0:0:0:
432,300,46817,2,0,B|364:300|324:340|324:340|276:300|204:308,1,240,4|2,2:1|3:0,0:0:0:0:
144,264,48532,6,0,P|143:219|148:180,1,80,6|2,2:1|1:2,0:0:0:0:
168,108,49389,2,0,L|160:24,2,80,2|2|2,0:1|1:2|0:1,0:0:0:0:
224,164,50674,1,2,1:2:0:0:
296,128,51103,2,0,P|337:129|388:136,1,80,2|2,0:1|1:2,0:0:0:0:
452,156,51960,6,0,P|476:232|440:320,1,160,2|2,0:1|0:1,0:0:0:0:
396,364,53246,1,2,1:2:0:0:
372,288,53674,2,0,P|334:284|276:284,1,80,2|2,0:1|1:2,0:0:0:0:
212,292,54532,2,0,P|168:296|116:292,1,80,2|2,0:1|1:2,0:0:0:0:
56,272,55389,6,0,B|45:216|72:172|72:172|52:144|56:108,1,160,2|2,0:1|0:1,0:0:0:0:
92,48,56674,1,2,1:2:0:0:
140,112,57103,2,0,P|192:116|236:112,1,80,2|2,0:1|1:2,0:0:0:0:
296,92,57960,2,0,P|348:88|392:92,1,80,2|2,0:1|1:2,0:0:0:0:
428,152,58817,5,2,0:1:0:0:
428,232,59246,2,0,P|424:272|424:312,2,80,2|2|2,1:2|0:1|1:2,0:0:0:0:
428,152,60532,2,0,B|399:123|380:120|380:120|348:136|276:128,1,160,2|2,0:1|0:1,0:0:0:0:
200,112,61817,1,2,1:2:0:0:
136,160,62246,6,0,P|135:241|188:296,1,160,6|2,0:1|0:1,0:0:0:0:
264,320,63532,1,2,1:2:0:0:
344,316,63960,2,0,P|387:315|428:320,1,80,2|2,0:1|1:2,0:0:0:0:
448,244,64817,2,0,P|407:235|364:236,1,80,2|2,0:1|1:2,0:0:0:0:
292,248,65674,6,0,P|260:184|292:96,1,160,2|2,0:1|0:1,0:0:0:0:
360,72,66960,1,2,1:2:0:0:
296,20,67389,2,0,P|256:24|216:52,1,80,2|2,0:1|1:2,0:0:0:0:
168,104,68246,2,0,P|172:144|168:188,1,80,2|2,0:1|1:2,0:0:0:0:
168,264,69103,6,0,B|204:284|204:284|256:284,2,80,4|2|2,2:1|1:2|0:1,0:0:0:0:
116,204,70389,1,2,1:2:0:0:
168,144,70817,2,0,B|204:124|204:124|256:124,1,80,2|2,0:1|1:2,0:0:0:0:
324,124,71674,1,2,0:1:0:0:
384,180,72103,1,2,1:2:0:0:
372,260,72532,6,0,B|353:298|328:324|328:324|293:324|236:316,1,160,2|2,0:1|0:1,0:0:0:0:
168,304,73817,1,2,1:2:0:0:
92,284,74246,2,0,L|96:188,1,80,2|2,0:1|1:2,0:0:0:0:
168,168,75103,2,0,L|164:80,1,80,2|2,0:1|1:2,0:0:0:0:
232,44,75960,6,0,B|272:36|272:36|340:52|340:52|396:40,1,160,4|2,2:1|0:1,0:0:0:0:
456,88,77246,1,0,1:0:0:0:
384,128,77674,2,0,B|395:176|395:176|379:244|379:244|387:284,1,160,2|2,0:1|0:1,0:0:0:0:
404,364,78960,1,0,1:0:0:0:
328,340,79389,6,0,L|156:336,1,160,2|2,0:1|0:1,0:0:0:0:
96,300,80674,1,0,1:0:0:0:
160,252,81103,2,0,B|177:174|177:174|152:96,1,160,2|0,0:1|1:0,0:0:0:0:
204,36,82389,1,0,1:0:0:0:
256,192,82817,12,0,89460,0:0:0:0:
