osu file format v14

[General]
AudioFilename: Akatsuki no Yona (TV) OP 2.mp3
AudioLeadIn: 1300
PreviewTime: 47706
Countdown: 0
SampleSet: Soft
StackLeniency: 0.7
Mode: 0
LetterboxInBreaks: 0
WidescreenStoryboard: 0

[Editor]
DistanceSpacing: 0.8
BeatDivisor: 4
GridSize: 4
TimelineZoom: 1

[Metadata]
Title:Akatsuki no Hana
TitleUnicode:暁の華
Artist:Cyntia
ArtistUnicode:Cyntia
Creator:AsakuraNe
Version:Normal
Source:暁のヨナ
Tags:yona Opening op 2 tv size The girl standing in blush of dawn Frim4503
BeatmapID:671656
BeatmapSetID:290401

[Difficulty]
HPDrainRate:4
CircleSize:3.5
OverallDifficulty:4
ApproachRate:5
SliderMultiplier:1.2
SliderTickRate:1

[Events]
//Background and Video events
0,0,"bg.jpg",0,0
Video,0,"Openingg2.avi"
//Break Periods
//Storyboard Layer 0 (Background)
//Storyboard Layer 1 (Fail)
//Storyboard Layer 2 (Pass)
//Storyboard Layer 3 (Foreground)
//Storyboard Sound Samples

[TimingPoints]
564,428.571428571429,4,2,1,60,1,0
14278,-100,4,2,1,65,0,0
34849,-100,4,2,1,70,0,0
48564,-100,4,2,1,70,0,1
61421,-100,4,2,1,70,0,0
62278,-100,4,2,1,70,0,1
75992,-100,4,2,1,70,0,0
82849,-100,4,2,1,30,0,0
83064,-100,4,2,1,20,0,0
89706,-100,4,2,1,5,0,0

[Colours]
Combo1 : 242,24,57
Combo2 : 255,192,0
Combo3 : 180,75,83
Combo4 : 223,128,32

[HitObjects]
132,39,564,22,0,P|84:112|128:184,1,180,2|2,0:0|0:0,0:0:0:0:
194,111,1635,2,0,L|256:111,2,60,0|8|0,0:0|0:0|0:0,0:0:0:0:
184,156,2278,2,0,P|160:260|200:316,1,180,2|2,0:0|0:0,0:0:0:0:
256,229,3350,2,0,L|324:193,2,60,0|8|0,0:0|0:0|0:0,0:0:0:0:
280,272,3992,6,0,P|340:284|380:344,1,120,2|0,0:0|0:0,0:0:0:0:
400,368,4635,2,0,P|473:308|481:206,1,180,2|8,0:0|0:0,0:0:0:0:
484,132,5707,2,0,P|422:118|384:72,1,120,2|0,0:0|0:0,0:0:0:0:
352,44,6350,2,0,P|296:100|312:200,1,180,2|8,0:0|0:0,0:0:0:0:
316,288,7421,6,0,P|245:280|177:308,1,120,4|0,2:1|0:0,0:0:0:0:
108,324,8278,2,0,P|52:272|54:212,1,120,2|0,0:0|0:0,0:0:0:0:
52,184,8921,2,0,P|116:133|169:52,1,180,2|0,0:0|0:0,0:0:0:0:
216,52,9778,2,0,P|252:112|300:152,1,120,2|0,0:0|0:0,0:0:0:0:
328,172,10421,1,2,0:0:0:0:
328,76,10850,5,4,2:1:0:0:
412,124,11278,1,4,2:1:0:0:
328,172,11707,1,4,2:1:0:0:
244,124,12135,1,6,2:1:0:0:
180,196,12564,6,0,P|164:235|142:260,1,60,4|0,2:1|0:0,0:0:0:0:
104,252,12992,2,0,P|84:224|68:184,1,60,4|0,2:1|0:0,0:0:0:0:
56,156,13421,1,4,2:1:0:0:
76,112,13635,1,0,0:0:0:0:
116,84,13850,2,0,P|108:44|124:8,2,60,0|8|4,0:0|0:0|0:0,0:0:0:0:
204,48,14707,5,8,0:0:0:0:
264,124,15135,2,0,P|288:96|300:64,2,60,2|0|8,0:0|0:0|0:0,0:0:0:0:
212,204,15992,6,0,B|278:242|333:190,1,120,4|8,0:0|0:0,0:0:0:0:
372,116,16850,1,2,0:0:0:0:
372,116,17064,2,0,P|398:138|415:173,1,60,0|8,0:0|0:0,0:0:0:0:
452,248,17707,6,0,P|428:320|380:336,1,120,4|8,0:0|0:0,0:0:0:0:
296,344,18564,2,0,L|236:344,2,60,2|0|8,0:0|0:0|0:0,0:0:0:0:
252,256,19421,6,0,P|180:252|128:208,1,120,4|8,0:0|0:0,0:0:0:0:
72,160,20278,2,0,P|64:132|72:88,1,60,2|0,0:0|0:0,0:0:0:0:
88,60,20707,2,0,P|124:56|152:36,1,60
188,28,21135,5,4,0:0:0:0:
276,64,21564,1,8,0:0:0:0:
240,152,21992,2,0,P|308:152|356:116,1,120,2|8,0:0|0:0,0:0:0:0:
392,104,22635,1,0,0:0:0:0:
392,104,22850,2,0,L|392:252,1,120,2|8,0:0|0:0,0:0:0:0:
388,320,23707,2,0,P|336:288|260:284,1,120,2|8,0:0|0:0,0:0:0:0:
184,288,24564,6,0,P|124:280|74:249,1,120,2|8,0:0|0:0,0:0:0:0:
36,220,25207,1,0,0:0:0:0:
36,220,25421,2,0,L|36:96,2,120,2|8|2,0:0|0:0|0:0,0:0:0:0:
56,312,26707,1,8,0:0:0:0:
148,340,27135,1,2,0:0:0:0:
228,284,27564,1,8,0:0:0:0:
244,188,27992,6,0,P|300:168|324:104,1,120,4|8,0:0|0:0,0:0:0:0:
340,20,28850,2,0,P|408:24|456:68,1,120,2|8,0:0|0:0,0:0:0:0:
448,152,29707,2,0,P|412:192|416:264,1,120,2|8,0:0|0:0,0:0:0:0:
428,300,30350,2,0,P|368:336|304:328,1,120
272,320,30992,1,8,0:0:0:0:
184,276,31421,6,0,L|184:136,1,120,2|8,0:0|0:0,0:0:0:0:
140,140,32064,1,0,0:0:0:0:
92,128,32278,2,0,P|60:68|-8:28,2,120,2|8|2,0:0|0:0|0:0,0:0:0:0:
112,224,33564,1,8,0:0:0:0:
184,288,33992,1,2,0:0:0:0:
272,324,34421,2,0,L|360:312,1,60,8|0,0:0|0:0,0:0:0:0:
380,308,34850,6,0,P|420:240|432:172,1,120,4|8,0:0|0:0,0:0:0:0:
445,105,35707,2,0,P|484:85|514:86,2,60,2|0|8,0:0|0:0|0:0,0:0:0:0:
356,142,36564,2,0,P|305:129|238:64,1,120,4|8,0:0|0:0,0:0:0:0:
173,34,37421,1,2,0:0:0:0:
79,55,37850,2,0,L|79:126,1,60,8|0,0:0|0:0,0:0:0:0:
89,162,38278,6,0,P|127:234|166:261,1,120,4|8,0:0|0:0,0:0:0:0:
235,311,39135,2,0,P|305:307|361:344,1,120,2|8,0:0|0:0,0:0:0:0:
387,356,39778,2,0,P|457:282|465:195,1,180,0|8,0:0|0:0,0:0:0:0:
458,111,40850,1,2,0:0:0:0:
375,160,41278,1,8,0:0:0:0:
358,65,41707,6,0,P|304:55|242:75,1,120,2|8,0:0|0:0,0:0:0:0:
169,136,42564,2,0,P|180:199|142:252,2,120,2|8|2,0:0|0:0|0:0,0:0:0:0:
119,54,43850,1,8,0:0:0:0:
51,122,44278,2,0,P|22:173|34:230,1,120,2|8,0:0|0:0,0:0:0:0:
56,272,44921,1,0,0:0:0:0:
85,311,45135,6,0,P|133:346|206:344,2,120,4|8|2,0:0|0:0|0:0,0:0:0:0:
164,256,46421,1,8,0:0:0:0:
116,172,46850,2,0,L|35:172,2,60,2|0|8,0:0|0:0|0:0,0:0:0:0:
208,140,47707,21,2,0:0:0:0:
216,44,48135,1,8,0:0:0:0:
308,24,48564,2,0,P|364:32|404:88,1,120,4|8,2:1|0:0,0:0:0:0:
440,168,49421,2,0,P|476:160|508:168,2,60,2|0|8,0:0|0:0|0:0,0:0:0:0:
400,196,50064,1,0,0:0:0:0:
364,224,50278,2,0,P|304:244|252:224,1,120,2|8,0:0|0:0,0:0:0:0:
172,172,51135,6,0,P|112:152|60:172,1,120,2|8,0:0|0:0,0:0:0:0:
24,204,51778,1,0,0:0:0:0:
24,204,51992,2,0,L|24:328,1,120,2|8,0:0|0:0,0:0:0:0:
120,332,52850,2,0,P|176:312|220:272,1,120,2|8,0:0|0:0,0:0:0:0:
256,240,53492,2,0,P|307:300|400:340,1,180,0|8,0:0|0:0,0:0:0:0:
496,340,54564,5,2,0:0:0:0:
444,260,54992,1,8,0:0:0:0:
500,184,55421,2,0,P|436:168|368:200,1,120,4|8,0:0|0:0,0:0:0:0:
324,260,56278,2,0,P|260:276|192:244,1,120,2|8,0:0|0:0,0:0:0:0:
176,224,56921,2,0,P|174:161|128:96,1,120
108,84,57564,1,8,0:0:0:0:
12,104,57992,5,2,0:0:0:0:
32,200,58421,2,0,P|34:263|80:328,1,120,8|2,0:0|0:0,0:0:0:0:
152,348,59278,1,8,0:0:0:0:
212,272,59707,2,0,P|270:259|329:283,1,120,2|8,0:0|0:0,0:0:0:0:
364,308,60350,1,0,0:0:0:0:
404,280,60564,2,0,L|404:134,1,120,2|8,0:0|0:0,0:0:0:0:
404,64,61421,5,2,0:0:0:0:
320,16,61850,1,8,0:0:0:0:
233,57,62278,1,4,0:0:0:0:
215,151,62707,2,0,P|279:138|322:89,2,120,8|2|8,0:0|0:0|0:0,0:0:0:0:
166,149,63778,2,0,P|106:175|76:242,1,120
58,263,64421,1,8,0:0:0:0:
126,329,64850,6,0,P|191:333|232:302,1,120,2|8,0:0|0:0,0:0:0:0:
300,232,65707,2,0,P|376:244|408:292,2,120,2|8|2,0:0|0:0|0:0,0:0:0:0:
236,300,66992,2,0,P|200:312|168:304,1,60,8|0,0:0|0:0,0:0:0:0:
132,296,67421,2,0,P|61:248|44:193,1,120,2|8,0:0|0:0,0:0:0:0:
30,126,68278,1,2,0:0:0:0:
95,55,68707,1,8,0:0:0:0:
190,66,69135,6,0,L|190:198,1,120,4|8,0:0|0:0,0:0:0:0:
211,229,69778,1,0,0:0:0:0:
211,229,69992,2,0,P|281:214|310:160,1,120,2|8,0:0|0:0,0:0:0:0:
322,131,70635,2,0,P|410:144|450:222,1,180,0|8,0:0|0:0,0:0:0:0:
393,296,71707,6,0,P|453:317|506:297,2,120,2|8|2,0:0|0:0|0:0,0:0:0:0:
328,224,72992,2,0,P|275:196|217:206,2,120,8|2|8,0:0|0:0|0:0,0:0:0:0:
393,296,74278,5,2,0:0:0:0:
442,214,74707,1,8,0:0:0:0:
419,120,75135,1,2,0:0:0:0:
331,80,75564,1,8,0:0:0:0:
244,121,75992,6,0,P|185:97|123:112,1,120,4|8,0:0|0:0,0:0:0:0:
44,147,76850,1,2,0:0:0:0:
44,147,77064,2,0,L|45:227,1,60,0|8,0:0|0:0,0:0:0:0:
50,302,77707,6,0,P|109:270|176:272,1,120,4|8,0:0|0:0,0:0:0:0:
252,297,78564,2,0,L|252:367,2,60,2|0|8,0:0|0:0|0:0,0:0:0:0:
256,200,79421,2,0,P|314:221|349:284,1,120,4|8,0:0|0:0,0:0:0:0:
419,328,80278,2,0,L|491:329,2,60,2|0|8,0:0|0:0|0:0,0:0:0:0:
345,267,81135,6,0,P|311:219|256:200,1,120,4|8,0:0|0:0,0:0:0:0:
161,221,81992,2,8,L|162:156,1,60,10|8,0:0|0:0,0:0:0:0:
120,136,82421,2,8,L|120:63,2,60,8|8|4,0:0|0:0|2:1,0:0:0:0:
256,192,83064,12,2,89706,0:0:0:0:
