osu file format v5

[General]
AudioFilename: Cyndi Wang - Jie Mao Wan Wan.mp3
AudioLeadIn: 0
PreviewTime: -1
Countdown: 1
SampleSet: Soft
StackLeniency: 0.7
Mode: 0
LetterboxInBreaks: 1

[Metadata]
Title:Jie Mao Wan Wan
Artist:Cyndi Wang
Creator:sohueasy
Version:Hard
Source:
Tags:

[Difficulty]
HPDrainRate:3
CircleSize:3
OverallDifficulty:7
SliderMultiplier:1.6
SliderTickRate:2

[Events]
//Background and Video events
//Break Periods
2,83978,86545
//Storyboard Layer 0 (Background)
//Storyboard Layer 1 (Failing)
//Storyboard Layer 2 (Passing)
//Storyboard Layer 3 (Foreground)
//Storyboard Sound Samples
//Background Colour Transformations
3,100,163,162,255

[TimingPoints]
112,666.666666666667,4,2,0,100,1

[HitObjects]
64,128,31445,1,0
128,128,31778,1,0
131,131,31945,1,0
134,134,32112,1,8
192,128,32445,1,0
256,128,32778,1,0
320,128,33112,1,0
384,128,33445,1,8
192,160,34112,1,0
224,160,34278,1,0
256,160,34445,1,0
288,160,34612,1,0
320,160,34778,1,8
256,192,35112,1,0
320,224,35445,1,0
288,224,35612,1,0
256,224,35778,1,0
224,224,35945,1,0
192,224,36112,1,8
64,288,36778,1,0
128,288,37112,1,0
131,291,37279,1,0
134,294,37446,1,8
192,288,37778,1,0
256,288,38111,1,0
320,288,38445,1,0
384,288,38778,1,8
320,224,39445,1,0
288,224,39611,1,0
256,224,39778,1,0
224,224,39945,1,0
192,224,40111,1,8
256,192,40445,1,0
192,160,40778,1,0
224,160,40945,1,0
256,160,41111,1,0
288,160,41278,1,0
320,160,41445,1,8
64,128,42112,1,0
128,128,42445,1,0
131,131,42612,1,0
134,134,42779,1,8
192,128,43112,1,0
256,128,43445,1,0
320,128,43779,1,0
384,128,44112,1,8
224,128,44779,1,0
224,160,44945,1,0
224,192,45112,1,0
224,224,45279,1,0
224,256,45445,1,8
256,192,45779,1,0
288,256,46112,1,0
288,224,46279,1,0
288,192,46445,1,0
288,160,46612,1,0
288,128,46779,1,8
64,288,47445,1,0
128,288,47779,1,0
131,291,47946,1,0
134,294,48113,1,8
192,288,48445,1,0
256,288,48778,1,0
320,288,49112,1,0
384,288,49445,1,8
288,128,50112,1,0
288,160,50278,1,0
288,192,50445,1,0
288,224,50612,1,0
288,256,50778,1,8
256,192,51112,1,0
224,256,51445,1,0
224,224,51612,1,0
224,192,51778,1,0
224,160,51945,1,0
224,128,52112,1,8
64,96,52778,2,0,B|138:150|224:96,1,160
320,96,53945,1,0
352,128,54112,1,0
352,96,54278,1,0
320,128,54445,1,0
352,192,54778,1,0
320,256,55112,1,0
352,288,55278,1,0
352,256,55445,1,0
320,288,55612,1,0
288,256,55778,1,0
224,288,56112,1,0
160,256,56445,1,0
128,288,56612,1,0
96,256,56778,1,0
128,192,57112,1,0
131,195,57445,1,0
256,192,57778,1,0
320,288,58112,2,0,B|394:342|480:288,1,160
448,256,59112,1,0
416,224,59278,1,0
384,256,59445,1,0
320,224,59779,1,0
323,227,60112,1,0
256,256,60446,1,0
224,224,60612,1,0
224,256,60779,1,0
256,224,60946,1,0
224,192,61112,1,0
160,192,61446,1,0
224,160,61779,1,0
256,128,61946,1,0
224,96,62112,1,0
160,96,62446,1,0
163,99,62779,1,0
64,64,63445,1,0
96,96,63695,1,0
128,64,63945,1,0
160,64,64112,1,8
192,96,64445,1,0
224,64,64778,1,0
256,96,65112,1,0
288,64,65445,1,8
320,96,65778,1,0
384,64,66112,2,0,L|433:128|384:192,1,160,0|8
253,188,67112,1,0
256,192,67278,1,0
259,196,67445,1,0
259,194,67778,1,0
264,200,68112,1,8
384,288,68778,1,0
352,320,69112,1,0
320,320,69278,1,0
288,320,69445,1,8
256,288,69778,1,0
224,320,70112,1,0
192,288,70445,1,0
160,320,70778,1,8
128,288,71112,1,0
96,320,71445,1,0
96,192,72112,1,8
128,160,72445,1,0
160,192,72778,1,0
192,160,73112,1,0
224,192,73445,1,8
96,32,74112,2,0,L|128:0|160:32,1,80,0|0
192,32,74778,2,0,L|224:64|256:32,1,80,8|0
288,64,75445,1,0
320,32,75778,1,0
352,64,76112,2,0,L|384:32|416:64,1,80,8|0
416,128,76778,1,0
384,160,77112,2,0,L|332:160,1,40
320,160,77445,1,8
288,128,77778,2,0,L|245:128,1,40
224,128,78112,1,0
192,160,78445,1,0
160,128,78778,1,8
64,288,79445,1,0
96,256,79778,1,0
128,256,79945,1,0
160,256,80112,1,8
192,288,80445,1,0
224,288,80612,1,0
256,288,80778,1,0
288,256,81112,1,0
320,256,81278,1,0
352,256,81445,1,8
384,96,82112,2,0,L|290:96,1,80
256,96,82612,1,0
224,96,82778,1,8
192,128,83112,1,0
160,128,83278,1,0
128,128,83445,1,0
96,128,83612,1,0
64,128,83778,1,0
96,64,87445,6,0,L|149:32|202:64,1,120,0|0
200,63,88112,2,0,L|248:94|306:63,1,120,8|0
352,64,88778,1,0
356,70,88945,1,0
384,96,89112,2,0,L|420:76|460:96|460:95,1,80,0|8
