osu file format v13

[General]
AudioFilename: see the lights.mp3
AudioLeadIn: 0
PreviewTime: -1
Countdown: 1
SampleSet: Normal
StackLeniency: 0.7
Mode: 0
LetterboxInBreaks: 1
WidescreenStoryboard: 0

[Editor]
Bookmarks: 47029,63667,65736
DistanceSpacing: 1.7
BeatDivisor: 4
GridSize: 8
TimelineZoom: 1

[Metadata]
Title:nadcisnienie
TitleUnicode:nadciƛnienie
Artist:Cydros
ArtistUnicode:Cydros
Creator:Cydros
Version:zegarek
Source:
Tags:
BeatmapID:458924
BeatmapSetID:193059

[Difficulty]
HPDrainRate:7
CircleSize:4
OverallDifficulty:8
ApproachRate:9
SliderMultiplier:1.6
SliderTickRate:1

[Events]
//Background and Video events
0,0,"BG XDDD.jpg",0,0
//Break Periods
//Storyboard Layer 0 (Background)
//Storyboard Layer 1 (Fail)
//Storyboard Layer 2 (Pass)
//Storyboard Layer 3 (Foreground)
//Storyboard Sound Samples
//Background Colour Transformations
3,100,163,162,255

[TimingPoints]
219,344.827586206897,4,1,0,50,1,0
5046,-100,4,1,0,30,0,0
5219,-100,4,1,0,50,0,0
33322,-100,4,1,0,90,0,0
33753,-100,4,1,0,50,0,0
36081,-100,4,1,0,90,0,0
36770,-100,4,1,0,50,0,0
44012,-100,4,1,0,5,0,0
44356,-100,4,1,0,50,0,0
45391,-100,4,1,0,20,0,0
47115,-100,4,1,0,50,0,0
50908,-100,4,1,0,20,0,0
52632,-100,4,1,0,50,0,0
63667,-133.333333333333,4,1,0,50,0,0
66425,-133.333333333333,4,1,0,50,0,1
110563,-133.333333333333,4,1,0,50,0,0

[HitObjects]
256,184,219,5,0,0:0:0:0:
120,200,736,2,0,P|144:96|272:64,1,240
256,184,1598,1,0,0:0:0:0:
368,64,2977,1,0,0:0:0:0:
440,272,4012,1,0,0:0:0:0:
80,312,5046,5,0,0:0:0:0:
144,120,5391,5,0,0:0:0:0:
240,48,5563,1,0,0:0:0:0:
392,104,5736,2,0,B|408:168|432:256|336:304|232:304|200:224,1,320
288,152,6770,1,0,0:0:0:0:
240,48,7115,2,0,B|174:50|82:51|63:156|91:256|177:265,1,320
208,216,8494,2,0,B|144:232|112:280|48:264|24:152|96:32,1,320
304,216,9529,2,0,B|368:232|400:280|464:264|488:152|416:32,1,320
192,88,10563,6,0,P|240:48|320:96,1,160
256,168,11253,6,0,B|216:200|152:168|104:144|104:144|80:224|24:288,1,320
256,264,12287,1,0,0:0:0:0:
256,168,12632,2,0,B|296:200|360:168|408:144|408:144|432:224|488:288,1,320
184,40,14012,2,0,P|112:80|80:304,1,320
328,40,15046,2,0,P|400:80|432:304,1,320
280,176,16081,1,0,0:0:0:0:
176,296,16425,5,0,0:0:0:0:
248,328,16598,1,0,0:0:0:0:
328,312,16770,2,0,B|408:256|408:176|368:152|368:152|448:48,1,320
256,160,17805,1,0,0:0:0:0:
184,312,18150,2,0,B|104:256|104:176|144:152|144:152|64:48,1,320
40,80,19529,2,0,B|128:136|152:208|144:280|216:344,1,320
472,80,20563,2,0,B|384:136|360:208|368:280|296:344,1,320
176,88,21598,6,0,L|336:88,1,160
256,168,22287,1,0,0:0:0:0:
120,256,22632,6,0,P|72:240|56:128,1,160
128,152,23150,1,0,0:0:0:0:
184,72,23322,1,0,0:0:0:0:
248,144,23494,1,0,0:0:0:0:
328,96,23667,2,0,P|392:144|400:232,1,160
248,336,24356,1,0,0:0:0:0:
176,160,24701,6,0,P|112:224|104:304,1,160
320,112,25563,1,0,0:0:0:0:
376,192,25736,1,0,0:0:0:0:
352,280,25908,1,0,0:0:0:0:
448,304,26081,2,0,P|472:216|456:112,1,160
304,40,26770,1,0,0:0:0:0:
168,176,27115,2,0,B|112:136|72:96|8:96,1,160
56,192,27632,1,0,0:0:0:0:
96,280,27805,6,0,B|168:344|216:336|272:336,1,160
296,152,28494,1,0,0:0:0:0:
432,64,28839,2,0,P|472:240|352:312,1,320
240,224,29874,1,0,0:0:0:0:
208,64,30219,2,0,P|120:80|72:144,2,160,0|0|0,0:0|0:0|0:0,0:0:0:0:
360,104,31253,1,0,0:0:0:0:
256,192,31598,12,0,33322,0:0:0:0:
344,160,34012,5,0,0:0:0:0:
256,48,34184,1,0,0:0:0:0:
168,160,34356,1,0,0:0:0:0:
208,264,34529,1,0,0:0:0:0:
96,248,34701,2,0,P|64:168|80:80,1,160
312,80,36081,5,8,0:0:0:0:
224,168,36770,5,0,0:0:0:0:
240,296,36943,1,0,0:0:0:0:
360,328,37115,1,0,0:0:0:0:
440,232,37287,1,0,0:0:0:0:
376,152,37460,2,0,B|304:120|280:96|272:32,1,160
64,64,38150,1,0,0:0:0:0:
144,256,38494,1,0,0:0:0:0:
280,256,38839,6,0,B|224:200|176:192|184:120,1,160
344,160,39529,1,0,0:0:0:0:
256,192,39874,12,0,40908,0:0:0:0:
168,80,41253,5,0,0:0:0:0:
392,160,41598,1,0,0:0:0:0:
232,344,41943,1,0,0:0:0:0:
224,200,42287,1,0,0:0:0:0:
256,192,42632,12,0,44012,0:0:0:0:
416,160,44356,6,0,P|400:128|200:64,1,240
136,48,45391,1,0,0:0:0:0:
110,63,45477,1,0,0:0:0:0:
87,83,45563,1,0,0:0:0:0:
69,106,45649,1,0,0:0:0:0:
55,133,45735,1,0,0:0:0:0:
46,161,45822,1,0,0:0:0:0:
43,191,45908,1,0,0:0:0:0:
45,221,45994,1,0,0:0:0:0:
53,250,46080,1,0,0:0:0:0:
66,277,46166,1,0,0:0:0:0:
84,301,46253,1,0,0:0:0:0:
106,321,46339,1,0,0:0:0:0:
131,337,46425,1,0,0:0:0:0:
159,348,46511,1,0,0:0:0:0:
189,354,46597,1,0,0:0:0:0:
218,354,46684,1,0,0:0:0:0:
248,349,46770,1,0,0:0:0:0:
276,338,46856,1,0,0:0:0:0:
301,322,46942,1,0,0:0:0:0:
324,302,47028,1,0,0:0:0:0:
344,272,47115,6,0,P|360:160|464:64,1,240
168,272,48494,2,0,P|152:160|48:64,1,240
120,96,49874,5,0,0:0:0:0:
176,304,50391,1,0,0:0:0:0:
296,320,50908,1,0,0:0:0:0:
315,315,50994,1,0,0:0:0:0:
334,308,51080,1,0,0:0:0:0:
351,298,51166,1,0,0:0:0:0:
367,286,51252,1,0,0:0:0:0:
381,272,51339,1,0,0:0:0:0:
393,256,51425,1,0,0:0:0:0:
403,239,51511,1,0,0:0:0:0:
410,220,51597,1,0,0:0:0:0:
415,201,51683,1,0,0:0:0:0:
417,181,51770,1,0,0:0:0:0:
416,161,51856,1,0,0:0:0:0:
412,141,51942,1,0,0:0:0:0:
405,122,52028,1,0,0:0:0:0:
396,104,52114,1,0,0:0:0:0:
385,88,52201,1,0,0:0:0:0:
371,73,52287,1,0,0:0:0:0:
356,61,52373,1,0,0:0:0:0:
339,50,52459,1,0,0:0:0:0:
321,42,52545,1,0,0:0:0:0:
280,32,52632,6,0,P|160:56|104:184,1,240
240,144,54012,2,0,P|181:251|43:267,1,240
328,272,55391,5,0,0:0:0:0:
168,296,55736,1,0,0:0:0:0:
96,200,55908,1,0,0:0:0:0:
184,120,56081,1,0,0:0:0:0:
64,80,56425,1,0,0:0:0:0:
288,184,56770,5,0,0:0:0:0:
360,40,57115,1,0,0:0:0:0:
416,192,57460,1,0,0:0:0:0:
344,336,57805,1,0,0:0:0:0:
224,232,58150,1,0,0:0:0:0:
256,88,58494,1,0,0:0:0:0:
128,72,58839,1,0,0:0:0:0:
72,168,59184,1,0,0:0:0:0:
88,264,59529,1,0,0:0:0:0:
168,320,59874,1,0,0:0:0:0:
264,312,60219,1,0,0:0:0:0:
336,248,60563,1,0,0:0:0:0:
256,192,60908,5,0,0:0:0:0:
192,144,61081,1,0,0:0:0:0:
112,120,61253,1,0,0:0:0:0:
64,56,61425,1,0,0:0:0:0:
144,32,61598,1,0,0:0:0:0:
224,32,61770,1,0,0:0:0:0:
304,48,61943,1,0,0:0:0:0:
368,104,62115,1,0,0:0:0:0:
400,168,62287,1,0,0:0:0:0:
392,232,62460,1,0,0:0:0:0:
360,272,62632,1,0,0:0:0:0:
312,296,62805,1,0,0:0:0:0:
256,304,62977,1,0,0:0:0:0:
200,296,63150,1,0,0:0:0:0:
152,264,63322,1,0,0:0:0:0:
128,216,63494,1,0,0:0:0:0:
136,184,63667,5,0,0:0:0:0:
140,154,63753,1,0,0:0:0:0:
150,126,63839,1,0,0:0:0:0:
165,100,63925,1,0,0:0:0:0:
184,77,64011,1,0,0:0:0:0:
207,58,64098,1,0,0:0:0:0:
234,44,64184,1,0,0:0:0:0:
262,34,64270,1,0,0:0:0:0:
292,30,64356,1,0,0:0:0:0:
322,32,64442,1,0,0:0:0:0:
351,39,64529,1,0,0:0:0:0:
378,52,64615,1,0,0:0:0:0:
403,69,64701,1,0,0:0:0:0:
424,90,64787,1,0,0:0:0:0:
441,115,64873,1,0,0:0:0:0:
453,142,64960,1,0,0:0:0:0:
459,171,65046,1,0,0:0:0:0:
461,201,65132,1,0,0:0:0:0:
456,231,65218,1,0,0:0:0:0:
447,259,65304,1,0,0:0:0:0:
432,285,65391,1,0,0:0:0:0:
413,308,65477,1,0,0:0:0:0:
390,328,65563,1,0,0:0:0:0:
363,342,65649,1,0,0:0:0:0:
335,352,65735,1,0,0:0:0:0:
296,272,65908,5,0,0:0:0:0:
320,120,66167,1,0,0:0:0:0:
