osu file format v5

[General]
AudioFilename: 117474_Winterbliss.mp3
AudioLeadIn: 0
PreviewTime: -1
Countdown: 1
SampleSet: Normal
StackLeniency: 0.5
Mode: 0
LetterboxInBreaks: 1
EditorBookmarks: 18082,21611,35729,42788,56905,63523,77640,81170,95287,111170,125729,139846,153964
EditorDistanceSpacing: 0.600000023841858

[Metadata]
Title:Winterbliss
Artist:Cycerin
Creator:Shiftyness13
Version:Normal
Source:Castle Crashers
Tags:Winterbliss cycerin Castle Crashers winter

[Difficulty]
HPDrainRate:3
CircleSize:5
OverallDifficulty:3
SliderMultiplier:1.5
SliderTickRate:2

[Events]
//Background and Video events
0,0,"[UNSET].jpg"
//Break Periods
2,28208,34529
2,49605,62083
2,77840,79970
2,91737,94087
2,123501,124529
//Storyboard Layer 0 (Background)
//Storyboard Layer 1 (Failing)
//Storyboard Layer 2 (Passing)
//Storyboard Layer 3 (Foreground)
//Storyboard Sound Samples
//Background Colour Transformations
3,100,163,162,255

[TimingPoints]
-6,441.175454545456,4,1,0,100,1,0

[HitObjects]
216,192,21611,2,0,B|208:144|272:104|320:144|288:264,2,150
256,264,23376,6,0,B|256:368,5,75
128,312,25141,2,0,B|128:160,1,150
136,152,25802,2,0,B|192:96,1,75
256,152,26905,5,0
336,152,27346,1,0
424,152,27788,1,0
168,152,35729,6,0,B|320:152,1,150
240,152,36611,1,0
80,304,37493,6,0,B|176:184,1,150
256,184,38376,1,0
296,184,38596,2,0,B|352:240,1,75
256,192,39258,12,0,42346
256,192,42788,5,0
328,192,43229,1,0
400,192,43670,1,0
400,192,43890,1,4
400,192,44111,1,4
328,264,44552,5,0
328,192,44993,1,0
328,120,45435,1,0
328,120,45655,1,4
328,120,45876,1,4
256,192,46317,5,0
184,192,46758,1,0
184,264,47199,1,0
256,264,47640,1,4
328,264,48082,5,0
256,264,48523,1,0
256,336,48964,1,0
256,336,49185,1,4
256,336,49405,1,4
256,136,63523,6,0,B|336:136,6,75
256,200,65287,6,0,B|176:200,6,75
256,280,67052,5,0
336,280,67493,1,0
416,280,67935,1,0
416,208,68376,1,0
336,208,68817,2,0,B|256:208,4,75
336,144,69920,1,0
336,80,70140,1,0
256,192,70582,12,0,76758
256,192,77640,5,0
144,192,81170,6,0,B|224:192,2,75
144,192,81832,2,0,B|64:192,2,75
144,192,82493,2,0,B|144:272,1,75
144,267,82934,6,0,B|200:320,2,75
144,267,83596,2,0,B|88:320,2,75
144,267,84258,2,0,B|226:268,1,75
256,320,84699,5,0
320,320,84920,2,0,B|376:264,1,75
373,266,85361,2,0,B|312:208,1,75
318,214,85802,2,0,B|376:160,2,75
336,112,86464,6,0,B|440:96|424:200,4,150
272,112,88670,5,0
208,112,89111,1,0
144,112,89552,1,0
144,184,89993,5,0
208,184,90434,1,0
272,184,90876,1,0
208,184,91317,1,0
104,72,95287,5,0
184,72,95729,1,8
264,72,96170,1,0
344,72,96611,1,8
344,152,97052,5,0
264,152,97493,1,8
344,152,97934,1,0
344,232,98376,1,8
264,232,98817,5,0
264,152,99258,1,8
184,152,99699,1,0
264,152,100140,1,8
344,152,100582,5,0
344,232,101023,1,0
344,312,101464,1,8
264,312,101905,1,8
184,312,102346,6,0,B|104:312,1,75
109,312,102787,2,0,B|56:256,1,75
57,257,103229,2,0,B|56:176,1,75
56,182,103670,2,0,B|56:104,1,75
56,107,104111,6,0,B|135:107,1,75
131,107,104552,2,0,B|208:107,1,75
206,107,104993,2,0,B|129:107,1,75
131,107,105434,2,0,B|54:107,1,75
256,192,105876,12,0,109405
168,112,111170,6,0,B|96:192|200:280,2,150
256,112,112493,1,8
344,112,112934,6,0,B|416:192|312:280,2,150
256,112,114258,1,8
256,192,114699,6,0,B|256:344,2,150
256,112,116023,1,8
168,112,116464,5,0
112,176,116905,1,0
112,256,117346,1,0
168,312,117787,1,0
248,344,118229,6,0,B|392:240|200:280|368:168,2,225
264,344,119993,6,0,B|120:240|312:280|144:168,2,225
256,280,121758,6,0,B|256:200,1,75
256,205,122199,2,0,B|256:128,1,75
256,130,122640,2,0,B|256:48,1,75
256,55,123081,1,0
112,88,125729,5,0
264,88,126611,5,0
184,216,127493,5,0
344,216,128155,6,4,B|424:216,1,75
304,312,129258,5,0
152,312,130140,1,0
152,160,131023,1,0
304,160,131905,1,0
304,312,132787,5,0
152,312,133670,1,0
152,160,134552,1,0
296,160,135214,2,4,B|376:160,1,75
296,288,136317,5,0
144,288,137199,1,0
296,288,138081,1,0
448,288,138964,1,0
296,288,139846,5,8
208,288,140287,1,4
120,288,140728,1,8
160,224,141170,1,4
240,224,141611,1,8
320,224,142052,1,4
368,224,142273,2,8,B|424:168,1,75
432,96,142934,5,0
352,96,143376,1,0
272,96,143817,1,0
272,176,144258,1,0
272,256,144699,1,0
272,176,145140,1,8
272,96,145581,1,8
272,176,146023,1,8
256,192,146905,12,0,153081
