osu file format v5

[General]
AudioFilename: 117474_Winterbliss.mp3
AudioLeadIn: 0
PreviewTime: -1
Countdown: 1
SampleSet: Normal
StackLeniency: 0.2
Mode: 0
LetterboxInBreaks: 1
EditorBookmarks: 18082,21611,35729,44552,56905,63523,77640,81170,95287,111170,125729,139846,153964
EditorDistanceSpacing: 0.600000023841858

[Metadata]
Title:Winterbliss
Artist:Cycerin
Creator:Shiftyness13
Version:Hard
Source:Castle Crashers
Tags:Winterbliss cycerin Castle Crashers winter

[Difficulty]
HPDrainRate:4
CircleSize:6
OverallDifficulty:5
SliderMultiplier:2
SliderTickRate:2

[Events]
//Background and Video events
0,0,"[UNSET].jpg"
//Break Periods
2,42326,48646
2,77840,79970
2,91737,94087
2,109384,109970
2,123501,124529
//Storyboard Layer 0 (Background)
//Storyboard Layer 1 (Failing)
//Storyboard Layer 2 (Passing)
//Storyboard Layer 3 (Foreground)
//Storyboard Sound Samples
//Background Colour Transformations
3,100,163,162,255

[TimingPoints]
-6,441.175454545456,4,1,0,100,1,0

[HitObjects]
224,192,18523,1,0
224,192,18964,1,0
288,192,19405,1,0
288,192,19846,1,0
224,256,20288,1,0
224,256,20729,2,0,B|328:256,2,100
168,256,21611,5,0
128,216,21832,1,0
168,176,22052,1,0
128,136,22273,1,0
168,96,22493,1,0
256,96,22935,5,4
344,96,23376,5,0
344,152,23596,1,0
344,208,23817,2,0,B|448:208,2,100
344,208,24479,1,0
344,208,24699,1,0
256,208,25141,6,0,B|152:208,1,100
156,208,25582,2,0,B|156:104,1,100
155,109,26023,1,0
320,96,26905,5,0
272,144,27126,1,0
320,144,27346,1,0
272,96,27567,1,0
232,56,27787,1,0
192,96,28008,1,0
48,288,28670,5,0
104,288,28890,2,0,L|208:288,2,100
104,232,29552,1,0
216,232,29993,1,0
344,232,30434,6,0,B|432:136|344:48,2,200
344,288,31537,1,0
224,232,32199,6,0,L|120:232,1,100
124,232,32640,1,0
124,232,32861,2,0,L|224:232,1,100
288,160,33964,6,0,L|392:160,1,100
288,160,34405,2,0,L|184:160,1,100
288,160,34846,1,0
64,232,35729,5,0
120,256,35949,1,0
176,232,36170,1,0
224,264,36390,2,0,B|328:264,1,100
328,208,36832,5,0
328,152,37052,1,0
328,72,37493,5,0
272,128,37714,1,0
328,184,37935,1,0
384,128,38155,1,0
304,128,38376,1,0
224,128,38596,1,0
144,128,38817,1,0
168,256,39258,6,0,B|248:328|360:256,2,200
352,264,40582,1,0
440,128,41023,6,0,L|368:200,1,100
328,160,41464,1,0
288,112,41685,1,0
248,160,41905,1,0
208,112,42126,1,0
112,272,49846,5,0
64,232,50067,2,0,B|120:192|176:248,3,100
208,232,50949,5,0
264,232,51170,1,0
320,232,51390,1,0
376,232,51611,2,0,B|376:128,1,100
376,132,52052,2,0,B|272:132,1,100
276,132,52493,2,0,B|276:240,1,100
328,232,52935,1,4
176,232,53376,6,0,B|104:160|176:40,2,200
256,232,54699,6,0,B|256:336,1,100
304,304,55140,1,0
344,264,55361,1,0
304,224,55582,1,0
344,184,55802,1,0
304,144,56023,1,0
344,104,56243,1,0
256,192,56905,12,0,62640
152,56,63523,5,0
152,56,63743,2,0,B|256:56,1,100
252,56,64185,2,0,B|252:158,1,100
252,156,64626,2,0,B|360:156,1,100
352,156,65067,1,0
352,216,65287,5,0
352,216,65508,2,0,B|248:216,1,100
252,216,65949,2,0,B|252:319,1,100
252,316,66390,2,0,B|144:316,1,100
152,316,66832,1,0
152,256,67052,6,0,B|256:256,1,100
304,256,67493,1,0
360,256,67714,1,0
416,256,67935,2,0,B|416:152,1,100
360,160,68376,1,0
304,160,68596,1,0
248,160,68817,5,0
192,160,69037,2,0,B|192:264,2,100
192,160,69699,2,0,B|192:56,2,100
192,160,70361,1,0
248,160,70582,5,0
248,160,70802,2,0,B|456:160,1,200
448,160,71464,1,0
448,232,71905,1,0
392,232,72126,1,0
336,232,72346,5,0
336,232,72566,2,0,B|128:232,1,200
136,232,73229,1,0
136,304,73670,1,0
192,304,73891,1,0
312,296,74111,6,0,B|344:192|256:120|168:192|200:296,3,300
256,296,76758,1,0
256,296,77199,1,0
256,296,77640,1,0
168,104,81170,6,0,L|224:104,2,50
272,104,81611,1,0
272,168,81832,2,0,L|328:168,2,50
376,168,82273,1,0
376,224,82493,2,0,L|416:256,2,50
304,224,82934,6,0,L|248:224,2,50
200,224,83376,1,0
200,288,83596,2,0,L|144:288,2,50
96,288,84037,1,0
64,240,84258,2,0,L|32:192,2,50
120,240,84699,5,0
208,240,84920,2,0,L|264:240,2,50
208,240,85361,2,0,L|208:184,2,50
208,240,85802,1,0
208,240,86023,2,0,L|208:296,2,50
264,240,86464,6,0,L|320:240,2,50
368,240,86905,1,0
368,184,87126,2,0,L|432:264,1,100
376,288,87567,1,0
320,288,87787,2,0,L|264:288,6,50
320,232,88670,5,0
280,184,88890,2,0,L|240:144,2,50
208,184,89332,1,0
208,240,89552,2,0,L|208:296,2,50
264,288,89993,6,0,L|320:288,2,50
368,288,90434,1,0
368,232,90655,2,0,L|312:232,2,50
264,232,91096,1,0
264,176,91317,2,0,L|264:120,2,50
256,192,95287,5,0
312,192,95508,1,0
312,192,95618,1,0
312,192,95729,1,0
368,192,95949,1,0
368,248,96170,1,0
368,248,96280,1,0
368,248,96391,1,0
312,248,96611,1,0
256,248,96832,2,0,L|200:248,2,50
256,304,97273,5,0
256,304,97383,1,0
256,304,97493,1,0
312,304,97714,1,0
312,248,97934,1,0
312,248,98045,1,0
312,248,98155,1,0
312,192,98376,1,0
312,136,98596,2,0,L|256:136,2,50
208,136,99037,5,0
208,136,99147,1,0
208,136,99258,1,0
152,136,99479,1,0
184,88,99699,1,0
184,88,99809,1,0
184,88,99920,1,0
240,88,100140,1,0
264,136,100361,2,0,L|264:192,2,50
320,136,100802,5,0
320,136,100912,1,0
320,136,101023,1,0
376,136,101243,1,0
376,192,101464,1,0
376,192,101574,1,0
376,192,101684,1,0
376,248,101905,1,0
320,248,102126,2,0,L|280:208,2,50
256,192,102567,6,0,L|256:136,2,50
256,192,103008,1,0
256,192,103229,2,0,L|256:248,2,50
256,192,103670,1,0
256,192,103890,2,0,L|152:192,1,100
156,192,104331,5,0
156,192,104442,1,0
156,192,104552,1,0
104,192,104773,1,0
128,240,104993,1,0
128,240,105104,1,0
128,240,105214,1,0
184,240,105434,1,0
184,240,105655,2,0,L|288:240,1,100
336,240,106096,5,0
336,240,106206,1,0
336,240,106317,1,0
392,240,106537,1,0
448,240,106758,2,0,L|448:184,2,50
448,296,107199,1,0
392,296,107420,1,0
392,296,107530,1,0
392,296,107640,1,0
336,296,107861,2,0,L|280:296,2,50
336,240,108302,1,0
280,240,108523,6,0,L|224:240,2,50
280,184,108964,2,0,L|336:184,2,50
192,72,111170,5,0
192,128,111390,2,0,L|296:128,2,100
192,184,112052,2,0,L|88:184,2,100
192,240,112714,1,0
248,240,112934,5,0
304,240,113155,2,0,L|304:136,2,100
360,240,113817,2,0,L|360:344,2,100
416,240,114479,1,0
416,184,114699,5,0
360,184,114920,2,0,L|256:184,2,100
360,128,115581,2,0,L|256:128,2,100
360,184,116243,1,0
304,184,116464,5,0
304,184,116684,2,0,L|304:80,2,100
304,184,117346,2,0,L|304:288,2,100
304,184,118008,1,0
248,184,118229,5,0
200,224,118449,1,0
152,176,118670,1,0
104,224,118890,1,0
56,184,119111,1,0
104,136,119331,1,0
152,96,119552,1,0
200,136,119773,1,0
152,96,119993,1,0
200,136,120214,5,0
248,184,120434,1,0
296,136,120655,1,0
344,88,120876,1,0
296,136,121096,1,0
248,184,121317,1,0
296,136,121537,1,0
360,152,121758,6,0,L|288:224,1,100
288,224,122199,2,0,L|216:152,1,100
216,152,122640,2,0,L|144:224,1,100
144,224,123081,2,0,L|72:152,1,100
376,192,125729,5,0
320,192,126170,1,0
320,192,126391,1,0
264,192,126611,1,0
136,192,127493,5,0
192,192,127934,1,0
192,192,128155,1,0
248,192,128375,1,0
256,64,129258,5,0
256,120,129699,1,0
256,120,129920,1,0
256,176,130140,1,0
256,312,131023,5,0
256,256,131464,1,0
256,256,131684,1,0
256,200,131905,1,0
400,192,132787,6,0,L|328:264|256:192|184:264|112:192,1,400
112,192,134552,6,0,L|184:120|256:192|328:120|400:192,1,400
224,136,136317,5,0
272,168,136537,1,0
224,200,136758,1,0
272,232,136978,1,0
224,264,137199,1,0
224,136,138081,6,0,L|424:136,2,200
120,96,139846,5,0
120,96,140067,1,0
440,88,140728,1,0
440,88,140949,1,0
240,336,141611,1,0
240,336,141831,1,0
96,224,142273,1,0
96,152,142493,1,0
96,152,142714,1,0
432,56,143376,5,0
432,56,143596,1,0
256,320,144258,1,0
256,320,144478,1,0
24,96,145140,1,0
24,96,145361,1,0
344,96,146023,1,0
184,120,146905,6,0,L|256:192,1,100
326,120,147787,2,0,L|254:192,1,100
184,261,148670,2,0,L|256:189,1,100
325,262,149331,2,0,L|253:190,2,100
408,88,150434,6,0,B|304:88,1,100
360,144,150876,1,0
288,144,151096,1,0
216,144,151317,2,0,B|112:144,1,100
184,200,151758,5,0
256,200,151978,1,0
328,200,152199,2,0,B|432:200,1,100
376,144,152640,5,0
304,144,152861,1,0
232,144,153081,1,0
232,304,153523,5,0
392,264,153964,5,0
352,224,154184,1,0
392,184,154405,1,0
432,224,154625,1,0
472,184,154846,1,0
392,112,155287,6,0,L|192:112,1,200
136,112,155949,1,0
176,152,156170,1,0
216,192,156390,1,0
176,232,156611,1,0
136,272,156831,1,0
376,272,157493,6,0,L|376:168,4,100
216,272,159258,6,0,L|112:272,1,100
216,272,159699,2,0,L|144:200,1,100
216,272,160140,2,0,L|216:168,1,100
216,80,161023,5,0
272,80,161243,1,0
216,136,161464,1,0
160,136,161684,1,0
216,192,161905,1,0
64,152,162787,5,0
104,104,163008,1,0
144,152,163228,1,0
144,208,163449,1,0
144,264,163670,1,0
144,320,163890,1,0
272,104,164552,5,0
312,152,164773,1,0
312,208,164993,1,0
312,264,165214,1,0
312,320,165434,1,0
184,264,166317,6,0,L|184:160,5,100
184,164,167640,1,0
