osu file format v9

[General]
AudioFilename: Cyber Plums Vs Hilma - Jingle Bells.mp3
AudioLeadIn: 2000
PreviewTime: 42894
Countdown: 0
SampleSet: Soft
StackLeniency: 0.3
Mode: 0
LetterboxInBreaks: 0

[Editor]
DistanceSpacing: 1
BeatDivisor: 4
GridSize: 8

[Metadata]
Title:Jingle Bells
Artist:Cyber Plums Vs Hilma
Creator:osuplayer111
Version:Insane
Source:
Tags:kanpakyin

[Difficulty]
HPDrainRate:7
CircleSize:5
OverallDifficulty:7
ApproachRate:8
SliderMultiplier:1.6
SliderTickRate:2

[Events]
//Background and Video events
0,0,"Epic BG.png"
//Break Periods
2,57212,68616
2,99566,110970
2,170157,181561
//Storyboard Layer 0 (Background)
//Storyboard Layer 1 (Fail)
//Storyboard Layer 2 (Pass)
//Storyboard Layer 3 (Foreground)
//Storyboard Sound Samples
//Background Colour Transformations
3,100,163,162,255

[TimingPoints]
540,441.192690907754,4,2,1,80,1,0
11018,-100,4,2,2,100,0,0
13003,-100,4,2,1,80,0,0
14658,-100,4,2,1,80,0,1
14768,-100,4,2,1,80,0,0
15209,-100,4,2,2,80,0,0
15430,-100,4,2,1,80,0,0
16974,-100,4,2,2,80,0,0
17195,-100,4,2,1,80,0,0
18298,-100,4,2,2,80,0,0
18518,-100,4,2,1,80,0,0
38372,-100,4,2,2,80,0,0
38592,-100,4,2,1,80,0,0
42563,-100,4,2,2,80,0,0
42784,-100,4,2,1,80,0,0
42894,-100,4,2,1,80,0,1
56461,-200,4,2,1,80,0,1
56902,-100,4,2,1,80,0,0
57012,-100,4,2,1,80,0,1
57122,-100,4,2,1,80,0,0
80726,-100,4,2,2,80,0,0
80947,-100,4,2,1,80,0,0
84918,-100,4,2,2,80,0,0
85138,-100,4,2,1,80,0,0
85248,-100,4,2,1,80,0,1
98815,-200,4,2,1,80,0,1
99256,-100,4,2,1,80,0,0
99367,-100,4,2,1,80,0,1
99477,-100,4,2,1,80,0,0
113485,-200,4,2,2,50,0,0
127603,-100,4,2,2,100,0,0
154185,-100,4,2,1,80,0,0
155839,-100,4,2,1,80,0,1
169406,-200,4,2,1,80,0,1
169847,-100,4,2,1,80,0,0
169957,-100,4,2,1,80,0,1
170068,-100,4,2,1,80,0,0
184076,-100,4,2,1,80,0,1
198084,-100,4,2,1,80,0,0
198194,-100,4,2,1,80,0,1
206025,-100,4,2,1,80,0,0
206135,-100,4,1,1,80,0,1
206246,-100,4,2,1,80,0,0

[Colours]
Combo1 : 255,94,94
Combo2 : 255,255,106
Combo3 : 255,128,255
Combo4 : 0,118,236

[HitObjects]
176,192,540,1,0
152,120,760,1,2
216,72,981,1,0
296,72,1201,1,2
360,120,1422,1,0
336,192,1642,1,2
176,192,1863,6,0,B|144:272,1,80,0|2
336,192,2304,2,0,B|368:272,1,80,0|2
320,336,2745,1,0
256,288,2966,1,2
192,336,3187,1,0
256,288,3407,2,0,B|256:192,1,80,2|0
256,208,3848,1,2
216,136,4069,6,0,B|176:104|176:48,1,80,0|2
296,136,4510,2,0,B|336:104|336:48,1,80,0|2
112,112,4951,2,0,B|72:80|72:24,1,80,0|2
400,112,5393,2,0,B|440:80|440:24,1,80,0|2
296,136,5834,5,0
216,136,6054,1,2
160,192,6275,1,0
176,272,6496,2,0,B|184:320|224:344,1,80,2|0
295,338,6937,1,2
295,338,7157,2,0,B|328:320|336:272,1,80,0|2
352,192,7599,6,0,B|296:136,1,80,0|2
240,72,8040,1,0
240,72,8260,1,2
176,120,8481,1,0
176,120,8702,1,2
120,64,8922,1,0
120,64,9143,1,2
56,112,9363,6,0,B|32:152|72:208,1,80,0|2
136,184,9805,2,0,B|160:224|120:280,1,80,0|2
64,304,10246,1,0
136,344,10466,1,2
208,304,10687,1,0
280,344,10908,1,2
352,304,11128,5,8
392,288,11238,1,0
424,264,11349,1,0
448,232,11459,1,0
464,192,11569,1,8
448,152,11680,1,0
424,120,11790,1,0
392,96,11900,1,0
352,80,12011,5,8
328,112,12121,1,0
296,136,12231,1,0
256,120,12341,1,0
216,136,12452,1,8
184,112,12562,1,0
160,80,12672,1,0
120,96,12783,1,0
88,120,12893,2,0,B|64:120,32,20,8|0|0|0|2|0|0|0|0|0|0|0|2|0|0|0|0|0|0|0|2|0|0|0|0|0|0|0|2|0|0|0|4
80,216,15099,6,0,B|96:304|184:336,1,160,8|2
256,336,15761,1,0
432,216,15981,2,0,B|424:280|368:304,1,80,8|0
335,334,16422,1,2
256,192,16864,2,0,B|256:24,1,160,8|2
184,72,17525,1,0
256,32,17746,1,8
328,72,17967,1,0
256,112,18187,6,0,B|256:280,1,160,2|8
216,344,18849,1,0
296,344,19070,1,2
392,264,19511,1,8
432,192,19731,1,0
392,120,19952,1,2
120,120,20393,5,8
80,192,20614,1,0
120,264,20834,1,2
120,120,21055,2,0,B|152:88|192:88,1,80,0|8
120,264,21496,2,0,B|152:296|192:296,1,80,0|2
256,192,22158,1,8
384,96,22599,6,0,B|320:48,1,80,2|0
128,96,23040,2,0,B|192:48,1,80,8|0
256,96,23482,1,2
256,288,23923,1,8
128,192,24364,5,2
184,248,24585,1,0
256,288,24805,1,8
328,248,25026,1,0
384,192,25246,1,2
128,192,25687,2,0,B|80:112,2,80,8|0|2
384,192,26570,2,0,B|432:112,2,80,8|0|2
320,56,27452,5,8
256,112,27673,1,0
192,56,27893,1,2
160,128,28114,1,0
208,192,28335,1,8
256,256,28555,1,0
304,192,28776,1,4
352,128,28996,1,2
208,192,29217,6,0,B|160:256,1,80,8|2
160,128,29658,2,0,B|112:128|80:80,1,80,0|2
192,56,30099,1,8
256,112,30320,1,2
256,96,30430,1,0
256,80,30541,1,0
320,56,30761,1,2
352,128,30982,2,0,B|400:128|432:80,1,80,8|2
304,192,31423,2,0,B|352:256,1,80,0|2
288,296,31864,6,0,B|240:368|120:360,1,160,8|0
104,296,32526,2,0,B|64:224,1,80,2|8
24,160,32967,1,2
80,104,33188,1,0
152,128,33408,5,2
168,120,33519,1,0
184,112,33629,2,0,B|256:72,1,80,8|2
320,32,34070,1,0
376,88,34291,1,2
456,72,34511,2,0,B|488:128|456:192,1,120,8|0
458,187,34953,1,0
384,224,35173,1,2
456,264,35394,6,0,B|384:320|304:264,1,160,8|0
256,200,36056,1,2
208,266,36276,2,0,B|144:330,1,80,8|0
72,312,36717,2,0,B|8:240|72:160,2,160,0|8|0
120,240,37820,1,2
184,192,38041,1,8
136,128,38261,2,0,B|176:48|256:32,1,160,2|2
256,32,38923,6,0,B|304:32|336:80,2,80,8|2|0
256,112,39585,1,2
256,192,39806,2,0,B|280:272|368:304,1,160,8|0
432,336,40467,1,2
464,264,40688,1,8
392,232,40909,1,2
364,301,41129,2,0,B|296:360|208:296,1,160,0|8
217,302,41791,1,2
256,232,42012,1,4
176,40,42453,6,0,B|352:40,1,160,2|4
400,88,43115,1,2
344,144,43335,2,0,B|400:216|344:296,1,160,8|0
296,352,43997,1,2
240,296,44218,2,0,B|80:296,1,160,8|0
80,296,44879,1,2
32,232,45100,2,0,B|32:160|96:128,1,120,8|0
87,132,45541,1,0
168,128,45762,1,2
200,56,45982,2,0,B|256:112,1,80,8|2
312,328,46424,6,0,B|256:272,1,80,0|2
344,256,46865,2,0,B|464:256,1,120,8|0
464,256,47306,1,0
464,176,47527,1,2
424,104,47747,1,8
360,48,47968,2,0,B|384:16,2,40,2|0|0
312,112,48409,1,2
256,56,48630,1,8
200,112,48850,1,2
256,168,49071,6,0,B|232:224|288:248|248:336,2,160,0|8|4
200,112,50174,2,0,B|128:72,1,80,2|8
312,112,50615,2,0,B|384:72,1,80,2|0
256,56,51056,1,2
256,56,51277,2,0,B|256:144,1,80,8|2
200,192,51718,5,0
256,248,51938,1,2
312,192,52159,2,0,B|360:248|304:312,1,120,8|0
312,301,52600,1,0
256,360,52821,1,2
200,304,53041,1,8
80,192,53483,5,0
136,248,53703,1,2
200,192,53924,2,0,B|256:148|316:196,1,120,8|0
310,191,54365,1,0
360,128,54586,1,2
408,64,54806,1,8
440,168,55027,5,2
440,168,55137,1,0
440,168,55247,2,0,B|392:232,1,80,0|2
344,296,55689,1,8
296,360,55909,2,0,B|256:340|216:363,1,80,2|0
168,296,56350,1,2
254,269,56571,2,0,B|278:229|254:189,1,80,8|4
256,192,69366,12,4,71130
256,192,71351,1,2
288,264,71572,2,0,B|368:264,1,80,8|2
328,336,72013,2,0,B|416:336,1,80,0|2
448,264,72454,1,8
408,192,72675,1,2
408,192,72785,1,0
408,192,72895,2,0,B|312:192,1,80,0|2
288,264,73336,6,0,B|208:264,1,80,8|2
184,336,73777,2,0,B|104:336,1,80,0|2
64,264,74219,2,0,B|8:184|72:104,1,160,8|0
128,72,74880,2,0,B|192:136,1,80,2|8
240,184,75322,1,2
296,128,75542,1,0
376,152,75763,5,2
376,152,75873,1,0
376,152,75983,2,0,B|464:152,1,80,8|2
472,232,76425,1,0
456,312,76645,1,2
376,328,76866,2,0,B|344:272|280:264,1,120,8|0
280,263,77307,1,0
216,312,77528,1,2
152,360,77748,6,0,B|96:288|152:208,1,160,8|0
144,128,78410,1,2
224,128,78631,2,0,B|288:64,1,80,8|0
352,40,79072,2,0,B|416:112|352:192,2,160,0|8|0
357,185,80175,1,2
408,248,80395,1,8
408,248,80616,2,0,B|368:328|288:344,1,160,2|2
256,272,81278,6,0,B|208:272|176:224,2,80,8|2|0
256,272,81940,1,2
256,192,82160,2,0,B|232:112|144:80,1,160,8|0
80,48,82822,1,2
40,112,83043,1,8
108,150,83263,1,2
148,81,83484,2,0,B|224:32|304:80,1,160,0|8
299,77,84146,1,2
360,32,84366,1,4
416,192,84807,6,0,B|240:192,1,160,2|4
192,152,85469,1,2
192,152,85690,2,0,B|136:224|200:304,1,160,8|0
256,352,86351,1,2
256,352,86572,2,0,B|416:352,1,160,8|0
440,280,87234,1,2
368,248,87454,2,0,B|368:176|432:144,1,120,8|0
423,148,87896,1,0
368,96,88116,1,2
312,152,88337,2,0,B|256:96,1,80,8|2
199,39,88778,6,0,B|255:95,1,80,0|2
168,128,89219,2,0,B|48:128,1,120,8|0
48,128,89660,1,0
88,200,89881,1,2
48,272,90102,1,8
112,320,90322,2,0,B|144:344,2,40,2|0|0
88,200,90763,6,0,B|160:256,1,80,2|8
216,296,91205,1,2
256,232,91425,2,0,B|288:176|224:128|264:64,2,160,0|8|4
296,296,92528,2,0,B|368:336,1,80,2|8
472,304,92969,2,0,B|400:264,1,80,2|0
400,192,93411,1,2
400,192,93631,2,0,B|400:104,1,80,8|2
336,64,94072,5,0
296,128,94293,1,2
256,192,94514,2,0,B|304:248|248:312,1,120,8|0
256,301,94955,1,0
200,248,95175,1,2
200,248,95396,1,8
88,128,95837,5,0
136,64,96058,1,2
184,128,96278,2,0,B|240:84|300:132,1,120,8|0
294,127,96720,1,0
344,192,96940,2,0,B|392:272,1,80,2|8
352,360,97381,5,2
344,344,97492,1,0
336,328,97602,2,0,B|288:248,1,80,0|2
256,192,98043,1,8
200,136,98264,2,0,B|160:120|128:152,1,80,2|0
256,80,98705,1,2
312,136,98925,2,0,B|352:120|384:152,1,80,8|4
256,192,111720,12,4,113485
256,64,113926,6,0,B|256:152,1,80,0|2
200,248,114808,1,0
312,248,115250,1,2
256,328,116573,5,0
256,328,116794,1,0
256,328,117014,2,0,B|256:232,1,80,2|0
144,192,117897,1,2
256,136,118338,1,0
368,192,118779,1,2
136,40,120544,6,0,B|216:40,1,80,2|0
376,40,121426,2,0,B|296:40,1,80,2|0
256,144,122309,1,2
256,240,124073,6,0,B|256:336,1,80,2|0
256,320,124956,1,2
256,144,125618,2,0,B|256:96,1,40,0|2
256,192,126279,12,4,127603
40,192,127824,6,0,B|40:104,1,80,2|8
184,80,128265,2,0,B|184:160,1,80,2|8
112,176,128706,2,0,B|112:96,1,80,2|8
256,64,129147,2,0,B|256:144,1,80,2|8
400,176,129588,2,0,B|400:96,1,80,2|8
328,80,130030,2,0,B|328:160,1,80,2|8
472,192,130471,2,0,B|472:112,1,80,2|8
472,112,130912,1,2
472,192,131133,6,0,B|472:280,1,80,8|2
328,304,131574,2,0,B|328:224,1,80,8|2
400,208,132015,2,0,B|400:288,1,80,8|2
256,320,132456,2,0,B|256:240,1,80,8|2
112,208,132897,2,0,B|112:288,1,80,8|2
184,304,133338,2,0,B|184:224,1,80,8|2
40,192,133780,2,0,B|40:272,1,80,8|2
40,352,134221,6,0,B|40:272,1,80,8|2
256,240,134662,2,0,B|256:320,1,80,8|2
472,352,135103,2,0,B|472:272,1,80,8|2
111,287,135544,2,0,B|136:336|184:336,1,80,8|2
401,287,135986,2,0,B|376:336|328:336,1,80,8|2
472,192,136427,6,0,B|392:192,1,80,8|2
336,136,136868,2,0,B|256:136,1,80,8|2
176,136,137309,2,0,B|256:136,1,80,8|2
40,192,137750,2,0,B|120:192,1,80,8|2
176,136,138192,6,0,B|112:72,1,80,8|2
296,48,138633,2,0,B|216:48,1,80,8|2
335,136,139074,2,0,B|392:79,1,80,8|2
256,192,139515,2,0,B|256:272,1,80,8|2
192,312,139956,5,4
192,312,140177,2,0,B|226:368|288:368|326:304,3,160,2|2|2|2
321,311,141721,1,4
368,248,141942,1,2
312,192,142162,1,8
368,136,142383,1,2
320,72,142604,6,0,B|296:40|256:24,1,80,8|2
257,25,143045,2,0,B|217:40|193:72,1,80,8|2
144,136,143486,1,8
200,192,143707,1,2
144,248,143927,1,8
144,136,144148,6,0,B|96:112|96:64,1,80,2|8
256,136,144589,1,2
368,136,144810,2,0,B|416:112|416:64,1,80,8|2
256,136,145251,2,0,B|256:224,1,80,8|2
192,264,145692,1,8
216,344,145912,1,2
296,344,146133,1,8
320,264,146354,1,2
256,216,146574,1,8
256,136,146795,6,0,B|256:48,1,80,2|8
176,56,147236,1,2
336,56,147457,1,8
144,136,147677,1,2
368,136,147898,1,8
176,216,148118,1,2
336,216,148339,1,8
256,136,148560,1,2
256,352,148780,6,0,B|256:264,1,80,8|2
176,216,149221,2,0,B|144:240|96:240,1,80,8|2
336,216,149663,2,0,B|368:240|416:240,1,80,8|2
144,136,150104,2,0,B|112:160|64:160,1,80,8|2
368,136,150545,2,0,B|400:160|448:160,1,80,8|2
112,56,150986,2,0,B|80:80|32:80,1,80,8|2
400,56,151427,2,0,B|432:80|480:80,1,80,8|2
200,56,151869,1,8
312,56,152089,1,2
256,136,152310,5,8
216,152,152420,1,0
192,184,152530,1,2
176,224,152641,1,0
200,256,152751,1,8
224,288,152861,1,0
256,312,152972,5,2
288,288,153082,1,0
312,256,153192,1,8
336,224,153302,1,0
320,184,153413,1,2
296,152,153523,1,0
256,136,153633,6,0,B|256:88,3,40,8|0|2|0
256,56,154075,2,0,B|256:24,32,20,8|0|0|0|2|0|0|0|0|0|0|0|2|0|0|0|0|0|0|0|2|0|0|0|0|0|0|0|2|0|0|0|4
178,72,156060,5,2
112,112,156281,2,0,B|32:144|16:232,1,160,8|0
48,304,156942,1,2
48,304,157163,2,0,B|208:304,1,160,8|0
280,336,157825,1,2
208,304,158045,2,0,B|208:232|144:200,1,120,8|0
152,204,158486,1,0
216,152,158707,1,2
280,104,158928,2,0,B|224:48,1,80,8|2
288,192,159369,6,0,B|344:248,1,80,0|2
464,248,159810,2,0,B|344:248,1,120,8|0
344,248,160251,1,0
288,312,160472,1,2
232,248,160692,1,8
288,312,160913,2,0,B|288:352,2,40,2|0|0
232,248,161354,2,0,B|160:192,1,80,2|8
104,152,161795,1,2
176,120,162016,6,0,B|232:152|280:88|344:128,2,160,0|8|4
216,48,163119,2,0,B|296:48,1,80,2|8
412,122,163560,2,0,B|304:122,1,80,2|0
256,122,164001,1,2
101,122,164222,2,0,B|194:122,1,80,8|2
208,192,164663,5,0
256,256,164884,1,2
304,192,165104,2,0,B|320:264|400:264,1,120,8|0
388,263,165546,1,0
384,184,165766,1,2
304,192,165987,1,8
176,296,166428,5,0
104,320,166649,1,2
80,248,166869,2,0,B|128:200|72:136,1,120,8|0
76,141,167310,1,0
104,64,167531,2,0,B|184:88,1,80,2|8
256,272,167972,5,2
256,272,168082,1,0
256,272,168193,2,0,B|256:184,1,80,0|2
256,192,168634,1,8
328,232,168855,2,0,B|367:207|403:232,1,80,2|0
256,272,169296,1,2
184,232,169516,2,0,B|145:207|109:232,1,80,8|4
256,192,182311,12,4,184076
320,112,184296,1,2
256,64,184517,2,0,B|176:96|160:184,1,160,8|0
160,182,185179,1,2
184,256,185399,2,0,B|208:296|256:312|304:288|328:240,1,160,8|0
376,200,186061,1,2
456,192,186282,2,0,B|456:120|384:96,1,120,8|0
393,99,186723,1,0
328,64,186943,1,2
328,64,187164,2,0,B|280:128,1,80,8|2
184,320,187605,6,0,B|232:256,1,80,0|2
184,192,188046,2,0,B|64:192,1,120,8|0
64,192,188488,2,0,B|32:160|32:112,1,80,0|2
88,64,188929,1,8
168,40,189149,2,0,B|208:40,2,40,2|0|0
88,64,189591,2,0,B|136:128,1,80,2|8
184,192,190032,1,2
256,232,190252,6,0,B|312:264|360:200|424:240,2,160,0|8|4
256,152,191355,2,0,B|256:72,1,80,2|8
328,32,191797,2,0,B|328:120,1,80,2|0
256,152,192238,1,2
184,112,192458,2,0,B|184:32,1,80,8|2
112,64,192900,5,0
72,136,193120,1,2
72,136,193341,2,0,B|88:208|168:208,1,120,8|0
156,207,193782,2,0,B|160:256|104:288,1,80,0|2
64,328,194223,1,8
216,272,194664,5,4
256,344,194885,1,2
296,272,195105,2,0,B|344:224|288:160,1,120,8|0
292,165,195547,1,0
256,96,195767,2,0,B|176:96,1,80,2|8
89,171,196208,5,2
89,171,196319,1,0
89,171,196429,2,0,B|49:195|33:251,1,80,0|2
40,232,196870,1,8
64,312,197091,2,0,B|144:312,1,80,2|0
168,232,197532,1,2
224,312,197753,2,0,B|144:312,1,80,8|2
64,312,198194,5,4
40,232,198414,1,2
88,168,198635,1,8
136,104,198856,2,0,B|184:104,1,40,2|0
192,104,199076,2,0,B|224:64|264:56,1,80,0|2
336,56,199517,1,8
376,120,199738,5,2
376,120,199848,1,0
376,120,199959,2,0,B|440:192|376:272,1,160,4|8
256,304,200620,1,2
128,264,200841,2,0,B|70:191|134:119,1,160,4|8
256,80,201503,1,2
256,192,201723,2,0,B|288:192,28,20,4|0|0|0|2|0|0|0|8|0|0|0|2|0|0|0|4|0|0|0|2|0|0|0|8|0|0|0|2
256,192,203488,1,4
256,192,203598,12,4,206135
