osu file format v9

[General]
AudioFilename: 28.mp3
AudioLeadIn: 0
PreviewTime: 38730
Countdown: 0
SampleSet: Soft
StackLeniency: 0.6
Mode: 0
LetterboxInBreaks: 0

[Editor]
Bookmarks: 13228,26028,38834,51634,64434,66034,78834,91634,104434,117234
DistanceSpacing: 0.9
BeatDivisor: 4
GridSize: 16

[Metadata]
Title:Tenkuu no Yoake
Artist:Cuvelia
Creator:AngelHoney
Version:Another
Source:beatmania IIDX
Tags:beatmania IIDX 19 Lincle ORIGINAL SOUNDTRACK S_h_i_a shia yongwt123 kazenotama dj taka saisei

[Difficulty]
HPDrainRate:7
CircleSize:4
OverallDifficulty:7
ApproachRate:9
SliderMultiplier:1.9
SliderTickRate:1

[Events]
//Background and Video events
0,0,"23873758.jpg"
//Break Periods
//Storyboard Layer 0 (Background)
//Storyboard Layer 1 (Fail)
//Storyboard Layer 2 (Pass)
//Storyboard Layer 3 (Foreground)
//Storyboard Sound Samples
//Background Colour Transformations
3,100,0,0,0

[TimingPoints]
430,400,4,2,1,80,1,0
25830,-100,4,1,1,50,0,0
32330,-100,4,1,1,60,0,0
37230,-100,4,1,1,70,0,1
37930,-100,4,1,1,60,0,1
38780,-100,4,1,1,70,0,0
38830,-100,4,1,1,70,0,1
38880,-100,4,1,1,70,0,0
51630,-100,4,1,1,75,0,0
53330,-100,4,1,1,70,0,0
54830,-100,4,1,1,75,0,0
63630,-100,4,1,1,80,0,0
64830,-100,4,1,1,70,0,0
77230,-100,4,1,1,75,0,0
78430,-100,4,1,1,80,0,0
78830,-100,4,1,1,70,0,1
78880,-100,4,1,1,70,0,0
90030,-100,4,1,1,75,0,0
91230,-100,4,1,1,80,0,0
91630,-100,4,2,0,70,0,0
104230,-100,4,1,1,70,0,0
104430,-100,4,1,1,70,0,1
104480,-100,4,1,1,70,0,0
120730,-100,4,1,0,50,0,0
120830,-100,4,1,1,70,0,0
121130,-100,4,1,0,50,0,0
121230,-100,4,1,1,70,0,0
121530,-100,4,1,0,50,0,0
121630,-100,4,1,1,70,0,0
122030,-100,4,1,1,50,0,1
122430,-100,4,1,1,45,0,1
122830,-100,4,1,1,40,0,1
123230,-100,4,1,1,35,0,1
123630,-100,4,1,1,30,0,1
124030,-100,4,1,1,25,0,1
124430,-100,4,1,1,20,0,1
124830,-100,4,1,1,15,0,1
125230,-100,4,2,0,10,0,0

[Colours]
Combo1 : 248,211,171
Combo2 : 171,252,203
Combo3 : 175,221,254
Combo4 : 249,254,186
Combo5 : 240,80,80

[HitObjects]
64,96,25430,2,2,B|48:160|80:224,1,95,0|0
384,320,26030,5,4
464,208,26230,1,0
448,224,26330,1,0
208,128,26630,2,0,B|256:128|320:96,1,95
432,32,27030,1,0
288,240,27230,1,0
512,112,27430,1,0
176,224,27630,5,0
272,336,27830,1,0
256,320,27930,1,0
32,176,28230,1,0
112,64,28430,1,0
128,80,28530,1,0
224,176,28730,1,0
304,64,28930,1,0
333,49,29030,1,0
363,40,29130,1,0
391,37,29230,6,0,B|407:101|359:165,1,95
320,176,29530,2,0,B|304:240|336:304,1,95
368,336,29830,1,0
480,224,30030,1,0
160,256,30230,1,0
448,112,30430,1,0
192,112,30630,1,0
32,192,30830,5,0
64,336,31030,1,0
80,320,31130,1,0
256,256,31330,1,0
240,272,31430,1,0
360,360,31630,1,0
384,352,31730,1,0
408,344,31830,1,0
432,336,31930,2,0,B|480:320|512:256,1,95
504,248,32230,1,0
416,80,32430,5,0
392,66,32530,1,0
367,55,32630,1,0
340,47,32730,1,0
313,41,32830,1,0
285,38,32930,1,0
257,38,33030,1,0
229,41,33130,1,0
202,47,33230,1,0
176,56,33330,1,0
150,67,33430,1,0
126,81,33530,1,0
104,98,33630,1,0
83,117,33730,1,0
64,138,33830,1,0
48,160,33930,1,0
16,176,34030,5,0
40,190,34130,1,0
65,201,34230,1,0
92,209,34330,1,0
119,215,34430,1,0
147,218,34530,1,0
175,218,34630,1,0
203,215,34730,1,0
230,209,34830,1,0
256,200,34930,1,0
282,189,35030,1,0
306,175,35130,1,0
328,158,35230,1,0
349,139,35330,1,0
368,118,35430,1,0
384,96,35530,1,0
416,80,35630,5,0
392,66,35730,1,0
367,55,35830,1,0
340,47,35930,1,0
313,41,36030,1,0
285,38,36130,1,0
257,38,36230,1,0
229,41,36330,1,0
202,46,36430,2,0,B|170:62,6,23.75
112,128,36830,2,0,B|144:144,6,23.75
128,240,37230,5,4
152,226,37330,1,0
177,215,37430,1,0
204,207,37530,1,0
231,201,37630,1,0
259,198,37730,1,0
287,198,37830,1,0
442,169,38030,1,0
416,160,38130,1,0
390,149,38230,1,0
366,135,38330,1,0
344,118,38430,1,0
323,99,38530,1,0
304,78,38630,1,0
288,56,38730,1,0
274,34,38830,6,0,B|192:16|128:64,1,142.5,4|2
80,112,39230,2,0,B|128:160|128:224,1,95,0|2
336,272,39630,2,0,B|320:336,1,47.5
418,236,39830,2,0,B|474:289,1,47.5,2|0
413,140,40030,2,0,B|477:92,1,47.5,0|0
328,72,40230,2,0,B|328:8,1,47.5,2|0
224,112,40430,6,0,B|176:112|112:160,1,95,0|0
96,208,40730,2,0,B|176:224|224:320,1,142.5,2|2
416,80,41230,2,0,B|368:96,1,47.5,0|0
256,144,41430,2,0,B|320:160,1,47.5,2|0
432,224,41630,2,0,B|368:208,1,47.5,0|0
240,272,41830,2,0,B|304:256,1,47.5,2|0
368,368,42030,6,0,B|304:336|208:352,1,142.5,0|2
160,368,42430,2,0,B|112:256,1,95,0|2
32,96,42830,1,0
64,112,42930,1,0
96,128,43030,2,0,B|160:144|224:112,1,95,2|0
320,64,43430,1,2
480,224,43630,6,0,B|448:176|368:160,1,95
384,240,43930,2,0,B|304:272|224:223,1,142.5,2|2
16,176,44430,2,0,B|48:112,1,47.5
144,80,44630,2,0,B|112:144,1,47.5,2|0
144,208,44830,2,0,B|192:192,1,47.5
208,288,45030,2,0,B|272:304,1,47.5,2|0
432,304,45230,6,0,B|384:304|320:272,1,95,4|0
304,208,45530,2,0,B|384:208|448:144,1,142.5,2|2
288,32,46030,2,0,B|304:96,1,47.5
224,128,46230,2,0,B|240:192,1,47.5,2|0
128,64,46430,2,0,B|144:128,1,47.5
64,160,46630,2,0,B|80:224,1,47.5,2|0
160,256,46830,6,0,B|160:320|112:368,1,95
224,320,47130,2,0,B|272:272|368:256,1,142.5,2|2
448,80,47630,2,0,B|496:144,1,47.5
354,106,47830,2,0,B|290:90,1,47.5,2|0
208,80,48030,2,0,B|240:32,1,47.5
112,128,48230,2,0,B|48:112,1,47.5,2|0
64,240,48430,6,0,B|128:192|224:208,1,142.5,0|2
192,288,48830,2,0,B|240:304|304:272,1,95,0|2
480,144,49230,2,0,B|464:80,1,47.5
336,80,49430,2,0,B|352:144,1,47.5,2|0
208,112,49630,2,0,B|192:48,1,47.5
64,48,49830,2,0,B|80:112,1,47.5,2|0
16,208,50030,6,0,B|96:176|176:224,1,142.5,0|2
128,288,50430,2,0,B|192:304|256:272,1,95,0|2
512,192,50830,2,0,B|512:112,1,47.5
416,144,51030,2,0,B|416:96,1,47.5,2|0
320,208,51230,2,0,B|320:144,1,47.5
224,144,51430,2,0,B|224:96,1,47.5,2|0
170,43,51630,5,4
139,58,51730,1,0
109,83,51830,1,2
83,110,51930,1,0
64,144,52030,1,8
51,179,52130,1,0
48,215,52230,1,2
53,251,52330,1,0
69,285,52430,1,2
342,341,52630,5,2
373,326,52730,1,0
403,301,52830,1,8
429,274,52930,1,0
448,240,53030,1,2
461,205,53130,1,0
464,169,53230,1,2
240,32,53430,5,2
232,48,53496,1,0
240,64,53563,1,0
248,80,53630,1,10
240,96,53696,1,0
232,112,53763,1,0
240,128,53830,1,2
248,144,53896,1,0
240,160,53963,1,0
232,176,54030,1,0
240,192,54096,1,0
248,208,54163,1,0
240,224,54230,5,2
232,240,54296,1,0
240,256,54363,1,0
248,272,54430,1,10
240,288,54496,1,0
232,304,54563,1,0
240,320,54630,1,2
248,336,54696,1,0
240,352,54763,1,0
232,368,54830,6,0,B|160:352,3,47.5,0|0|2|0
64,304,55230,2,0,B|112:288,3,47.5,8|0|2|0
32,192,55630,1,0
64,176,55730,1,0
98,170,55830,1,2
132,175,55930,1,0
165,189,56030,1,10
192,212,56130,1,0
223,228,56230,1,2
257,236,56330,1,0
288,224,56430,6,0,B|330:165,1,47.5
400,224,56630,2,0,B|432:176,1,47.5,2|0
368,112,56830,2,0,B|400:64,1,47.5,8|0
480,96,57030,2,0,B|512:48,1,47.5,2|0
288,64,57230,6,0,B|224:32,1,47.5
192,128,57430,2,0,B|128:96,1,47.5,2|0
176,240,57630,2,0,B|112:208,1,47.5,8|0
80,304,57830,2,0,B|16:272,1,47.5,2|0
176,336,58030,6,0,B|224:304|304:320,1,95,4|2
302,322,58330,1,0
336,336,58430,1,8
448,160,58630,2,0,B|480:96|464:32,1,95,2|0
272,96,59030,1,2
237,112,59130,1,0
199,114,59230,1,8
48,64,59430,1,2
32,256,59630,6,0,B|80:224|160:224,1,95,0|2
159,226,59930,1,0
198,235,60030,1,8
320,304,60230,1,2
480,160,60430,1,0
304,48,60630,1,2
292,90,60730,1,0
288,136,60830,2,0,B|288:200|320:264,1,95,8|2
128,256,61230,6,0,B|64:272,1,47.5
64,176,61430,2,0,B|0:192,1,47.5,2|0
192,112,61630,2,0,B|128:128,1,47.5,8|0
272,192,61830,2,0,B|208:208,1,47.5,2|0
352,240,62030,6,0,B|416:224,1,47.5
400,128,62230,2,0,B|464:112,1,47.5,2|0
256,96,62430,2,0,B|320:80,1,47.5,8|0
160,208,62630,2,0,B|224:192,1,47.5,2|0
96,304,62830,5,0
85,286,62896,1,0
76,268,62963,1,0
69,249,63030,1,2
64,229,63096,1,0
61,208,63163,1,0
60,188,63230,1,8
62,168,63296,1,0
65,148,63363,1,0
71,128,63430,1,2
79,109,63496,1,0
88,91,63563,1,0
104,74,63630,6,0,B|136:58,2,23.75
208,128,63830,2,0,B|240:128,2,23.75
256,224,64030,5,8
336,240,64130,1,0
416,256,64230,1,0
496,272,64330,1,0
432,96,65530,1,0
416,112,65630,1,0
288,112,65830,1,0
350,273,66030,5,4
322,292,66130,1,0
289,299,66230,1,2
255,298,66330,1,0
222,289,66430,1,0
192,273,66530,1,0
166,251,66630,1,2
140,230,66730,1,0
110,214,66830,1,0
77,205,66930,1,0
44,209,67030,1,2
15,226,67130,1,0
1,256,67230,1,0
2,289,67330,1,0
20,316,67430,1,2
45,336,67530,1,0
78,338,67630,5,0
111,334,67730,1,0
143,329,67830,1,2
175,323,67930,1,0
207,318,68030,1,0
239,312,68130,1,0
272,308,68230,1,2
305,304,68330,1,0
337,299,68430,1,0
369,294,68530,1,0
401,289,68630,1,2
433,283,68730,1,0
464,273,68830,1,0
490,252,68930,1,0
506,222,69030,1,2
505,188,69130,1,0
493,156,69230,6,0,B|477:108,1,47.5
384,144,69430,2,0,B|368:96,1,47.5,2|0
272,128,69630,2,0,B|256:64,1,47.5
160,112,69830,2,0,B|144:48,1,47.5,2|0
80,240,70030,6,0,B|112:176,1,47.5
192,256,70230,2,0,B|208:320,1,47.5,2|0
304,240,70430,2,0,B|336:176,1,47.5
416,288,70630,2,0,B|432:352,1,47.5,2|0
496,176,70830,6,0,B|448:192,1,47.5
336,112,71030,2,0,B|400:96,1,47.5,2|0
320,224,71230,2,0,B|256:240,1,47.5
160,144,71430,2,0,B|224:128,1,47.5,2|0
64,80,71630,6,0,B|16:64,1,47.5
32,224,71830,2,0,B|96:240,1,47.5,2|0
272,192,72030,2,0,B|192:224,1,47.5
352,320,72230,2,0,B|432:288,1,47.5,2|0
480,208,72430,5,0
460,180,72530,1,0
433,159,72630,1,2
401,147,72730,1,0
368,140,72830,1,0
334,140,72930,1,0
301,147,73030,1,2
270,160,73130,1,0
243,179,73230,1,0
216,198,73330,1,0
189,218,73430,1,2
157,229,73530,1,0
124,233,73630,1,0
90,230,73730,1,0
59,217,73830,1,2
38,190,73930,1,0
30,157,74030,5,0
37,124,74130,1,0
44,91,74230,1,2
54,59,74330,1,0
91,46,74430,1,0
107,74,74530,1,0
124,102,74630,1,2
140,130,74730,1,0
178,150,74830,1,0
193,120,74930,1,0
212,93,75030,1,2
229,64,75130,1,0
269,40,75230,1,0
285,69,75330,1,0
299,98,75430,1,2
313,127,75530,1,0
354,152,75630,5,0
382,134,75730,1,0
414,126,75830,1,2
445,136,75930,1,0
466,161,76030,1,0
480,190,76130,1,0
475,222,76230,1,2
458,251,76330,1,0
431,271,76430,1,0
398,276,76530,1,0
367,263,76630,1,2
340,243,76730,1,0
313,222,76830,1,0
283,206,76930,1,0
249,204,77030,1,2
217,215,77130,1,0
184,223,77230,6,0,B|96:240|8:191,1,142.5
96,144,77630,2,0,B|192:160|272:96,1,142.5
320,48,78030,2,0,B|240:64|144:0,1,142.5
112,64,78430,2,0,B|80:32,3,31.6666666666667
48,112,78730,1,0
32,192,78830,6,0,B|96:176,3,47.5,4|0|2|0
192,272,79230,2,0,B|128:256,3,47.5,8|0|2|0
288,224,79630,2,0,B|336:176,3,47.5,0|0|2|0
432,288,80030,2,0,B|368:304,3,47.5,8|0|2|0
496,208,80430,5,0
462,210,80530,1,0
428,206,80630,1,2
395,198,80730,1,0
362,190,80830,1,8
329,183,80930,1,0
295,184,81030,1,2
261,192,81130,1,0
228,198,81230,1,0
194,201,81330,1,0
161,195,81430,1,2
131,180,81530,1,0
99,170,81630,1,8
66,163,81730,1,0
33,168,81830,1,2
2,181,81930,1,0
32,256,82030,6,0,B|48:320,1,47.5
176,288,82230,2,0,B|192:352,1,47.5,2|0
304,256,82430,2,0,B|320:320,1,47.5,8|0
448,272,82630,2,0,B|464:336,1,47.5,2|0
448,160,82830,6,0,B|496:96,1,47.5
352,80,83030,2,0,B|400:16,1,47.5,2|0
208,128,83230,2,0,B|256:64,1,47.5,8|0
80,80,83430,2,0,B|112:16,1,47.5,2|0
0,160,83630,5,0
48,352,83830,1,2
83,366,83930,1,0
120,369,84030,1,8
157,365,84130,1,0
191,349,84230,1,2
221,325,84330,1,0
239,291,84430,1,0
244,253,84530,1,0
241,215,84630,1,2
226,179,84730,1,0
262,190,84830,1,8
298,200,84930,1,0
335,201,85030,1,2
372,196,85130,1,0
448,176,85230,6,0,B|432:112,1,47.5
256,128,85430,2,0,B|240:64,1,47.5,2|0
352,64,85630,2,0,B|336:-16,1,47.5,8|0
144,64,85830,2,0,B|128:0,1,47.5,2|0
64,160,86030,6,0,B|32:240,1,47.5
128,304,86230,2,0,B|160:240,1,47.5,2|0
288,240,86430,2,0,B|272:320,1,47.5,8|0
384,352,86630,2,0,B|448:320,1,47.5,2|0
496,240,86830,5,0
384,64,87030,1,2
350,81,87130,1,0
315,96,87230,1,8
277,104,87330,1,0
239,105,87430,1,2
201,99,87530,1,0
167,80,87630,1,0
135,59,87730,1,0
98,48,87830,1,2
60,53,87930,1,0
28,74,88030,1,8
12,108,88130,1,0
4,145,88230,1,2
12,181,88330,1,0
64,240,88430,6,0,B|144:208,3,47.5,0|0|2|0
224,336,88830,2,0,B|176:320,3,47.5,8|0|2|0
304,256,89230,2,0,B|352:240,3,47.5,0|0|2|0
496,304,89630,2,0,B|448:288,3,47.5,8|0|2|0
480,160,90030,6,0,B|400:176|336:128,1,142.5
304,224,90430,2,0,B|240:176|144:192,1,142.5,8|0
112,320,90830,2,0,B|192:336|256:288,1,142.5
336,288,91230,1,8
368,304,91330,1,0
400,320,91430,1,0
432,336,91530,1,0
464,352,91630,5,4
416,64,91930,1,2
416,64,92030,1,2
256,352,92430,1,0
320,96,92730,1,2
320,96,92830,1,2
112,336,93230,5,0
224,96,93530,1,2
224,96,93630,1,2
0,256,94030,1,0
128,48,94330,1,2
128,48,94430,1,2
128,224,94830,5,0
432,128,95130,1,2
432,128,95230,1,2
80,128,95630,1,0
464,240,95930,1,2
464,240,96030,1,2
96,320,96430,5,0
336,80,96730,1,2
336,80,96830,1,2
112,80,97230,1,0
400,320,97530,1,2
400,320,97630,1,2
48,160,98030,5,0
416,96,98430,1,2
96,272,98830,1,0
464,208,99230,1,2
208,352,99630,1,0
163,80,100030,5,2
150,115,100130,1,0
146,152,100230,1,0
147,191,100330,1,0
159,226,100430,1,2
182,256,100530,1,0
211,280,100630,1,0
244,296,100730,1,0
281,304,100830,1,2
318,306,100930,1,0
355,300,101030,1,0
392,292,101130,1,0
425,273,101230,5,2
64,336,101630,1,2
208,96,101930,1,2
208,96,102030,1,2
208,96,102430,1,2
352,304,102830,5,0
384,32,103230,1,2
80,80,103530,1,2
80,80,103630,1,2
80,80,104030,1,2
16,272,104430,6,0,B|80:224|176:256,1,142.5,4|2
144,336,104830,2,0,B|256:320,1,95,10|2
480,224,105230,2,0,B|400:240|336:176,1,142.5,0|2
368,96,105630,2,0,B|256:112,1,95,10|2
16,160,106030,6,0,B|112:128|176:192,1,142.5,0|2
160,256,106430,2,0,B|272:224,1,95,10|2
496,272,106830,2,0,B|400:256|352:320,1,142.5,0|2
304,368,107230,2,0,B|191:352,1,95,10|2
32,176,107630,6,0,B|112:208|192:144,1,142.5,0|2
240,208,108030,2,0,B|256:112,1,95,10|2
512,192,108430,2,0,B|448:256|352:224,1,142.5,0|2
304,256,108830,2,0,B|319:162,1,95,10|2
96,320,109230,6,0,B|96:224|0:176,1,142.5,0|2
112,160,109630,2,0,B|160:144|192:80,1,95,10|2
464,240,110030,2,0,B|416:176|432:80,1,142.5,0|2
352,128,110430,2,0,B|320:80|256:48,1,95,10|2
208,288,110830,6,0,B|128:224|32:256,1,142.5,0|2
0,272,111230,1,10
112,64,111430,1,2
304,192,111630,2,0,B|352:128|448:128,1,142.5,0|2
504,139,112030,1,10
416,336,112230,1,2
208,304,112430,5,2
55,113,112830,1,8
84,82,112930,1,0
119,58,113030,1,2
157,39,113130,1,0
197,29,113230,1,0
239,24,113330,1,0
280,32,113430,1,2
319,47,113530,1,0
356,69,113630,1,8
387,97,113730,1,0
411,132,113830,1,2
427,171,113930,1,0
436,212,114030,5,0
288,320,114230,1,2
240,336,114330,1,0
192,352,114430,2,0,B|112:368|48:320,1,142.5,8|0
0,272,114830,1,2
80,64,115030,1,2
128,45,115130,1,0
176,32,115230,2,0,B|240:16|304:48,1,95,10|2
432,128,115630,5,0
271,319,115830,1,2
236,289,115930,1,0
213,249,116030,2,0,B|181:169|245:89,1,142.5,8|0
288,64,116430,1,2
448,288,116630,1,2
400,304,116730,1,0
352,320,116830,2,0,B|304:336|240:304,1,95,10|2
160,176,117230,5,0
416,48,117630,1,0
436,72,117730,1,0
453,99,117830,1,2
465,129,117930,1,0
473,160,118030,1,0
475,192,118130,1,0
473,223,118230,1,2
465,254,118330,1,0
453,284,118430,1,0
436,311,118530,1,0
416,336,118630,1,2
391,356,118730,1,0
364,373,118830,5,0
96,352,119230,1,0
76,328,119330,1,0
59,301,119430,1,2
47,271,119530,1,0
39,240,119630,1,0
37,208,119730,1,0
39,177,119830,1,2
47,146,119930,1,0
59,116,120030,1,0
76,89,120130,1,0
96,64,120230,1,2
121,44,120330,1,0
148,27,120430,6,0,B|224:64|320:32,1,142.5,2|0
432,128,120830,2,0,B|352:112|288:144,1,142.5,2|0
160,240,121230,2,0,B|224:208|320:224,1,142.5,2|0
400,304,121630,2,0,B|320:288|240:336,1,142.5,2|2
176,368,122030,5,4
256,192,122130,12,0,125230
