osu file format v14

[General]
AudioFilename: Cutos - Prospect.mp3
AudioLeadIn: 0
PreviewTime: 59143
Countdown: 0
SampleSet: None
StackLeniency: 0.7
Mode: 0
LetterboxInBreaks: 0
WidescreenStoryboard: 1

[Editor]
Bookmarks: 11143,21810,32476,43143,53810,64476,75143,83143,85810,88476,99143,104476,109802
DistanceSpacing: 1.1
BeatDivisor: 2
GridSize: 16
TimelineZoom: 1.7

[Metadata]
Title:Prospect
TitleUnicode:Prospect
Artist:Cutos
ArtistUnicode:Cutos
Creator:fergas
Version:Normal
Source:
Tags:
BeatmapID:647723
BeatmapSetID:286975

[Difficulty]
HPDrainRate:3
CircleSize:3.5
OverallDifficulty:4
ApproachRate:5
SliderMultiplier:0.8
SliderTickRate:1

[Events]
//Background and Video events
0,0,"434545.jpg",0,0
//Break Periods
2,85810,87276
//Storyboard Layer 0 (Background)
//Storyboard Layer 1 (Fail)
//Storyboard Layer 2 (Pass)
//Storyboard Layer 3 (Foreground)
//Storyboard Sound Samples

[TimingPoints]
477,333.333333333333,4,1,0,70,1,0
88476,-100,4,2,0,80,0,0
99143,-100,4,1,0,70,0,0

[Colours]
Combo1 : 238,181,6
Combo2 : 40,168,9
Combo3 : 10,149,224
Combo4 : 234,26,31

[HitObjects]
390,223,11143,6,0,P|334:206|275:217,1,120,4|0,0:0|0:0,0:0:0:0:
153,270,12143,1,0,0:0:0:0:
118,243,12310,2,0,P|90:190|102:118,1,120,0|0,0:0|0:0,0:0:0:0:
140,132,12976,2,0,P|190:145|276:104,1,120,0|4,0:0|0:3,0:0:0:0:
314,64,13810,5,4,0:3:0:0:
314,64,15143,5,4,0:3:0:0:
314,64,16476,5,4,0:3:0:0:
486,97,17143,1,4,0:3:0:0:
452,270,17810,1,4,0:3:0:0:
278,236,18476,1,4,0:3:0:0:
221,69,19143,6,0,L|284:49,2,40,4|4|4,0:3|0:3|0:3,0:0:0:0:
195,105,19643,1,4,0:3:0:0:
162,135,19810,2,0,L|191:161,2,40,4|4|4,0:3|0:3|0:3,0:0:0:0:
118,138,20310,1,4,0:3:0:0:
77,155,20476,2,0,P|59:198|173:350,1,240,8|4,0:3|0:2,0:0:0:0:
239,337,21810,5,4,0:2:0:0:
240,248,22143,2,0,P|249:210|273:178,1,80,8|0,0:0|0:0,0:0:0:0:
313,161,22643,1,4,0:3:0:0:
353,178,22810,2,0,P|407:187|450:172,1,80,8|2,0:0|0:2,0:0:0:0:
422,93,23476,1,8,0:0:0:0:
348,44,23810,1,0,0:0:0:0:
260,54,24143,2,0,P|249:106|226:146,1,80,8|8,0:0|0:3,0:0:0:0:
167,183,24810,6,0,P|127:177|87:177,1,80,8|0,0:0|0:0,0:0:0:0:
52,257,25476,2,0,P|91:262|131:262,1,80,8|2,0:0|0:2,0:0:0:0:
219,260,26143,1,8,0:0:0:0:
260,243,26310,2,0,P|281:210|288:171,1,80,0|4,0:0|0:3,0:0:0:0:
276,129,26810,2,0,P|336:121|411:157,1,120,8|0,0:0|0:0,0:0:0:0:
424,169,27476,6,0,P|442:134|436:65,1,80,8|0,0:0|0:0,0:0:0:0:
392,22,28143,2,0,P|343:42|296:38,1,80,8|2,0:0|0:2,0:0:0:0:
228,32,28810,1,8,0:0:0:0:
144,60,29143,1,0,0:0:0:0:
88,128,29476,2,0,P|83:170|99:223,1,80,8|8,0:0|0:3,0:0:0:0:
172,240,30143,6,0,P|219:236|266:253,1,80,8|0,0:0|0:0,0:0:0:0:
286,269,30643,1,4,0:3:0:0:
319,297,30810,2,0,P|368:286|410:167,1,160,8|4,0:0|0:3,0:0:0:0:
413,151,31643,2,0,L|507:173,2,80,8|8|8,0:0|0:0|0:0,0:0:0:0:
394,110,32476,5,4,0:2:0:0:
315,70,32810,2,0,P|285:117|288:161,1,80,8|0,0:0|0:0,0:0:0:0:
244,218,33476,2,0,P|197:201|140:216,1,80,8|2,0:0|0:2,0:0:0:0:
81,187,34143,1,8,0:0:0:0:
65,100,34476,1,0,0:0:0:0:
117,28,34810,2,0,P|169:27|219:61,1,80,8|8,0:0|0:3,0:0:0:0:
245,109,35476,6,0,P|322:119|350:103,1,80,8|0,0:0|0:0,0:0:0:0:
361,100,35976,1,4,0:3:0:0:
389,66,36143,2,0,P|444:90|473:127,1,80,8|2,0:0|0:2,0:0:0:0:
420,183,36810,1,8,0:0:0:0:
418,270,37143,1,4,0:3:0:0:
448,352,37476,2,0,P|409:358|372:345,1,80,8|8,0:0|0:3,0:0:0:0:
321,273,38143,6,0,P|317:202|309:181,1,80,8|0,0:0|0:0,0:0:0:0:
235,154,38810,2,0,P|239:225|247:246,1,80,8|2,0:0|0:2,0:0:0:0:
187,302,39476,1,8,0:0:0:0:
102,326,39810,1,0,0:0:0:0:
26,281,40143,1,8,0:0:0:0:
16,193,40476,6,0,L|78:123,1,80,8|2,0:3|0:1,0:0:0:0:
133,193,41143,2,0,L|195:123,1,80,8|2,0:0|0:1,0:0:0:0:
250,193,41810,2,0,P|288:220|453:146,1,240,8|2,0:0|3:3,0:0:0:0:
378,103,43143,6,0,P|341:102|299:76,1,80,4|0,0:2|0:0,0:0:0:0:
280,44,43643,2,0,P|205:46|162:80,1,120,2|0,0:2|0:0,0:0:0:0:
185,112,44310,2,0,P|195:173|136:262,1,160,2|0,0:2|0:0,0:0:0:0:
59,262,45310,2,0,P|39:257|10:258,2,40,4|8|0,0:3|0:0|0:0,0:0:0:0:
76,302,45810,5,4,0:2:0:0:
155,340,46143,2,0,P|194:338|230:320,1,80,8|0,0:0|0:0,0:0:0:0:
258,286,46643,1,4,0:3:0:0:
272,244,46810,2,0,P|310:235|363:249,1,80,8|2,0:0|0:2,0:0:0:0:
433,267,47476,1,8,0:0:0:0:
444,179,47810,1,4,0:3:0:0:
406,99,48143,1,8,0:0:0:0:
323,128,48476,6,0,P|274:145|234:128,1,80,4|0,0:2|0:0,0:0:0:0:
219,104,48976,2,0,P|181:82|104:83,1,120,2|0,0:2|0:0,0:0:0:0:
83,44,49643,2,0,P|15:100|1:181,1,160,2|0,0:2|0:0,0:0:0:0:
72,218,50643,2,0,P|80:240|76:265,2,40,4|8|0,0:3|0:0|0:0,0:0:0:0:
99,183,51143,5,4,0:2:0:0:
181,151,51476,1,2,0:0:0:0:
225,151,51643,2,0,P|264:160|298:190,1,80,2|2,0:0|0:0,0:0:0:0:
317,222,52143,1,2,0:0:0:0:
401,198,52476,1,2,0:0:0:0:
423,160,52643,2,0,P|424:119|408:83,1,80,2|2,0:0|0:0,0:0:0:0:
371,62,53143,1,2,0:0:0:0:
283,61,53476,1,0,0:0:0:0:
225,127,53810,6,0,P|197:176|164:198,1,80,4|0,0:2|0:0,0:0:0:0:
136,200,54310,2,0,P|114:162|42:114,1,120,2|0,0:2|0:0,0:0:0:0:
32,78,54976,2,0,P|89:40|182:45,2,160,2|0|0,0:2|0:0|0:0,0:0:0:0:
53,117,56476,6,0,P|47:166|16:202,1,80,2|8,0:2|0:0,0:0:0:0:
53,275,57143,1,0,0:0:0:0:
137,300,57476,1,8,0:0:0:0:
218,265,57810,2,0,P|284:249|347:265,2,120,4|0|8,0:3|0:0|0:0,0:0:0:0:
145,210,59143,6,0,P|127:175|125:136,1,80,2|0,0:2|0:0,0:0:0:0:
156,104,59643,2,0,P|224:101|274:60,1,120,2|0,0:2|0:0,0:0:0:0:
288,34,60310,2,0,P|374:48|427:111,2,160,2|0|0,0:2|0:0|0:0,0:0:0:0:
246,50,61810,5,4,0:3:0:0:
180,108,62143,1,4,0:3:0:0:
162,194,62476,2,0,P|160:213|154:233,1,40,8|8,0:0|0:0,0:0:0:0:
135,273,62810,2,0,P|198:264|297:307,2,160,4|8|8,0:3|0:0|0:2,0:0:0:0:
52,243,64476,6,0,P|47:198|105:91,1,160,4|0,0:2|0:0,0:0:0:0:
176,135,65476,1,8,0:0:0:0:
263,143,65810,2,0,P|301:132|331:102,1,80,0|0,0:2|0:0,0:0:0:0:
357,20,66476,1,0,0:0:0:0:
400,26,66643,2,0,P|460:58|480:107,1,120,4|2,0:3|0:2,0:0:0:0:
473,191,67476,5,8,0:0:0:0:
428,267,67810,1,0,0:0:0:0:
390,289,67976,1,4,0:3:0:0:
346,291,68143,2,0,P|304:264|257:264,1,80,8|2,0:0|0:2,0:0:0:0:
226,334,68810,2,0,P|176:331|135:355,1,80,8|4,0:0|0:3,0:0:0:0:
64,322,69476,1,0,0:0:0:0:
50,279,69643,1,2,0:2:0:0:
56,234,69810,6,0,P|88:163|155:122,1,160,2|0,0:2|0:0,0:0:0:0:
227,174,70810,1,8,0:0:0:0:
312,192,71143,2,0,L|334:283,2,80,2|0|0,0:2|0:0|0:0,0:0:0:0:
352,173,71976,2,0,P|383:146|393:57,1,120,4|2,0:3|0:2,0:0:0:0:
317,33,72810,5,8,0:0:0:0:
242,79,73143,1,0,0:0:0:0:
200,94,73309,1,4,0:3:0:0:
156,88,73476,2,0,P|117:65|90:27,1,80,8|2,0:0|0:2,0:0:0:0:
32,99,74143,2,0,L|24:178,2,80,8|2|0,0:0|0:2|0:0,0:0:0:0:
95,38,75143,6,0,P|151:45|207:101,1,120,0|2,0:0|0:2,0:0:0:0:
209,128,75810,1,0,0:0:0:0:
204,215,76143,1,8,0:0:0:0:
156,289,76476,2,0,P|219:302|267:275,1,120,2|2,0:2|0:2,0:0:0:0:
289,240,77143,1,2,0:2:0:0:
304,153,77476,1,8,0:0:0:0:
372,208,77810,6,0,P|422:218|498:177,1,120,2|2,0:2|0:2,0:0:0:0:
490,148,78476,1,2,0:2:0:0:
449,69,78810,1,8,0:0:0:0:
374,22,79143,2,0,P|317:22|245:71,1,120,2|2,0:2|0:2,0:0:0:0:
245,91,79810,1,2,0:2:0:0:
219,175,80143,2,0,P|176:199|134:198,1,80,8|4,0:0|0:2,0:0:0:0:
59,217,80810,6,0,P|83:260|82:302,1,80,8|2,0:0|0:2,0:0:0:0:
172,286,81476,2,0,P|214:311|234:348,1,80,8|2,0:0|0:2,0:0:0:0:
303,287,82143,2,0,P|352:287|388:309,1,80,8|2,0:0|0:2,0:0:0:0:
407,218,82810,2,0,P|450:194|492:195,1,80,8|4,0:0|0:3,0:0:0:0:
256,192,83476,12,8,85476,0:2:0:0:
104,134,88476,5,4,0:0:0:0:
123,219,88810,1,0,0:0:0:0:
199,262,89143,2,0,P|257:262|305:227,1,120,0|0,0:2|0:0,0:0:0:0:
329,189,89810,1,2,0:2:0:0:
340,101,90143,1,0,0:0:0:0:
310,65,90310,2,0,P|255:46|197:58,1,120,2|0,0:2|0:0,0:0:0:0:
150,133,91143,5,0,0:0:0:0:
130,218,91476,2,0,L|10:238,1,120,2|0,0:2|0:0,0:0:0:0:
92,327,92310,1,0,0:0:0:0:
131,346,92476,2,0,L|259:323,2,120,2|2|2,0:2|0:2|0:2,0:0:0:0:
74,278,93810,5,0,0:0:0:0:
71,190,94143,2,0,P|86:146|139:110,1,80,2|0,0:2|0:0,0:0:0:0:
142,152,94643,2,0,P|177:121|241:117,1,80,2|0,0:2|0:0,0:0:0:0:
236,148,95143,2,0,P|283:171|365:167,2,120,2|0|0,0:2|0:0|0:0,0:0:0:0:
252,61,96476,5,0,0:0:0:0:
336,37,96810,2,0,P|374:67|466:73,1,120,2|2,0:2|0:2,0:0:0:0:
472,161,97643,1,0,0:0:0:0:
467,204,97810,2,0,P|433:243|350:234,1,120,2|0,0:2|0:0,0:0:0:0:
347,206,98476,2,0,P|314:182|209:189,1,120,0|0,0:0|0:0,0:0:0:0:
197,196,99143,6,0,P|189:136|158:95,1,80,12|0,0:2|0:2,0:0:0:0:
101,79,99810,1,8,0:2:0:0:
73,162,100143,2,0,P|51:212|10:242,1,80,0|8,0:2|0:2,0:0:0:0:
0,311,100810,1,0,0:2:0:0:
82,340,101143,2,0,P|142:344|228:305,1,120,8|2,0:2|0:2,0:0:0:0:
233,298,101810,6,0,P|304:290|343:311,1,80,10|0,0:2|0:2,0:0:0:0:
396,308,102476,2,0,P|412:258|402:217,1,80,8|0,0:2|0:2,0:0:0:0:
324,203,103143,1,8,0:2:0:0:
266,136,103476,1,0,0:2:0:0:
257,48,103810,2,0,P|204:73|179:126,1,120,8|2,0:2|0:2,0:0:0:0:
173,169,104476,6,0,P|140:205|92:213,1,80,12|0,0:2|0:2,0:0:0:0:
170,278,105143,2,0,P|159:325|121:356,1,80,8|2,0:2|0:2,0:0:0:0:
50,349,105810,1,12,0:2:0:0:
13,269,106143,2,0,L|5:173,2,80,2|10|2,0:2|0:2|0:2,0:0:0:0:
50,349,107143,6,0,P|112:337|147:298,1,80,12|12,0:2|0:2,0:0:0:0:
180,259,107810,1,12,0:2:0:0:
186,171,108143,1,12,0:2:0:0:
256,192,108476,12,4,109810,0:1:0:0:
