osu file format v14

[General]
AudioFilename: Cutos - Prospect.mp3
AudioLeadIn: 0
PreviewTime: 88476
Countdown: 0
SampleSet: Normal
StackLeniency: 0.7
Mode: 0
LetterboxInBreaks: 0
WidescreenStoryboard: 0

[Editor]
Bookmarks: 109802
DistanceSpacing: 0.7
BeatDivisor: 4
GridSize: 4
TimelineZoom: 1.2

[Metadata]
Title:Prospect
TitleUnicode:Prospect
Artist:Cutos
ArtistUnicode:Cutos
Creator:Reiji-RJ
Version:Insane
Source:
Tags:rbc drum n bass dnb
BeatmapID:646710
BeatmapSetID:286458

[Difficulty]
HPDrainRate:7
CircleSize:4
OverallDifficulty:8
ApproachRate:9
SliderMultiplier:1.6
SliderTickRate:2

[Events]
//Background and Video events
0,0,"434545.jpg",0,0
//Break Periods
//Storyboard Layer 0 (Background)
//Storyboard Layer 1 (Fail)
//Storyboard Layer 2 (Pass)
//Storyboard Layer 3 (Foreground)
//Storyboard Sound Samples

[TimingPoints]
477,333.333333333333,4,2,0,50,1,0
477,-200,4,2,0,50,0,0
1393,-200,4,2,0,30,0,0
1560,-200,4,2,0,50,0,0
6726,-200,4,2,0,30,0,0
6893,-200,4,2,0,50,0,0
7560,-200,4,2,0,30,0,0
7726,-200,4,2,0,50,0,0
11143,-200,4,2,0,60,0,0
16476,-200,4,2,0,65,0,0
19143,-200,4,2,0,70,0,0
21810,-66.6666666666667,4,2,0,70,0,1
22143,-100,4,2,0,70,0,0
22226,-100,4,2,0,60,0,0
24476,-133.333333333333,4,2,0,70,0,0
24810,-100,4,2,0,60,0,0
26310,-100,4,2,0,80,0,0
27143,-100,4,2,0,60,0,0
27310,-100,4,2,0,40,0,0
27476,-100,4,2,0,60,0,1
27560,-100,4,2,0,60,0,0
29810,-133.333333333333,4,2,0,70,0,0
30143,-100,4,2,0,60,0,0
31143,-100,4,2,0,50,0,0
31643,-100,4,2,0,60,0,0
32476,-100,4,1,0,75,0,0
40810,-66.6666666666667,4,2,0,80,0,1
41143,-100,4,1,0,70,0,0
41476,-133.333333333333,4,1,0,80,0,1
41810,-100,4,1,0,70,0,0
45810,-66.6666666666667,4,1,0,80,0,1
46143,-83.3333333333333,4,2,0,60,0,0
48476,-100,4,1,0,70,0,0
51143,-66.6666666666667,4,1,0,80,0,1
53476,-83.3333333333333,4,1,0,80,0,0
53810,-100,4,1,0,70,0,0
61810,-100,4,1,0,80,0,0
64476,-83.3333333333333,4,1,0,90,0,1
65560,-83.3333333333333,4,1,0,100,0,1
65726,-83.3333333333333,4,1,0,90,0,1
66893,-83.3333333333333,4,1,0,100,0,1
67060,-83.3333333333333,4,1,0,90,0,1
68226,-83.3333333333333,4,1,0,100,0,1
68393,-83.3333333333333,4,1,0,90,0,1
69560,-83.3333333333333,4,1,0,100,0,1
69726,-83.3333333333333,4,1,0,90,0,1
70893,-83.3333333333333,4,1,0,100,0,1
71060,-83.3333333333333,4,1,0,90,0,1
72226,-83.3333333333333,4,1,0,100,0,1
72393,-83.3333333333333,4,1,0,90,0,1
73560,-83.3333333333333,4,1,0,100,0,1
73726,-83.3333333333333,4,1,0,90,0,1
74976,-83.3333333333333,4,1,0,100,0,0
75143,-83.3333333333333,4,1,0,90,0,1
85810,-83.3333333333333,4,1,0,60,0,0
88476,-133.333333333333,4,1,0,60,0,0
99143,-100,4,1,0,70,0,0
108476,-100,4,1,0,50,0,0
108726,-100,4,1,0,55,0,0
108976,-100,4,1,0,60,0,0
109226,-100,4,1,0,65,0,0
109476,-100,4,1,0,70,0,0
109810,-100,4,1,0,70,0,1
109893,-100,4,1,0,60,0,0
110143,-100,4,1,0,55,0,0
110476,-100,4,1,0,50,0,0
110810,-100,4,1,0,45,0,0
111143,-100,4,1,0,40,0,0
111476,-100,4,1,0,35,0,0
111810,-100,4,1,0,30,0,0
111976,-100,4,1,0,25,0,0
112143,-100,4,1,0,20,0,0
112310,-100,4,1,0,15,0,0
112476,-100,4,1,0,10,0,0

[Colours]
Combo1 : 0,75,108
Combo2 : 0,138,204
Combo3 : 47,255,151
Combo4 : 0,174,174

[HitObjects]
48,120,477,6,2,P|100:116|148:96,1,100,4|0,0:0|0:0,0:0:0:0:
144,98,976,2,2,L|156:224,1,120,2|2,0:0|0:1,0:0:0:0:
140,312,1643,2,0,B|184:324|212:296|212:296|248:320|248:320|288:232|380:216|448:280,1,360,2|2,0:0|0:0,0:0:0:0:
444,276,4476,1,0,0:0:0:0:
392,196,5810,6,2,P|340:192|296:172,1,100,2|0,0:0|0:0,0:0:0:0:
296,172,6310,2,0,L|168:184,1,120,0|2,0:0|0:1,0:0:0:0:
216,100,6976,2,0,L|87:111,1,120,2|0,0:0|0:0,0:0:0:0:
20,164,7643,2,0,P|124:156|200:212,1,200,2|2,0:1|0:0,0:0:0:0:
198,209,9810,1,0,0:0:0:0:
304,272,10476,1,0,0:0:0:0:
424,176,11143,5,4,1:0:0:0:
104,80,13476,1,0,1:0:0:0:
112,104,13810,1,0,1:0:0:0:
112,104,15143,1,0,1:0:0:0:
36,192,16476,6,0,P|96:188|152:212,1,120,0|0,1:0|0:0,0:0:0:0:
372,304,17143,2,0,L|256:336,1,120,0|0,1:0|0:0,0:0:0:0:
256,336,17810,2,0,L|140:304,1,120,0|0,1:0|0:0,0:0:0:0:
361,210,18476,2,0,P|416:187|476:192,1,120,0|0,1:0|0:0,0:0:0:0:
436,296,19143,5,0,1:0:0:0:
332,320,19310,1,0,1:0:0:0:
256,232,19476,1,0,1:0:0:0:
361,210,19643,1,0,1:0:0:0:
180,320,19810,5,0,1:0:0:0:
76,296,19977,1,0,1:0:0:0:
151,210,20143,1,0,1:0:0:0:
256,232,20310,1,0,1:0:0:0:
466,324,20476,5,8,3:0:0:0:
477,301,20560,1,8,3:0:0:0:
485,275,20643,1,4,3:0:0:0:
488,250,20726,1,4,3:0:0:0:
489,223,20810,1,4,3:0:0:0:
486,196,20893,1,4,3:0:0:0:
481,171,20976,1,4,3:0:0:0:
470,145,21060,1,4,3:0:0:0:
457,122,21143,5,4,3:0:0:0:
431,138,21226,1,4,3:0:0:0:
406,155,21310,1,4,3:0:0:0:
380,171,21393,1,4,3:0:0:0:
354,187,21476,1,12,1:2:0:0:
357,193,21810,6,0,B|240:200|292:176|176:180,1,180.000006866455,12|0,1:3|0:0,0:0:0:0:
54,283,22143,6,0,P|42:247|42:203,1,80,2|2,1:0|0:1,0:0:0:0:
167,102,22476,2,0,P|179:138|179:182,1,80,2|2,0:1|1:0,0:0:0:0:
176,312,22810,1,2,1:1:0:0:
296,244,22976,1,2,0:1:0:0:
180,180,23143,2,0,L|100:172,1,80,2|2,1:0|0:1,0:1:0:0:
176,312,23476,2,0,L|256:320,1,80,2|2,1:1|0:1,0:1:0:0:
416,232,23810,2,2,P|376:236|340:260,1,80,2|2,0:1|1:1,0:1:0:0:
412,332,24143,1,2,1:1:0:0:
508,192,24310,1,2,0:1:0:0:
508,192,24393,1,0,0:0:0:0:
508,192,24476,6,2,B|524:140|524:140|508:72,1,120.000004577637,4|2,1:0|1:0,0:0:0:0:
240,44,24976,5,2,0:1:0:0:
128,64,25143,1,2,0:1:0:0:
84,168,25310,1,2,1:1:0:0:
164,248,25476,1,2,1:1:0:0:
272,220,25643,1,2,0:1:0:0:
320,48,25810,2,0,L|224:44,1,80,2|2,1:1|0:1,0:0:0:0:
276,224,26143,1,2,0:1:0:0:
276,224,26310,2,0,L|364:228,1,80,4|0,0:0|0:0,0:0:0:0:
496,108,26643,2,0,P|412:112|340:136,1,160,4|0,0:0|0:0,0:0:0:0:
276,224,27143,6,0,L|284:256,6,26.6666666666667,0|0|0|0|0|0|6,0:0|0:0|0:0|1:0|1:0|1:0|1:0,0:0:0:0:
176,160,27643,5,2,0:1:0:0:
68,184,27810,1,2,0:1:0:0:
12,280,27976,1,2,1:1:0:0:
104,344,28143,1,2,1:1:0:0:
212,316,28310,1,2,0:1:0:0:
272,220,28476,2,0,L|280:136,1,80,2|2,1:0|0:1,0:0:0:0:
416,256,28810,2,0,L|408:336,1,80,2|2,1:0|0:1,0:0:0:0:
260,316,29143,1,2,0:1:0:0:
272,220,29310,1,2,1:1:0:0:
284,124,29476,1,2,1:1:0:0:
296,28,29643,1,2,0:1:0:0:
456,44,29810,6,2,P|428:100|380:136,1,120.000004577637,4|0,1:0|1:0,0:0:0:0:
112,208,30310,2,0,L|276:220,1,160,0|0,1:0|1:0,0:0:0:0:
464,140,30810,2,0,L|384:134,1,80,0|4,1:0|1:3,0:0:0:0:
284,124,31143,1,4,3:0:0:0:
196,120,31310,1,4,3:0:0:0:
108,116,31476,1,4,3:0:0:0:
20,112,31643,5,2,1:0:0:0:
16,116,31976,1,2,1:0:0:0:
12,120,32310,1,2,1:0:0:0:
48,276,32476,6,0,P|132:268|196:228,1,160,4|0,0:0|0:0,0:0:0:0:
276,56,32976,2,0,L|296:224,1,160,2|4,2:0|2:3,0:0:0:0:
300,372,33476,2,0,P|272:340|260:304,1,80,0|4,0:0|2:0,0:0:0:0:
294,214,33810,2,0,L|376:220,1,80,4|0,2:3|2:0,0:0:0:0:
280,116,34143,2,0,L|196:112,1,80,0|0,0:0|2:0,0:0:0:0:
52,112,34476,1,2,2:0:0:0:
152,88,34643,1,4,2:3:0:0:
176,188,34810,1,0,0:0:0:0:
76,212,34976,1,4,2:0:0:0:
152,88,35143,6,0,P|224:64|312:76,1,160,4|0,0:0|0:0,0:0:0:0:
312,332,35643,2,0,L|284:168,1,160,2|4,2:0|2:3,0:0:0:0:
420,76,36143,2,0,P|408:116|384:144,1,80,0|4,0:0|2:0,0:0:0:0:
285,174,36476,1,4,2:3:0:0:
196,104,36643,1,0,2:0:0:0:
152,208,36810,1,0,0:0:0:0:
52,128,36977,1,2,2:0:0:0:
52,128,37060,1,0,2:0:0:0:
52,128,37143,2,0,B|34:187|34:187|66:283,1,160,0|0,0:0|0:0,0:0:0:0:
184,340,37643,1,4,2:0:0:0:
184,340,37810,6,0,P|256:304|336:312,1,160,4|0,0:0|0:0,0:0:0:0:
456,352,38310,2,0,P|488:280|476:200,1,160,2|4,2:0|2:3,0:0:0:0:
392,116,38810,1,0,0:0:0:0:
360,232,38976,1,4,2:0:0:0:
476,201,39143,2,0,L|496:124,1,80,4|0,2:3|2:0,0:0:0:0:
392,116,39476,2,0,L|400:36,1,80,0|0,0:0|2:0,0:0:0:0:
280,100,39810,2,0,L|256:24,1,80,2|0,2:0|0:0,0:0:0:0:
180,140,40143,2,0,L|124:80,1,80,0|4,0:0|2:0,0:0:0:0:
108,220,40476,6,2,P|156:248|220:252,1,120,4|0,0:0|2:0,0:0:0:0:
300,292,40810,6,2,L|328:112,1,180.000006866455,4|0,2:0|0:0,0:0:0:0:
456,32,41143,6,2,P|448:92|408:140,1,120,0|0,0:0|2:0,0:0:0:0:
327,114,41476,6,0,B|316:108|316:108|304:116|304:116|288:108|288:108|276:116|276:116|260:108|260:108|248:112,1,90.0000034332277,4|0,0:0|2:0,0:0:0:0:
164,80,41810,6,0,L|124:76,2,40
196,192,42143,2,0,L|236:196,2,40,0|0|0,0:0|0:0|0:0,0:0:0:0:
80,216,42476,1,0,0:0:0:0:
84,252,42560,1,0,0:0:0:0:
88,288,42643,1,0,0:0:0:0:
92,324,42726,1,0,0:0:0:0:
96,360,42810,1,4,0:2:0:0:
100,364,43143,6,0,B|148:340|148:340|256:352,1,160,4|8,0:0|0:3,0:0:0:0:
376,380,43643,2,0,P|408:308|404:228,1,160,2|0,2:0|0:0,0:0:0:0:
356,136,44143,1,8,0:3:0:0:
312,40,44310,1,2,2:0:0:0:
312,40,44393,1,0,2:0:0:0:
312,40,44476,2,0,L|400:40,1,80,0|4,0:0|2:0,0:0:0:0:
356,136,44810,2,0,L|324:212,1,80,8|0,0:3|2:0,0:0:0:0:
252,124,45143,2,0,L|196:64,1,80,2|0,2:0|0:0,0:0:0:0:
36,80,45476,2,0,L|90:138,1,80,8|2,0:3|2:0,0:0:0:0:
152,360,45810,6,0,P|184:280|172:188,1,180.000006866455,4|0,2:0|2:0,0:0:0:0:
172,188,46143,5,2,1:1:0:0:
252,124,46310,1,2,0:1:0:0:
356,112,46476,1,2,0:1:0:0:
448,168,46643,1,2,1:1:0:0:
372,240,46810,1,2,1:1:0:0:
268,252,46976,1,2,0:1:0:0:
100,252,47143,2,0,P|80:208|80:156,1,95.9999970703126,2|2,1:0|0:1,0:0:0:0:
231,33,47476,2,0,P|251:77|251:129,1,95.9999970703126,2|2,1:0|0:1,0:0:0:0:
268,252,47810,1,2,1:1:0:0:
360,336,47976,1,2,0:1:0:0:
480,300,48143,1,2,1:1:0:0:
384,220,48310,1,2,0:1:0:0:
268,252,48476,6,0,B|212:260|212:260|116:224,1,160,4|8,0:0|0:3,0:0:0:0:
0,136,48976,2,0,P|76:120|136:64,1,160,2|0,2:0|0:0,0:0:0:0:
248,32,49476,1,8,0:3:0:0:
304,136,49643,1,2,2:0:0:0:
304,136,49726,1,0,2:0:0:0:
304,136,49810,2,0,L|316:224,1,80,0|4,0:0|2:0,0:0:0:0:
424,120,50143,2,0,L|412:32,1,80,8|0,0:3|2:0,0:0:0:0:
248,32,50476,1,2,2:0:0:0:
140,84,50643,1,0,0:0:0:0:
196,188,50810,1,8,0:3:0:0:
304,136,50977,1,4,2:0:0:0:
221,110,51143,6,0,P|141:76|52:94,1,180.000006866455,4|0,0:0|2:0,0:0:0:0:
20,284,51476,1,2,0:0:0:0:
100,232,51643,2,2,B|184:224|184:224|204:232|204:232|280:228,1,180.000006866455,2|0,0:0|2:0,0:0:0:0:
468,276,51976,5,2,0:0:0:0:
384,324,52143,2,2,B|300:332|300:332|280:324|280:324|204:328,1,180.000006866455,2|0,0:0|2:0,0:0:0:0:
20,284,52476,5,2,0:0:0:0:
88,216,52643,2,2,B|172:208|172:208|192:216|192:216|268:212,1,180.000006866455,2|0,0:0|2:0,0:0:0:0:
468,276,52976,5,2,0:0:0:0:
400,352,53143,2,2,B|316:360|316:360|296:352|296:352|220:356,1,180.000006866455,2|0,0:0|2:0,0:0:0:0:
222,355,53476,2,2,P|240:284|220:216,1,143.999995605469,2|0,0:0|2:0,0:0:0:0:
220,217,53810,6,2,L|60:224,1,160,4|0,0:0|0:0,0:0:0:0:
120,84,54310,2,2,L|284:76,1,160,2|0,0:0|0:0,0:0:0:0:
372,136,54810,1,2,0:0:0:0:
484,124,54976,1,2,0:0:0:0:
484,124,55060,1,0,0:0:0:0:
484,124,55143,2,0,P|496:88|492:44,1,80,0|2,0:0|0:0,0:0:0:0:
372,136,55476,2,0,P|360:172|364:216,1,80,0|0,0:0|0:0,0:0:0:0:
456,356,55810,2,0,P|468:320|464:276,1,80,2|0,0:0|0:0,0:0:0:0:
363,213,56143,2,2,L|244:208,1,120,2|0,0:0|2:0,0:0:0:0:
152,240,56476,6,0,P|120:164|132:88,1,160,4|8,0:0|0:3,0:0:0:0:
240,116,56976,2,0,B|300:112|300:112|372:44,1,160,2|0,2:0|0:0,0:0:0:0:
484,32,57476,1,8,0:3:0:0:
412,116,57643,2,0,B|364:168|364:168|388:256,1,160,6|2,2:0|2:0,0:0:0:0:
412,360,58143,2,0,L|492:356,1,80,8|0,0:3|2:0,0:0:0:0:
387,254,58476,2,0,L|308:260,1,80,2|0,2:0|0:0,0:0:0:0:
184,308,58810,2,0,P|164:260|160:192,1,120,8|0,0:3|2:0,0:0:0:0:
159,192,59143,6,2,P|188:124|184:40,1,160,4|0,0:0|0:0,0:0:0:0:
288,72,59643,2,2,P|336:140|408:172,1,160,2|0,0:0|0:0,0:0:0:0:
500,232,60143,1,2,0:0:0:0:
404,288,60310,1,2,0:0:0:0:
404,288,60393,1,0,0:0:0:0:
404,288,60476,2,0,L|324:284,1,80,0|2,0:0|0:0,0:0:0:0:
168,352,60810,2,0,L|247:355,1,80,0|0,0:0|2:0,0:0:0:0:
324,284,61143,1,2,0:0:0:0:
228,220,61310,1,0,0:0:0:0:
304,148,61476,2,2,B|324:108|324:108|308:32,1,120,2|0,0:0|2:0,0:0:0:0:
208,68,61810,6,0,P|136:40|56:48,2,160,4|4|0,0:0|0:3|0:0,0:0:0:0:
304,148,62643,1,0,0:0:0:0:
412,172,62810,1,4,0:3:0:0:
492,92,62976,1,4,0:3:0:0:
384,68,63143,2,0,L|332:64,2,40,0|0|4,0:0|0:3|0:3,0:0:0:0:
412,172,63476,2,0,L|456:176,2,40,0|0|4,0:0|0:3|0:3,0:0:0:0:
316,240,63810,1,0,0:0:0:0:
268,236,63893,1,0,0:3:0:0:
216,232,63976,1,4,0:3:0:0:
48,332,64143,6,0,P|96:312|164:316,1,120,4|0,0:2|2:0,0:0:0:0:
162,315,64476,6,0,P|188:224|164:132,1,191.999994140625,4|0,0:0|0:0,0:0:0:0:
184,32,64976,1,2,2:0:0:0:
76,12,65143,2,0,L|60:108,1,95.9999970703126,0|0,2:0|0:0,0:0:0:0:
164,132,65476,2,0,P|212:128|264:96,1,95.9999970703126,2|4,0:2|2:0,0:0:0:0:
488,44,65810,2,0,L|292:24,1,191.999994140625,2|0,0:2|0:0,0:0:0:0:
164,132,66310,2,0,L|259:142,1,95.9999970703126,2|0,2:0|2:0,0:0:0:0:
416,132,66643,1,0,0:0:0:0:
264,148,66810,1,0,0:0:0:0:
420,136,66976,1,4,2:0:0:0:
208,248,67143,6,0,P|168:168|180:68,1,191.999994140625
320,48,67643,2,0,P|360:128|348:228,1,191.999994140625,2|0,2:0|0:2,0:0:0:0:
312,348,68143,1,0,0:0:0:0:
432,320,68310,1,4,2:0:0:0:
348,228,68476,2,0,L|252:220,1,95.9999970703126,0|2,0:0|2:0,0:0:0:0:
380,124,68810,2,0,L|476:132,1,95.9999970703126,2|0,0:2|2:0,0:0:0:0:
372,132,69143,1,2,0:2:0:0:
256,124,69310,1,2,0:2:0:0:
140,116,69476,1,0,0:0:0:0:
24,108,69643,1,4,2:0:0:0:
4,260,69810,6,0,P|99:255|183:211,1,191.999994140625,4|0,0:0|0:0,0:0:0:0:
289,231,70310,1,2,2:0:0:0:
256,124,70476,2,0,L|268:24,1,95.9999970703126,0|0,2:0|0:0,0:0:0:0:
372,132,70810,2,0,L|468:140,1,95.9999970703126,2|4,0:2|2:0,0:0:0:0:
468,280,71143,2,0,P|388:236|288:232,1,191.999994140625
148,320,71643,2,0,P|104:240|112:140,1,191.999994140625,2|0,2:0|0:0,0:0:0:0:
100,24,72143,1,2,0:2:0:0:
116,148,72310,1,4,2:0:0:0:
236,200,72476,6,0,P|324:164|372:80,1,191.999994140625
252,32,72976,2,0,P|164:68|116:152,1,191.999994140625,2|0,2:0|0:0,0:0:0:0:
128,276,73476,1,2,0:2:0:0:
236,200,73643,1,4,2:0:0:0:
116,148,73810,5,2,0:2:0:0:
128,276,73976,1,0,2:0:0:0:
248,328,74143,5,0,0:0:0:0:
236,200,74309,1,2,2:0:0:0:
340,128,74476,5,2,2:0:0:0:
352,256,74642,1,2,0:2:0:0:
352,256,74726,1,0,0:0:0:0:
352,256,74810,1,0,0:0:0:0:
468,184,74976,1,6,2:0:0:0:
364,36,75143,6,0,L|340:128,1,95.9999970703126,4|2,0:0|2:0,0:0:0:0:
268,292,75476,2,0,L|236:200,1,95.9999970703126,0|4,0:0|2:0,0:0:0:0:
204,100,75810,1,0,0:0:0:0:
100,84,75976,1,8,3:0:0:0:
132,184,76143,1,8,3:0:0:0:
132,184,76226,1,8,3:0:0:0:
132,184,76310,1,0,3:0:0:0:
236,200,76476,6,0,L|332:184,1,95.9999970703126,4|2,0:0|2:0,0:0:0:0:
504,104,76810,2,0,L|408:92,1,95.9999970703126,0|4,0:0|2:0,0:0:0:0:
304,44,77143,1,0,0:0:0:0:
204,100,77310,1,8,3:0:0:0:
100,48,77476,1,8,3:0:0:0:
100,48,77560,1,8,3:0:0:0:
100,48,77643,1,0,3:0:0:0:
36,152,77810,6,0,P|32:200|52:244,1,95.9999970703126,4|2,0:0|2:0,0:0:0:0:
220,292,78143,2,0,P|239:248|235:201,1,95.9999970703126,0|4,0:0|2:0,0:0:0:0:
204,100,78476,2,0,L|108:84,1,95.9999970703126,0|8,0:0|3:0,0:0:0:0:
304,44,78810,1,8,3:0:0:0:
336,40,78893,1,8,3:0:0:0:
372,36,78976,1,0,3:0:0:0:
484,68,79143,5,8,3:0:0:0:
472,184,79310,1,8,3:0:0:0:
356,172,79476,1,8,3:0:0:0:
368,56,79643,1,8,3:0:0:0:
484,68,79810,1,2,0:2:0:0:
480,108,79893,1,2,0:2:0:0:
476,144,79976,1,0,0:0:0:0:
472,184,80060,1,0,0:0:0:0:
468,224,80143,2,0,P|392:220|332:248,1,143.999995605469,4|0,0:0|2:0,0:0:0:0:
264,328,80476,5,4,0:0:0:0:
144,300,80643,1,2,2:0:0:0:
176,180,80810,1,0,0:0:0:0:
296,216,80976,1,4,2:0:0:0:
144,300,81143,1,2,0:2:0:0:
120,300,81226,1,2,0:2:0:0:
96,300,81310,1,0,0:0:0:0:
72,300,81393,1,0,0:0:0:0:
48,300,81476,2,0,P|28:236|32:156,1,143.999995605469,0|0,0:0|2:0,0:0:0:0:
31,159,81810,6,0,L|20:64,1,95.9999970703126,4|2,0:0|2:0,0:0:0:0:
132,120,82143,2,0,L|228:108,1,95.9999970703126,0|4,0:0|2:0,0:0:0:0:
495,151,82476,1,2,0:2:0:0:
463,135,82560,1,2,0:2:0:0:
431,127,82643,1,0,0:0:0:0:
399,127,82726,1,0,0:0:0:0:
367,131,82810,2,0,P|287:131|227:107,1,143.999995605469,0|0,0:0|2:0,0:0:0:0:
132,120,83143,6,0,L|40:160,1,95.9999970703126,4|0,0:0|2:0,0:0:0:0:
188,212,83476,2,0,L|148:304,1,95.9999970703126,0|0,0:0|2:0,0:0:0:0:
300,248,83810,2,0,L|304:348,1,95.9999970703126,0|0,0:0|2:0,0:0:0:0:
412,244,84143,2,0,L|472:324,1,95.9999970703126,0|0,0:0|2:0,0:0:0:0:
456,152,84476,5,0,0:0:0:0:
400,60,84642,1,0,0:0:0:0:
288,24,84809,1,0,0:0:0:0:
176,28,84976,1,0,0:0:0:0:
80,88,85143,5,0,0:0:0:0:
84,124,85226,1,0,0:0:0:0:
88,164,85310,1,0,0:0:0:0:
92,200,85393,1,0,0:0:0:0:
96,236,85476,2,0,B|136:212|136:212|236:220,1,143.999995605469,0|0,0:0|2:0,0:0:0:0:
256,192,85810,12,0,88143,2:0:0:0:
112,324,88476,5,4,0:0:0:0:
108,328,88810,2,2,P|88:272|92:212,1,120.000004577637,2|0,0:0|0:0,0:0:0:0:
200,180,89310,2,2,B|240:168|240:168|288:100,1,120.000004577637,0|0,0:0|0:0,0:0:0:0:
176,52,89810,2,2,L|52:40,1,120.000004577637,2|0,0:0|0:0,0:0:0:0:
80,168,90310,2,2,L|200:180,1,120.000004577637,0|2,0:0|0:0,0:0:0:0:
304,228,90810,1,0,0:0:0:0:
304,228,91143,6,2,P|348:212|396:216,1,90.0000034332277,0|0,0:0|2:0,0:0:0:0:
390,214,91476,2,2,P|408:160|396:96,1,120.000004577637,2|0,0:0|0:0,0:0:0:0:
300,32,91976,2,2,L|180:40,1,120.000004577637,0|0,0:0|0:0,0:0:0:0:
28,112,92476,2,2,B|68:104|68:104|144:136,1,120.000004577637,2|0,0:0|0:0,0:0:0:0:
244,172,92976,2,2,L|252:292,1,120.000004577637,0|0,0:0|0:0,0:0:0:0:
356,348,93476,2,2,L|352:288,1,60.0000022888184,0|2,0:0|0:0,0:0:0:0:
344,188,93810,5,0,0:0:0:0:
344,188,94143,2,2,P|392:148|408:92,1,120.000004577637,2|0,0:0|0:0,0:0:0:0:
300,24,94643,2,2,P|252:64|236:120,1,120.000004577637,0|0,0:0|0:0,0:0:0:0:
152,208,95143,2,2,L|16:200,1,120.000004577637,2|0,0:0|0:0,0:0:0:0:
112,312,95643,2,2,L|240:320,1,120.000004577637,0|2,0:0|0:0,0:0:0:0:
360,304,96143,1,0,0:0:0:0:
360,304,96476,6,0,P|332:268|320:224,1,90.0000034332277,0|0,0:0|2:0,0:0:0:0:
320,225,96810,2,2,P|340:168|335:105,1,120.000004577637,2|0,0:0|0:0,0:0:0:0:
232,116,97310,2,2,B|192:104|192:104|144:40,1,120.000004577637,0|0,0:0|0:0,0:0:0:0:
288,36,97810,2,2,B|328:48|328:48|376:112,1,120.000004577637,2|0,0:0|0:0,0:0:0:0:
320,224,98310,2,2,L|316:288,1,60.0000022888184,0|0,0:0|0:0,0:0:0:0:
300,308,98560,1,0,0:0:0:0:
273,310,98643,1,0,0:0:0:0:
246,312,98726,1,0,0:0:0:0:
218,314,98810,1,0,0:0:0:0:
191,316,98893,1,2,0:2:0:0:
164,318,98976,1,0,0:0:0:0:
136,320,99060,1,0,0:0:0:0:
104,325,99143,6,0,L|84:248,1,80,4|0,0:0|2:0,0:0:0:0:
156,124,99476,2,0,L|176:201,1,80,0|0,0:0|2:0,0:0:0:0:
84,248,99810,2,0,L|0:244,1,80,0|0,0:0|2:0,0:0:0:0:
156,124,100143,2,0,L|235:127,1,80,0|0,0:0|2:0,0:0:0:0:
360,112,100476,6,0,L|376:192,1,80,0|0,0:0|2:0,0:0:0:0:
236,128,100810,2,0,L|280:196,1,80,0|0,0:0|2:0,0:0:0:0:
124,200,101143,2,0,L|196:236,1,80,0|0,0:0|2:0,0:0:0:0:
60,312,101476,2,0,L|140:316,1,80,0|0,0:0|2:0,0:0:0:0:
248,344,101810,5,0,0:0:0:0:
356,320,101976,1,0,2:0:0:0:
332,212,102143,1,0,0:0:0:0:
224,236,102309,1,0,2:0:0:0:
292,280,102476,5,0,0:0:0:0:
424,308,102643,1,0,2:0:0:0:
448,176,102810,1,0,0:0:0:0:
316,148,102977,1,0,2:0:0:0:
128,220,103143,6,0,P|128:260|144:296,1,80,0|0,0:0|2:0,0:0:0:0:
224,236,103476,2,0,P|224:196|208:160,1,80,0|0,0:0|2:0,0:0:0:0:
132,96,103810,2,0,L|52:84,1,80,0|0,0:0|2:0,0:0:0:0:
216,40,104143,2,0,L|296:24,1,80,0|0,0:0|2:0,0:0:0:0:
476,132,104476,6,0,P|396:140|324:108,1,160,4|0,0:0|0:0,0:0:0:0:
216,40,104976,1,0,2:0:0:0:
88,96,105143,2,0,B|80:136|100:176,1,80,0|0,0:0|2:0,0:0:0:0:
196,240,105476,2,0,P|212:204|212:164,1,80,0|0,0:0|2:0,0:0:0:0:
88,260,105810,5,4,0:3:0:0:
164,344,105976,1,0,2:0:0:0:
272,320,106143,2,0,L|352:308,1,80,0|0,0:0|2:0,0:0:0:0:
488,240,106476,2,0,L|408:228,1,80,0|0,0:0|2:0,0:0:0:0:
296,212,106810,1,0,0:0:0:0:
188,192,106976,1,0,2:0:0:0:
24,120,107143,6,0,B|92:116|92:116|116:104|116:104|184:100,1,160,4|0,0:0|0:0,0:0:0:0:
488,240,107810,2,0,B|420:244|420:244|396:256|396:256|328:260,1,160
192,320,108310,1,0,0:0:0:0:
88,220,108476,5,4,0:3:0:0:
116,216,108560,1,4,0:3:0:0:
144,212,108643,1,4,0:3:0:0:
172,208,108726,1,4,0:3:0:0:
200,204,108810,1,0,0:0:0:0:
228,200,108893,1,0,0:0:0:0:
256,196,108976,1,0,0:0:0:0:
284,192,109060,1,0,0:0:0:0:
312,188,109143,1,0,0:0:0:0:
340,184,109226,1,0,0:0:0:0:
368,180,109310,1,0,0:0:0:0:
396,176,109393,1,0,0:0:0:0:
424,172,109476,5,12,0:2:0:0:
252,48,109643,1,0,0:0:0:0:
60,112,109810,1,4,0:0:0:0:
256,192,109893,12,0,112476,0:0:0:0:
