osu file format v12

[General]
AudioFilename: Cutline - Die For You (Shock One Remix).mp3
AudioLeadIn: 0
PreviewTime: 66204
Countdown: 0
SampleSet: Normal
StackLeniency: 0.7
Mode: 0
LetterboxInBreaks: 1
EpilepsyWarning: 1
WidescreenStoryboard: 1

[Editor]
Bookmarks: 22216
DistanceSpacing: 1
BeatDivisor: 4
GridSize: 4
TimelineZoom: 2.799999

[Metadata]
Title:Die For You (Shock One Remix)
TitleUnicode:Die For You (Shock One Remix)
Artist:Cutline
ArtistUnicode:Cutline
Creator:Katty Pie
Version:Insane
Source:
Tags:dnb drum and bass Xinely Mystyk
BeatmapID:380964
BeatmapSetID:155285

[Difficulty]
HPDrainRate:7
CircleSize:4
OverallDifficulty:8
ApproachRate:9
SliderMultiplier:1.8
SliderTickRate:2

[Events]
//Background and Video events
0,0,"bg.jpg",0,0
//Break Periods
2,44461,54633
//Storyboard Layer 0 (Background)
//Storyboard Layer 1 (Fail)
//Storyboard Layer 2 (Pass)
//Storyboard Layer 3 (Foreground)
//Storyboard Sound Samples
//Background Colour Transformations
3,100,163,162,255

[TimingPoints]
376,342.857142857143,4,1,1,40,1,0
22318,-133.333333333333,4,2,1,60,0,0
25061,-133.333333333333,4,2,1,80,0,0
25147,-133.333333333333,4,2,1,60,0,0
27804,-133.333333333333,4,2,1,80,0,0
27890,-133.333333333333,4,2,1,60,0,0
30547,-133.333333333333,4,2,1,80,0,0
30633,-133.333333333333,4,2,1,60,0,0
33290,-133.333333333333,4,2,1,80,0,0
33376,-133.333333333333,4,2,1,60,0,0
36033,-133.333333333333,4,2,1,80,0,0
36118,-133.333333333333,4,2,1,60,0,0
38776,-133.333333333333,4,2,1,80,0,0
38861,-133.333333333333,4,2,1,60,0,0
41518,-133.333333333333,4,2,1,80,0,0
41604,-133.333333333333,4,2,1,60,0,0
55233,-100,4,2,0,60,0,0
60718,-100,4,1,1,45,0,0
61404,-100,4,1,1,50,0,0
62090,-100,4,1,1,55,0,0
62776,-100,4,1,1,60,0,0
63461,-100,4,1,1,65,0,0
65861,-133.333333333333,4,2,1,20,0,0
66204,-80,4,1,1,55,0,0
88147,-105.263157894737,4,1,1,55,0,0
88833,-80,4,1,1,55,0,0
109747,-80,4,2,1,10,0,0
110090,-80,4,1,1,55,0,1
132033,-100,4,1,1,50,0,0
153290,-100,4,2,1,50,0,0

[Colours]
Combo1 : 201,139,181
Combo2 : 128,128,192
Combo3 : 134,173,107
Combo4 : 235,125,84

[HitObjects]
256,192,16833,12,4,22318,1:0:0:0:
480,344,23004,5,2,0:0:0:0:
308,236,23518,1,2,0:0:0:0:
200,64,24033,2,0,P|136:104|8:40,2,202.500007724762,2|2|2,0:0|0:0|0:0,0:0:0:0:
396,316,25747,5,2,0:0:0:0:
324,128,26261,1,2,0:0:0:0:
120,132,26776,1,2,0:0:0:0:
104,144,27290,1,2,0:0:0:0:
84,156,27804,6,0,P|0:240|88:344,1,270.000010299683,2|2,0:0|0:0,0:0:0:0:
356,308,29004,1,2,0:0:0:0:
432,80,29518,1,2,0:0:0:0:
188,76,30033,1,2,0:0:0:0:
60,284,30547,6,0,P|120:312|200:292,2,135.000005149842,2|0|2,0:0|0:0|0:0,0:0:0:0:
140,96,31747,1,2,0:0:0:0:
320,192,32261,2,0,B|376:136|376:136|316:84|360:0,2,202.500007724762,2|2|2,0:0|0:0|0:0,0:0:0:0:
48,204,33976,5,2,0:0:0:0:
52,220,34490,1,2,0:0:0:0:
56,236,35004,1,2,0:0:0:0:
188,332,35347,2,0,P|220:332|264:300,2,67.5000025749208,2|0|0,0:0|0:0|0:0,0:0:0:0:
324,52,36033,6,0,P|256:76|200:252,1,270.000010299683,2|2,0:0|0:0,0:0:0:0:
428,328,37233,1,2,0:0:0:0:
432,312,37747,1,2,0:0:0:0:
436,296,38261,1,2,0:0:0:0:
420,52,38776,6,0,P|360:96|176:48,1,270.000010299683,2|2,0:0|0:0,0:0:0:0:
164,64,39976,1,2,0:0:0:0:
149,72,40490,1,2,0:0:0:0:
135,80,41004,1,2,0:0:0:0:
116,92,41518,6,0,P|56:144|156:284,1,270.000010299683,2|2,0:0|0:0,0:0:0:0:
256,176,42547,1,0,0:0:0:0:
376,284,42890,2,0,P|464:195|396:92,2,270.000010299683,2|0|4,0:0|0:0|1:1,0:0:0:0:
360,40,55233,5,4,1:1:0:0:
460,232,55576,1,0,1:1:0:0:
256,304,55918,1,8,0:0:0:0:
256,304,56090,1,0,0:0:0:0:
52,232,56433,1,2,0:0:0:0:
152,40,56776,1,2,0:0:0:0:
204,136,56947,1,0,1:1:0:0:
288,204,57118,1,2,0:0:0:0:
152,40,57461,2,0,P|244:32|308:132,1,180,2|2,0:0|0:0,0:0:0:0:
204,136,57976,6,0,P|112:144|48:44,1,180,0|0,1:1|1:1,0:0:0:0:
40,300,58661,2,0,L|136:300,1,90,8|0,2:2|0:0,0:0:0:0:
348,300,59176,2,0,B|428:252|428:252|428:148,1,180,2|2,0:0|0:0,0:0:0:0:
428,56,59690,1,0,1:1:0:0:
324,80,59861,1,2,0:0:0:0:
324,188,60033,1,0,1:1:0:0:
428,164,60204,1,2,0:0:0:0:
212,136,60547,1,2,0:0:0:0:
140,56,60718,6,0,L|36:48,1,90,0|0,0:0|0:0,0:0:0:0:
28,136,61061,2,0,L|132:144,1,90,8|0,0:0|0:0,0:0:0:0:
128,232,61404,2,0,L|24:224,1,90,0|0,0:0|0:0,0:0:0:0:
20,312,61747,2,0,L|124:320,1,90,8|0,0:0|0:0,0:0:0:0:
244,336,62090,5,8,0:0:0:0:
264,332,62176,1,0,0:0:0:0:
284,320,62261,1,8,0:0:0:0:
296,300,62347,1,0,0:0:0:0:
300,280,62433,1,8,0:0:0:0:
300,256,62518,1,0,0:0:0:0:
292,236,62604,1,8,0:0:0:0:
276,220,62690,1,0,0:0:0:0:
260,204,62776,1,8,0:0:0:0:
244,188,62861,1,0,0:0:0:0:
232,168,62947,1,8,0:0:0:0:
224,148,63033,1,0,0:0:0:0:
228,124,63118,1,8,0:0:0:0:
240,104,63204,1,0,0:0:0:0:
260,92,63290,1,8,0:0:0:0:
280,88,63376,1,0,0:0:0:0:
300,96,63461,5,4,0:0:0:0:
256,192,63547,12,0,65861,0:0:0:0:
304,336,66204,6,0,P|368:328|400:288,1,112.5,4|0,0:0|0:0,0:0:0:0:
208,336,66547,2,0,P|144:328|112:288,1,112.5,8|0,0:0|0:0,0:0:0:0:
320,256,66890,1,0,0:0:0:0:
192,256,67061,1,0,0:0:0:0:
360,192,67233,1,8,0:0:0:0:
152,192,67404,1,0,0:0:0:0:
308,96,67576,6,0,P|256:72|208:96,1,112.5
4,116,67918,2,0,P|23:169|74:186,1,112.5,8|0,0:0|0:0,0:0:0:0:
190,354,68261,2,0,P|214:305|192:256,1,112.5
176,120,68604,1,8,0:0:0:0:
308,96,68776,1,0,0:0:0:0:
416,176,68947,6,0,L|448:304,1,112.5
68,285,69290,2,0,L|96:176,1,112.5,8|0,0:0|0:0,0:0:0:0:
328,216,69633,2,0,L|355:325,1,112.5,0|0,0:0|0:0,0:0:0:0:
156,325,69976,2,0,L|184:216,1,112.5
196,104,70318,5,0,0:0:0:0:
300,148,70490,1,0,0:0:0:0:
439,30,70661,1,8,0:0:0:0:
395,207,70833,1,0,0:0:0:0:
327,38,71004,1,8,0:0:0:0:
481,135,71176,1,0,0:0:0:0:
308,240,71347,2,0,P|252:324|116:320,1,225,8|4,0:0|0:0,0:0:0:0:
32,116,72033,5,8,0:0:0:0:
144,40,72204,1,0,0:0:0:0:
256,116,72376,1,0,0:0:0:0:
368,40,72547,1,0,0:0:0:0:
480,116,72718,1,8,0:0:0:0:
436,244,72890,1,0,0:0:0:0:
436,244,73061,6,0,P|368:212|328:324,1,225,0|8,0:0|0:0,0:0:0:0:
76,244,73747,2,0,P|144:212|184:324,1,225,0|8,0:0|0:0,0:0:0:0:
256,64,74433,6,0,L|256:184,1,112.5
132,280,74776,2,0,L|132:160,1,112.5,8|0,0:0|0:0,0:0:0:0:
380,167,75118,2,0,L|380:280,1,112.5
268,356,75461,1,8,0:0:0:0:
256,224,75633,1,0,0:0:0:0:
132,280,75804,6,0,B|72:260|72:260|48:216,1,112.5
64,84,76147,1,8,0:0:0:0:
256,148,76318,1,0,0:0:0:0:
448,84,76490,1,8,0:0:0:0:
344,256,76661,1,0,0:0:0:0:
256,72,76833,1,8,0:0:0:0:
168,256,77004,1,0,0:0:0:0:
64,84,77176,6,0,L|32:208,1,112.5,4|0,0:0|0:0,0:0:0:0:
56,328,77518,1,8,0:0:0:0:
168,256,77690,1,0,0:0:0:0:
168,256,77861,2,0,P|255:315|343:257,1,225,0|8,0:0|0:0,0:0:0:0:
256,152,78376,1,0,0:0:0:0:
336,44,78547,6,0,P|384:76|436:72,1,112.5
436,312,78890,2,0,P|381:308|336:340,1,112.5,8|0,0:0|0:0,0:0:0:0:
376,192,79233,2,0,L|488:192,2,112.5,0|0|8,0:0|0:0|0:0,0:0:0:0:
256,252,79747,1,0,0:0:0:0:
120,260,79918,6,0,B|56:260|56:260|24:224,1,112.5
104,116,80261,2,0,B|168:116|168:116|200:152,1,112.5,8|0,0:0|0:0,0:0:0:0:
408,116,80604,2,0,B|344:116|344:116|312:152,1,112.5,0|0,0:0|0:0,0:0:0:0:
392,260,80947,2,0,B|456:260|456:260|488:224,1,112.5,8|0,0:0|0:0,0:0:0:0:
496,88,81290,5,0,0:0:0:0:
392,260,81461,1,0,0:0:0:0:
292,84,81633,1,8,0:0:0:0:
500,104,81804,5,0,0:0:0:0:
376,264,81976,1,8,0:0:0:0:
276,88,82147,1,0,0:0:0:0:
392,152,82318,2,0,P|464:184|460:336,1,225,8|4,0:0|0:0,0:0:0:0:
35,316,83004,6,0,P|29:209|120:152,1,225,8|0,0:0|0:0,0:0:0:0:
160,280,83518,2,0,P|204:304|284:288,1,112.5,0|8,0:0|0:0,0:0:0:0:
244,116,83861,2,0,P|220:160|236:240,1,112.5
356,244,84204,5,0,0:0:0:0:
380,112,84376,1,8,0:0:0:0:
244,116,84547,1,0,0:0:0:0:
212,248,84718,2,0,P|200:328|104:248,1,225,0|8,0:0|0:0,0:0:0:0:
64,156,85233,1,0,0:0:0:0:
64,156,85404,6,0,P|108:100|104:48,1,112.5
403,61,85747,2,0,P|409:116|448:156,1,112.5,8|0,0:0|0:0,0:0:0:0:
256,216,86090,2,0,L|256:88,2,112.5,0|0|8,0:0|0:0|0:0,0:0:0:0:
256,248,86604,5,0,0:0:0:0:
256,280,86776,6,0,P|208:336|68:268,1,225,0|8,0:0|0:0,0:0:0:0:
148,180,87290,1,0,0:0:0:0:
255,32,87461,1,8,0:0:0:0:
255,215,87633,1,0,0:0:0:0:
148,67,87804,1,8,0:0:0:0:
321,123,87976,1,0,0:0:0:0:
176,268,88147,6,0,P|120:300|108:120,1,341.999990867615,4|8,0:0|0:0,0:0:0:0:
220,136,89004,1,0,0:0:0:0:
312,40,89176,1,8,0:0:0:0:
444,72,89347,1,0,0:0:0:0:
460,204,89518,6,0,P|448:292|424:320,1,112.5
76,309,89861,2,0,P|50:259|52:204,1,112.5,8|0,0:0|0:0,0:0:0:0:
120,88,90204,1,0,0:0:0:0:
256,100,90376,1,0,0:0:0:0:
392,296,90547,1,8,0:0:0:0:
256,284,90718,1,0,0:0:0:0:
160,192,90890,6,0,L|116:80,1,112.5
393,87,91233,2,0,L|352:192,1,112.5,8|0,0:0|0:0,0:0:0:0:
256,284,91576,2,0,L|256:136,1,112.5,0|0,0:0|0:0,0:0:0:0:
393,87,91918,1,8,0:0:0:0:
118,87,92090,1,0,0:0:0:0:
384,28,92261,5,0,0:0:0:0:
128,28,92433,1,0,0:0:0:0:
372,144,92604,1,8,0:0:0:0:
140,144,92776,1,0,0:0:0:0:
184,268,92947,5,8,0:0:0:0:
256,76,93118,1,0,0:0:0:0:
328,268,93290,2,0,P|432:256|496:156,1,225,8|4,0:0|0:0,0:0:0:0:
184,268,93976,6,0,P|80:256|16:156,1,225,8|0,0:0|0:0,0:0:0:0:
165,104,94490,1,0,0:0:0:0:
165,103,94661,2,0,P|255:47|347:103,1,225,8|0,0:0|0:0,0:0:0:0:
380,296,95176,5,0,0:0:0:0:
256,352,95347,2,0,L|256:239,2,112.5,8|0|0,0:0|0:0|0:0,0:0:0:0:
132,296,95861,1,0,0:0:0:0:
92,168,96033,2,0,B|124:116|124:116|124:44,1,112.5,8|0,0:0|0:0,0:0:0:0:
256,28,96376,6,0,L|380:52,1,112.5
440,160,96718,2,0,L|316:136,1,112.5,8|0,0:0|0:0,0:0:0:0:
145,334,97061,2,0,L|256:356,1,112.5
182,245,97404,2,0,L|72:224,1,112.5,8|0,0:0|0:0,0:0:0:0:
156,40,97747,5,0,0:0:0:0:
292,28,97918,1,0,0:0:0:0:
304,164,98090,1,8,0:0:0:0:
168,172,98261,1,0,0:0:0:0:
232,104,98433,5,8,0:0:0:0:
424,88,98604,1,0,0:0:0:0:
444,276,98776,1,8,0:0:0:0:
252,292,98947,1,0,0:0:0:0:
252,292,99118,6,0,B|184:312|184:312|144:232|60:232,1,225,4|8,0:0|0:0,0:0:0:0:
40,100,99633,1,0,0:0:0:0:
160,40,99804,2,0,B|220:32|256:84|256:84|288:32|353:39,1,225,0|8,0:0|0:0,0:0:0:0:
352,344,100490,6,0,B|292:352|256:300|256:300|224:352|158:344,2,225,0|8|0,0:0|0:0|0:0,0:0:0:0:
200,208,101347,2,0,P|252:192|316:212,1,112.5,0|8,0:0|0:0,0:0:0:0:
96,36,101861,6,0,B|152:64|152:64|168:124,1,112.5
479,189,102204,2,0,B|420:208|420:208|366:177,1,112.5,8|0,0:0|0:0,0:0:0:0:
100,352,102547,2,0,B|128:296|128:296|188:280,1,112.5
256,172,102890,5,8,0:0:0:0:
288,232,103061,1,0,0:0:0:0:
220,232,103233,1,0,0:0:0:0:
256,104,103404,5,0,0:0:0:0:
256,308,103576,1,8,0:0:0:0:
364,136,103747,1,0,0:0:0:0:
148,248,103918,1,8,0:0:0:0:
364,248,104090,1,0,0:0:0:0:
148,136,104261,2,0,P|68:168|56:304,1,225,8|4,0:0|0:0,0:0:0:0:
364,248,104947,6,0,P|444:216|456:80,2,225,8|0|8,0:0|0:0|0:0,0:0:0:0:
256,168,105804,1,0,0:0:0:0:
180,56,105976,5,0,0:0:0:0:
44,72,106147,1,0,0:0:0:0:
24,204,106318,2,0,P|64:260|60:320,1,112.5,8|0,0:0|0:0,0:0:0:0:
204,316,106661,2,0,B|256:336|256:336|312:312,1,112.5
446,301,107004,2,0,P|452:246|488:204,2,112.5,8|0|4,0:0|0:0|0:0,0:0:0:0:
256,192,107861,12,0,109747,0:0:0:0:
464,64,110090,6,0,P|480:132|448:168,1,112.5,4|2,0:0|0:2,0:0:0:0:
356,340,110433,2,0,B|312:304|312:304|328:248,1,112.5,8|2,0:0|0:2,0:0:0:0:
156,44,110776,2,0,B|200:80|200:80|184:136,1,112.5,0|2,0:0|0:2,0:0:0:0:
48,320,111118,2,0,P|32:252|64:216,1,112.5,8|2,0:0|0:2,0:0:0:0:
164,300,111461,5,0,0:0:0:0:
348,84,111633,1,2,0:2:0:0:
256,192,111804,1,8,0:0:0:0:
348,300,111976,1,2,0:2:0:0:
164,84,112147,1,0,0:0:0:0:
256,304,112318,2,0,L|256:188,1,112.5,2|8,0:2|0:0,0:0:0:0:
164,84,112661,1,2,0:2:0:0:
164,84,112747,1,0,0:0:0:0:
164,83,112833,6,0,P|256:28|348:83,1,225,4|8,0:0|0:0,0:0:0:0:
432,192,113347,1,2,0:2:0:0:
428,204,113518,1,0,0:0:0:0:
256,312,113690,1,2,0:2:0:0:
256,300,113861,1,8,0:0:0:0:
84,204,114033,1,2,0:2:0:0:
80,192,114204,6,0,P|152:140|104:32,1,225,0|8,0:0|0:0,0:0:0:0:
407,32,114718,2,0,P|355:121|432:192,1,225,2|0,2:0|0:0,0:0:0:0:
404,324,115233,1,8,0:1:0:0:
404,324,115404,1,2,0:2:0:0:
280,272,115576,5,4,0:0:0:0:
156,324,115747,1,2,0:2:0:0:
32,268,115918,2,0,P|48:196|32:144,1,112.5,8|2,0:0|0:2,0:0:0:0:
256,36,116261,2,0,L|256:156,1,112.5,0|2,0:0|0:2,0:0:0:0:
480,268,116604,2,0,P|464:196|480:144,1,112.5,8|2,0:0|0:2,0:0:0:0:
355,80,116947,6,0,P|256:124|157:77,1,225,0|8,0:0|0:0,0:0:0:0:
88,192,117461,1,2,0:2:0:0:
156,303,117633,2,0,P|255:259|354:306,1,225,0|8,0:0|0:0,0:0:0:0:
256,360,118147,1,2,0:2:0:0:
256,360,118318,5,4,0:0:0:0:
428,152,118490,2,0,P|400:100|344:76,1,112.5,0|8,0:1|0:0,0:0:0:0:
256,248,118833,1,0,0:0:0:0:
84,152,119004,2,0,P|112:100|168:76,1,112.5,8|0,0:0|0:0,0:0:0:0:
256,360,119347,2,0,L|256:224,1,112.5,8|0,0:0|0:0,0:0:0:0:
256,112,119690,5,8,0:0:0:0:
376,52,119861,1,0,0:0:0:0:
256,216,120033,1,8,0:0:0:0:
136,276,120204,1,0,0:0:0:0:
256,216,120376,2,0,B|332:216|332:216|364:236,1,112.5,8|0,0:0|0:0,0:0:0:0:
256,112,120718,2,0,B|180:112|180:112|148:92,1,112.5,8|2,0:0|0:2,0:0:0:0:
124,76,120976,1,0,0:0:0:0:
100,60,121061,6,0,P|36:80|56:240,1,225,4|8,0:2|0:0,0:0:0:0:
72,348,121576,1,2,0:2:0:0:
188,280,121747,1,0,0:0:0:0:
300,356,121918,1,2,0:2:0:0:
420,296,122090,1,8,0:0:0:0:
292,336,122261,1,2,0:2:0:0:
416,276,122433,6,0,B|448:244|432:192|432:192|384:124|436:64,1,225,0|8,0:0|0:0,0:0:0:0:
256,172,122947,1,2,0:2:0:0:
79,68,123118,2,0,B|128:124|80:192|80:192|64:244|96:276,1,225,0|8,0:0|0:0,0:0:0:0:
208,352,123633,1,2,0:2:0:0:
236,356,123718,1,0,0:0:0:0:
264,356,123804,6,0,P|328:352|372:320,1,112.5,4|0,0:0|0:0,0:0:0:0:
256,172,124147,2,0,P|290:216|296:272,1,112.5,8|0,0:0|0:0,0:0:0:0:
152,128,124490,2,0,P|88:132|44:164,1,112.5,8|0,0:0|0:0,0:0:0:0:
159,311,124833,2,0,P|125:266|119:211,1,112.5,8|0,0:0|0:0,0:0:0:0:
408,62,125176,6,0,P|437:109|439:165,1,112.5,8|0,0:0|0:0,0:0:0:0:
256,172,125518,2,0,P|301:138|356:132,1,112.5,8|0,0:0|0:0,0:0:0:0:
344,268,125861,1,8,0:0:0:0:
256,88,126033,1,0,0:0:0:0:
168,268,126204,1,8,0:0:0:0:
72,88,126376,1,2,0:2:0:0:
72,88,126461,1,0,0:0:0:0:
71,88,126547,6,0,P|84:200|168:268,1,225,4|8,0:2|0:0,0:0:0:0:
280,344,127061,1,2,0:2:0:0:
396,272,127233,1,2,0:2:0:0:
284,196,127404,1,2,0:2:0:0:
168,268,127576,2,0,P|112:236|80:176,1,112.5,8|0,0:0|0:0,0:0:0:0:
144,72,127918,6,0,L|256:40,1,112.5,2|0,0:2|0:2,0:2:0:0:
380,88,128261,2,0,L|268:120,1,112.5,8|2,0:0|0:2,0:0:0:0:
188,224,128604,2,0,L|412:164,2,225,0|8|4,0:0|0:0|0:2,0:0:0:0:
148,352,129461,5,0,0:0:0:0:
148,352,129633,2,0,P|88:336|64:280,1,112.5,8|0,0:0|0:0,0:0:0:0:
24,164,129976,1,8,0:0:0:0:
116,64,130147,2,0,P|164:80|184:136,1,112.5,0|8,0:0|0:0,0:0:0:0:
327,134,130490,2,0,P|344:82|396:64,1,112.5,0|8,0:0|0:0,0:0:0:0:
488,164,130833,5,0,0:0:0:0:
447,294,131004,2,0,P|417:340|364:352,1,112.5,8|0,0:0|0:0,0:0:0:0:
256,272,131347,1,8,0:0:0:0:
364,188,131518,1,0,0:0:0:0:
256,104,131690,1,8,0:0:0:0:
152,192,131861,1,2,0:2:0:0:
140,192,131947,1,0,0:0:0:0:
132,192,132033,6,0,P|84:176|104:40,1,180,4|8,2:2|0:0,0:0:0:0:
176,100,132547,1,0,0:0:0:0:
256,28,132718,1,0,0:0:0:0:
336,100,132890,1,0,0:0:0:0:
364,188,133061,1,8,0:0:0:0:
360,216,133233,1,0,0:0:0:0:
356,244,133404,6,0,L|320:344,1,90
188,328,133747,1,8,0:0:0:0:
184,300,133918,1,0,0:0:0:0:
180,272,134090,2,0,L|144:172,1,90
59,128,134433,2,0,P|120:67|200:98,1,180,8|4,0:0|0:0,0:0:0:0:
356,56,134947,6,0,P|420:56|448:80,1,90,0|8,0:0|0:0,0:0:0:0:
384,164,135290,2,0,P|429:209|432:246,1,90
328,256,135633,2,0,P|328:320|304:347,2,90,0|8|0,0:0|0:0|0:0,0:0:0:0:
156,328,136147,6,0,P|92:328|64:304,1,90
128,220,136490,2,0,P|82:174|79:137,1,90,8|0,0:0|0:0,0:0:0:0:
184,128,136833,2,0,P|184:64|208:36,1,90
288,104,137176,2,0,P|333:58|444:80,1,180,8|4,0:0|0:0,0:0:0:0:
380,164,137690,5,0,0:0:0:0:
323,298,137861,1,8,0:0:0:0:
447,223,138033,1,0,0:0:0:0:
302,210,138204,1,0,0:0:0:0:
412,305,138376,1,0,0:0:0:0:
256,84,138547,1,8,0:0:0:0:
256,84,138718,1,0,0:0:0:0:
100,305,138890,5,0,0:0:0:0:
132,164,139061,1,0,0:0:0:0:
189,298,139233,1,8,0:0:0:0:
65,223,139404,1,0,0:0:0:0:
210,210,139576,1,0,0:0:0:0:
320,92,139747,2,0,P|372:60|384:32,2,90,0|8|0,0:0|0:0|0:0,0:0:0:0:
192,92,140261,6,0,P|140:60|128:32,1,90,12|0,0:0|0:0,0:0:0:0:
16,152,140604,1,8,0:0:0:0:
124,272,140776,1,0,0:0:0:0:
256,176,140947,1,8,0:0:0:0:
388,272,141118,1,0,0:0:0:0:
496,152,141290,1,8,0:0:0:0:
448,128,141461,1,0,0:0:0:0:
396,108,141633,6,0,B|352:92|352:92|312:44,1,90,8|0,0:0|0:0,0:0:0:0:
16,232,141976,1,8,0:0:0:0:
64,256,142147,1,0,0:0:0:0:
116,276,142318,1,8,0:0:0:0:
256,192,142490,1,2,2:2:0:0:
256,84,142661,1,8,0:0:0:0:
256,300,142833,1,2,2:2:0:0:
380,196,143004,6,0,P|464:168|464:48,1,180,4|8,2:2|0:0,0:0:0:0:
332,36,143518,1,0,0:0:0:0:
224,24,143690,1,0,0:0:0:0:
100,128,143861,1,0,0:0:0:0:
208,140,144033,1,8,0:0:0:0:
300,272,144204,1,0,0:0:0:0:
192,260,144376,6,0,P|128:272|100:296,1,90
320,124,144718,2,0,P|384:112|412:88,1,90,8|0,0:0|0:0,0:0:0:0:
484,172,145061,1,0,0:0:0:0:
464,276,145233,1,0,0:0:0:0:
372,328,145404,2,0,B|308:344|308:344|264:336|264:336|184:352,1,180,8|4,0:0|0:0,0:0:0:0:
68,252,145918,5,0,0:0:0:0:
64,236,146090,1,8,0:0:0:0:
164,108,146261,1,0,0:0:0:0:
164,96,146433,1,0,0:0:0:0:
320,132,146604,1,0,0:0:0:0:
328,124,146776,1,8,0:0:0:0:
336,113,146947,1,0,0:0:0:0:
344,101,147118,6,0,P|420:69|460:81,1,90
451,256,147461,2,0,P|445:212|420:176,1,90,8|0,0:0|0:0,0:0:0:0:
263,283,147804,2,0,P|307:277|344:252,1,90,0|0,0:0|0:0,0:0:0:0:
155,55,148147,2,0,P|234:93|264:176,1,180,8|4,0:0|0:0,0:0:0:0:
48,176,148661,5,0,0:0:0:0:
96,272,148833,2,0,P|136:316|140:348,1,90,8|0,0:0|0:0,0:0:0:0:
416,272,149176,2,0,P|376:316|372:348,1,90
256,232,149518,2,0,L|256:328,2,90,8|0|0,0:0|0:0|0:0,0:0:0:0:
344,96,150033,5,0,0:0:0:0:
148,180,150204,1,8,0:0:0:0:
364,180,150376,1,0,0:0:0:0:
168,96,150547,1,0,0:0:0:0:
256,232,150718,1,0,0:0:0:0:
256,52,150890,2,0,L|256:256,1,180,8|0,0:0|0:0,0:0:0:0:
256,192,151318,12,2,153290,0:0:0:0:
256,260,153461,5,0,0:0:0:0:
340,192,153633,1,2,0:0:0:0:
256,124,153804,1,0,0:0:0:0:
172,192,153976,1,4,1:1:0:0:
