osu file format v14

[General]
AudioFilename: sakamoto.mp3
AudioLeadIn: 0
PreviewTime: -1
Countdown: 1
SampleSet: Normal
StackLeniency: 0.2
Mode: 0
LetterboxInBreaks: 1
WidescreenStoryboard: 0

[Editor]
DistanceSpacing: 0.6
BeatDivisor: 4
GridSize: 4
TimelineZoom: 1

[Metadata]
Title:COOLEST
TitleUnicode:COOLEST
Artist:Customi Z
ArtistUnicode:Customi Z
Creator:Spring Roll
Version:o!o!o!o!O!
Source:
Tags:
BeatmapID:989025
BeatmapSetID:461839

[Difficulty]
HPDrainRate:7
CircleSize:4.5
OverallDifficulty:8
ApproachRate:9.8
SliderMultiplier:1.9
SliderTickRate:1

[Events]
//Background and Video events
0,0,"fc170b7be67199ad53ba9f0b92dd7031.jpg",0,0
//Break Periods
//Storyboard Layer 0 (Background)
//Storyboard Layer 1 (Fail)
//Storyboard Layer 2 (Pass)
//Storyboard Layer 3 (Foreground)
//Storyboard Sound Samples

[TimingPoints]
1237,319.148936170213,4,1,1,40,1,0
11130,-200,4,1,1,40,0,0
11449,-100,4,1,1,40,0,0
21343,-66.6666666666667,4,1,1,50,0,0
21662,-100,4,1,1,50,0,0
26768,-200,4,1,1,50,0,0
27088,-100,4,1,1,50,0,0
27407,-200,4,1,1,50,0,0
27726,-100,4,1,1,50,0,0
28045,-200,4,1,1,50,0,0
28364,-100,4,1,1,50,0,0
31875,-133.333333333333,4,1,2,40,0,0
38258,-100,4,1,2,40,0,0
39534,-76.9230769230769,4,1,1,50,0,0
39774,-76.9230769230769,4,1,1,5,0,0
39854,-66.6666666666667,4,1,1,50,0,0
40093,-66.6666666666667,4,1,1,5,0,0
40173,-58.8235294117647,4,1,1,50,0,0
40412,-58.8235294117647,4,1,1,5,0,0
40492,-52.6315789473684,4,1,1,50,0,0
40731,-52.6315789473684,4,1,1,5,0,0
40811,-66.6666666666667,4,1,1,50,0,0
41130,-66.6666666666667,4,1,2,50,0,0
41609,-66.6666666666667,4,1,1,50,0,0
42088,-100,4,1,1,50,0,0
43444,-100,4,1,1,5,0,0
43524,-100,4,1,1,50,0,0
43604,-100,4,1,1,5,0,0
43683,-100,4,1,1,50,0,0
43763,-100,4,1,1,5,0,0
43843,-100,4,1,1,50,0,0
47194,-133.333333333333,4,1,1,40,0,0
52300,-100,4,1,1,50,0,0
53577,-76.9230769230769,4,1,1,70,0,1
56130,-166.666666666667,4,1,1,70,0,1
56449,-76.9230769230769,4,1,1,70,0,1
56768,-166.666666666667,4,1,1,70,0,1
57088,-76.9230769230769,4,1,1,70,0,1
61237,-166.666666666667,4,1,1,70,0,1
61556,-76.9230769230769,4,1,1,70,0,1
61875,-166.666666666667,4,1,1,70,0,1
62194,-76.9230769230769,4,1,1,70,0,1
81662,-100,4,1,1,50,0,0

[HitObjects]
156,108,1237,6,0,L|132:288,1,142.5,4|0,0:0|0:0,0:0:0:0:
112,280,1556,1,0,0:0:0:0:
264,160,1715,1,0,0:0:0:0:
96,196,1875,1,0,0:0:0:0:
236,264,2034,1,0,0:0:0:0:
88,200,2194,1,0,0:0:0:0:
268,188,2354,6,0,B|328:208|384:172|384:172|332:224,1,190
315,305,2832,1,0,0:0:0:0:
469,285,2992,1,0,0:0:0:0:
481,281,3072,1,0,0:0:0:0:
495,275,3151,2,0,B|498:221|498:221|489:195|489:195|493:125,1,142.5
407,151,3471,2,0,P|378:106|336:179,1,142.5,4|0,0:0|0:0,0:0:0:0:
363,226,3790,6,0,B|321:235|321:235|249:222,1,95,4|0,0:0|0:0,0:0:0:0:
226,214,4029,1,0,0:0:0:0:
219,221,4109,1,0,0:0:0:0:
151,293,4268,1,0,0:0:0:0:
139,66,4428,2,0,L|129:169,1,95
112,314,4747,1,0,0:0:0:0:
257,116,4907,1,0,0:0:0:0:
289,282,5066,6,0,L|289:333,1,47.5,8|0,0:0|0:0,0:0:0:0:
268,351,5226,2,0,B|356:336|356:336|394:355|437:336,1,142.5,2|0,0:0|0:0,0:0:0:0:
398,268,5545,2,0,P|346:236|288:292,1,142.5,2|0,0:0|0:0,0:0:0:0:
404,276,5864,2,0,L|405:220,1,47.5,4|0,0:0|0:0,0:0:0:0:
354,72,6024,2,0,L|353:119,1,47.5,8|0,0:0|0:0,0:0:0:0:
284,286,6183,2,0,L|285:230,1,47.5,8|0,0:0|0:0,0:0:0:0:
257,116,6343,6,0,L|135:125,1,95,4|0,0:0|0:0,0:0:0:0:
138,126,6582,1,0,0:0:0:0:
114,129,6662,1,0,0:0:0:0:
56,243,6822,1,0,0:0:0:0:
79,241,6901,1,0,0:0:0:0:
102,239,6981,1,0,0:0:0:0:
247,224,7141,1,0,0:0:0:0:
233,254,7221,1,0,0:0:0:0:
235,286,7300,1,0,0:0:0:0:
250,315,7380,1,0,0:0:0:0:
278,332,7460,1,0,0:0:0:0:
311,335,7540,1,0,0:0:0:0:
342,326,7619,6,0,L|392:315,1,47.5
458,201,7779,2,0,L|411:211,1,47.5
300,152,7939,2,0,L|253:162,1,47.5
327,47,8098,2,0,L|373:36,1,47.5
458,201,8258,1,0,0:0:0:0:
477,227,8338,1,0,0:0:0:0:
479,259,8417,1,0,0:0:0:0:
463,288,8497,1,0,0:0:0:0:
434,305,8577,1,0,0:0:0:0:
400,302,8657,1,0,0:0:0:0:
373,281,8737,1,0,0:0:0:0:
360,250,8816,1,0,0:0:0:0:
368,217,8896,5,4,0:0:0:0:
447,97,9056,1,0,0:0:0:0:
456,107,9135,1,0,0:0:0:0:
465,117,9215,1,0,0:0:0:0:
322,122,9375,2,0,B|274:134|274:134|238:118|238:118|178:153|127:118,1,190,4|0,0:0|0:0,0:0:0:0:
112,110,9774,1,0,0:0:0:0:
112,110,9854,1,0,0:0:0:0:
231,233,10013,5,2,0:0:0:0:
240,260,10093,1,0,0:0:0:0:
233,287,10173,1,0,0:0:0:0:
212,306,10252,1,0,0:0:0:0:
184,313,10332,1,0,0:0:0:0:
157,302,10412,1,0,0:0:0:0:
141,277,10492,2,0,B|128:348|128:348|119:229,1,190,4|4,0:0|0:0,0:0:0:0:
112,110,10971,5,0,0:0:0:0:
113,119,11050,1,0,0:0:0:0:
115,128,11130,2,0,L|201:119,1,71.25,8|0,0:0|0:0,0:0:0:0:
324,71,11449,6,0,P|392:77|346:179,1,190,4|8,0:0|0:0,0:0:0:0:
287,217,11928,1,0,0:0:0:0:
450,122,12088,1,0,0:0:0:0:
385,278,12247,1,0,0:0:0:0:
368,172,12407,1,8,0:0:0:0:
474,335,12566,1,0,0:0:0:0:
450,122,12726,5,0,0:0:0:0:
308,335,12885,1,0,0:0:0:0:
475,228,13045,1,8,0:0:0:0:
299,137,13205,1,0,0:0:0:0:
308,335,13364,1,0,0:0:0:0:
232,276,13524,2,0,L|138:286,1,95,0|10,0:0|0:0,0:0:0:0:
65,328,13843,1,0,0:0:0:0:
232,276,14002,6,0,P|302:255|276:157,1,190,2|8,0:0|0:0,0:0:0:0:
137,95,14481,1,0,0:0:0:0:
132,280,14641,1,0,0:0:0:0:
230,64,14800,1,0,0:0:0:0:
75,200,14960,1,8,0:0:0:0:
284,182,15119,1,0,0:0:0:0:
137,95,15279,5,0,0:0:0:0:
302,318,15439,1,0,0:0:0:0:
343,64,15598,1,8,0:0:0:0:
132,280,15758,1,0,0:0:0:0:
400,217,15917,2,0,P|460:198|401:117,1,190,2|10,0:0|0:0,0:0:0:0:
330,149,16396,1,0,0:0:0:0:
387,217,16556,6,0,P|426:246|459:144,1,190,2|8,0:0|0:0,0:0:0:0:
343,64,17034,1,0,0:0:0:0:
270,252,17194,1,0,0:0:0:0:
203,109,17354,1,0,0:0:0:0:
374,302,17513,1,8,0:0:0:0:
128,176,17673,1,0,0:0:0:0:
330,149,17832,5,0,0:0:0:0:
128,289,17992,1,0,0:0:0:0:
245,37,18151,1,8,0:0:0:0:
272,277,18311,1,0,0:0:0:0:
114,84,18471,1,0,0:0:0:0:
402,206,18630,1,0,0:0:0:0:
128,176,18790,1,10,0:0:0:0:
330,149,18949,1,0,0:0:0:0:
254,196,19109,6,0,B|235:326|235:326|217:247,1,190,2|8,0:0|0:0,0:0:0:0:
203,109,19588,1,0,0:0:0:0:
363,222,19747,1,0,0:0:0:0:
128,176,19907,1,0,0:0:0:0:
402,206,20066,1,8,0:0:0:0:
117,176,20226,1,0,0:0:0:0:
445,189,20385,5,0,0:0:0:0:
108,176,20545,2,0,L|103:282,1,95,0|8,0:0|0:0,0:0:0:0:
159,343,20864,1,0,0:0:0:0:
279,67,21024,1,2,0:0:0:0:
339,339,21183,1,0,0:0:0:0:
205,122,21343,6,0,L|452:98,1,213.750008153916,10|0,0:0|0:0,0:0:0:0:
200,140,21662,6,0,L|397:119,1,190,4|8,0:0|0:0,0:0:0:0:
115,67,22141,1,0,0:0:0:0:
200,229,22300,2,0,L|315:216,1,95
417,288,22619,1,8,0:0:0:0:
140,327,22779,6,0,P|75:296|86:177,1,190
208,100,23258,1,8,0:0:0:0:
252,298,23417,1,0,0:0:0:0:
315,143,23577,1,0,0:0:0:0:
246,315,23737,1,0,0:0:0:0:
377,245,23896,2,0,B|402:281|402:281|426:171,1,142.5,8|0,0:0|0:0,0:0:0:0:
450,95,24215,5,0,0:0:0:0:
512,246,24375,1,0,0:0:0:0:
311,163,24534,1,8,0:0:0:0:
429,179,24694,1,0,0:0:0:0:
254,231,24854,1,0,0:0:0:0:
439,175,25013,1,0,0:0:0:0:
219,314,25173,1,8,0:0:0:0:
105,177,25332,6,0,B|121:116|121:116|185:161|153:243,1,190
39,239,25811,1,8,0:0:0:0:
232,345,25971,1,0,0:0:0:0:
412,191,26130,1,0,0:0:0:0:
402,188,26210,1,0,0:0:0:0:
392,185,26290,1,0,0:0:0:0:
382,182,26369,1,0,0:0:0:0:
372,179,26449,2,0,L|517:156,1,142.5,8|0,0:0|0:0,0:0:0:0:
426,267,26768,6,0,P|432:302|429:344,1,71.25,6|0,0:0|0:0,0:0:0:0:
286,221,27088,6,0,B|278:163|278:163|286:136|286:136|277:67,1,142.5,2|0,0:0|0:0,0:0:0:0:
154,234,27407,6,0,B|151:273|151:273|160:308,1,71.25,2|0,0:0|0:0,0:0:0:0:
43,141,27726,6,0,L|206:125,1,142.5,2|0,0:0|0:0,0:0:0:0:
337,113,28045,6,0,P|285:107|266:94,1,71.25,2|0,0:0|0:0,0:0:0:0:
424,202,28364,6,0,B|374:216|374:216|333:209|333:209|264:225,1,142.5,2|0,0:0|0:0,0:0:0:0:
235,297,28683,2,0,P|167:321|157:251,1,142.5,2|0,0:0|0:0,0:0:0:0:
54,233,29002,1,0,0:0:0:0:
64,217,29082,1,0,0:0:0:0:
74,201,29162,1,0,0:0:0:0:
84,185,29242,1,0,0:0:0:0:
94,168,29322,6,0,L|222:172,1,95,4|0,0:0|0:0,0:0:0:0:
345,180,29641,1,8,0:0:0:0:
205,83,29800,1,0,0:0:0:0:
222,75,29880,1,0,0:0:0:0:
239,67,29960,1,0,0:0:0:0:
271,262,30119,1,4,0:3:0:0:
376,38,30279,1,12,0:3:0:0:
450,167,30439,6,0,P|468:237|393:182,1,190,4|0,0:0|0:0,0:0:0:0:
228,280,30917,2,0,L|243:171,1,95,8|0,0:0|0:0,0:0:0:0:
244,162,31157,1,0,0:0:0:0:
247,138,31237,1,0,0:0:0:0:
96,204,31396,1,0,0:0:0:0:
92,227,31476,1,0,0:0:0:0:
88,250,31556,1,0,0:0:0:0:
228,280,31715,1,0,0:0:0:0:
84,273,31875,6,0,P|52:218|69:138,1,142.500005435944,2|0,0:0|0:0,0:0:0:0:
137,84,32354,1,0,0:0:0:0:
184,163,32513,2,0,B|252:184|252:184|323:161,1,142.500005435944,8|0,0:0|0:0,0:0:0:0:
370,83,32992,1,0,0:0:0:0:
370,83,33311,5,0,0:0:0:0:
451,126,33471,1,0,0:0:0:0:
435,216,33630,1,0,0:0:0:0:
352,174,33790,2,0,L|333:250,1,71.2500027179719,8|0,0:0|0:0,0:0:0:0:
312,333,34109,1,0,0:0:0:0:
242,272,34268,1,0,0:0:0:0:
175,337,34428,6,0,L|96:329,1,71.2500027179719,2|0,0:0|0:0,0:0:0:0:
62,246,34747,2,0,L|145:238,1,71.2500027179719
191,167,35066,1,8,0:0:0:0:
100,145,35226,2,0,P|94:100|96:68,1,71.2500027179719
179,34,35545,1,0,0:0:0:0:
253,88,35705,6,0,L|348:95,1,71.2500027179719
412,66,36024,1,0,0:0:0:0:
412,66,36343,1,4,0:0:0:0:
390,155,36502,1,4,0:0:0:0:
457,218,36662,1,4,0:0:0:0:
435,307,36821,1,0,0:0:0:0:
362,249,36981,6,0,B|310:262|310:262|203:242,1,142.500005435944,2|0,0:0|0:0,0:0:0:0:
151,305,37460,1,0,0:0:0:0:
80,245,37619,2,0,P|39:193|70:105,1,142.500005435944,8|0,0:0|0:0,0:0:0:0:
116,55,38098,1,0,0:0:0:0:
243,84,38258,6,0,P|297:176|263:256,1,190,4|0,0:0|0:0,0:0:0:0:
151,305,38737,1,0,0:0:0:0:
297,345,38896,2,0,B|397:343|397:343|456:252,1,190,8|0,0:0|0:0,0:0:0:0:
489,129,39375,1,0,0:0:0:0:
345,93,39534,6,0,P|281:116|346:96,1,213.750008153916
347,97,39854,6,0,P|270:111|345:93,1,246.999988693238
342,89,40173,6,0,P|268:146|347:97,1,285.000010871888
346,96,40492,6,0,P|255:149|342:89,1,323.000006160736
341,87,40811,6,0,P|104:228|346:96,1,855.000032615663
189,132,41928,1,0,0:0:0:0:
300,197,42088,6,0,L|421:186,1,95,4|0,0:0|0:0,0:0:0:0:
281,323,42407,1,8,0:0:0:0:
327,107,42566,1,0,0:0:0:0:
445,276,42726,2,0,B|457:329|457:329|452:371,1,95
217,256,43045,1,8,0:0:0:0:
417,175,43205,1,0,0:0:0:0:
281,323,43364,6,0,L|216:320,1,47.5
57,264,43524,2,0,L|104:266,1,47.5
263,188,43683,2,0,L|198:185,1,47.5,8|0,0:0|0:0,0:0:0:0:
67,134,43843,2,0,B|74:95|112:74|112:74|164:94|164:94|203:81|250:94,1,190
417,175,44322,1,8,0:0:0:0:
332,45,44481,1,0,0:0:0:0:
284,173,44641,6,0,L|290:269,1,95
219,88,44960,1,8,0:0:0:0:
417,175,45119,1,0,0:0:0:0:
180,239,45279,2,0,P|127:245|79:236,1,95
154,156,45598,1,8,0:0:0:0:
239,365,45758,1,0,0:0:0:0:
434,265,45917,6,0,B|441:218|441:218|431:162,1,95
353,56,46237,1,8,0:0:0:0:
337,67,46316,1,0,0:0:0:0:
321,78,46396,1,0,0:0:0:0:
305,89,46476,1,0,0:0:0:0:
289,99,46556,2,0,P|281:154|290:202,1,95
170,340,46875,2,0,P|185:270|165:177,1,142.5,8|0,0:0|0:0,0:0:0:0:
60,104,47194,6,0,B|125:122|125:122|160:102|206:112,1,142.500005435944,4|0,0:0|0:0,0:0:0:0:
257,240,47673,1,0,0:0:0:0:
344,145,47832,2,0,P|358:99|351:53,1,71.2500027179719
394,226,48151,1,4,0:0:0:0:
223,132,48311,1,0,0:0:0:0:
433,131,48471,6,0,P|494:129|513:132,1,71.2500027179719,4|0,0:0|0:0,0:0:0:0:
328,298,48790,1,0,0:0:0:0:
344,145,48949,1,0,0:0:0:0:
471,266,49109,2,0,P|477:303|473:344,1,71.2500027179719
236,346,49428,1,0,0:0:0:0:
222,329,49508,1,0,0:0:0:0:
208,312,49588,1,0,0:0:0:0:
194,295,49667,1,0,0:0:0:0:
180,278,49747,6,0,L|259:268,1,71.2500027179719,4|0,0:0|0:0,0:0:0:0:
71,237,50066,2,0,P|68:282|71:317,1,71.2500027179719
157,147,50385,2,0,P|160:102|157:67,1,71.2500027179719
229,200,50705,1,0,0:0:0:0:
46,129,50864,1,0,0:0:0:0:
272,98,51024,6,0,L|335:95,1,35.625001358986
465,148,51183,2,0,L|429:149,1,35.625001358986,2|0,0:0|0:0,0:0:0:0:
262,233,51343,2,0,L|226:234,1,35.625001358986
57,185,51502,2,0,L|92:183,1,35.625001358986,2|0,0:0|0:0,0:0:0:0:
376,180,51662,1,0,0:0:0:0:
154,354,51822,1,2,0:0:0:0:
242,11,51981,1,2,0:0:0:0:
364,371,52141,1,2,0:0:0:0:
154,148,52300,6,0,P|195:85|223:170,1,190,6|0,0:0|0:0,0:0:0:0:
89,272,52779,1,0,0:0:0:0:
279,277,52939,1,0,0:0:0:0:
297,309,53018,1,0,0:0:0:0:
333,319,53098,1,0,0:0:0:0:
370,313,53178,1,0,0:0:0:0:
400,290,53258,1,0,0:0:0:0:
413,254,53338,1,0,0:0:0:0:
404,217,53417,1,0,0:0:0:0:
377,189,53497,1,0,0:0:0:0:
339,182,53577,6,0,L|364:60,1,123.499994346619,6|0,0:0|0:0,0:0:0:0:
279,277,53896,1,8,0:0:0:0:
214,64,54056,2,0,P|156:147|197:295,1,246.999988693238,6|0,0:0|0:0,0:0:0:0:
370,313,54534,1,10,0:0:0:0:
120,229,54694,1,2,0:0:0:0:
306,167,54854,6,0,L|436:158,1,123.499994346619,2|0,0:0|0:0,0:0:0:0:
279,277,55173,1,8,0:0:0:0:
100,154,55332,2,0,P|137:68|197:170,1,246.999988693238,2|0,0:0|0:0,0:0:0:0:
19,222,55811,1,10,0:0:0:0:
217,357,55971,1,2,0:0:0:0:
427,276,56130,6,0,L|446:178,1,85.4999973907472,4|0,0:0|0:0,0:0:0:0:
487,112,56449,6,0,B|392:82|392:82|355:119|277:114,1,185.249991519928,10|0,0:0|0:0,0:0:0:0:
225,68,56768,6,0,L|208:151,1,85.4999973907472,4|0,0:0|0:0,0:0:0:0:
186,244,57088,1,10,0:0:0:0:
69,41,57247,1,0,0:0:0:0:
21,318,57407,5,4,0:0:0:0:
148,115,57566,1,0,0:0:0:0:
120,148,57646,1,0,0:0:0:0:
92,181,57726,1,10,0:0:0:0:
272,303,57885,1,2,0:0:0:0:
426,169,58045,2,0,P|405:93|370:197,1,246.999988693238,2|10,0:0|0:0,0:0:0:0:
359,217,58444,1,0,0:0:0:0:
349,259,58524,1,0,0:0:0:0:
310,279,58604,1,0,0:0:0:0:
268,270,58683,6,0,L|412:260,1,123.499994346619,6|0,0:0|0:0,0:0:0:0:
217,185,59002,1,8,0:0:0:0:
145,288,59162,2,0,P|50:283|39:141,1,246.999988693238,6|0,0:0|0:0,0:0:0:0:
189,53,59641,1,10,0:0:0:0:
110,203,59800,1,2,0:0:0:0:
311,209,59960,6,0,B|335:175|335:175|316:84,1,123.499994346619,2|0,0:0|0:0,0:0:0:0:
227,292,60279,1,8,0:0:0:0:
470,291,60439,2,0,P|356:310|208:285,1,246.999988693238,2|0,0:0|0:0,0:0:0:0:
104,130,60917,1,10,0:0:0:0:
35,329,61077,1,2,0:0:0:0:
216,184,61237,6,0,L|228:90,1,85.4999973907472,4|0,0:0|0:0,0:0:0:0:
225,17,61556,6,0,B|326:38|326:38|346:66|346:66|425:79,1,185.249991519928,10|0,0:0|0:0,0:0:0:0:
484,54,61875,6,0,L|473:138,1,85.4999973907472,4|0,0:0|0:0,0:0:0:0:
458,269,62194,1,10,0:0:0:0:
248,118,62354,1,0,0:0:0:0:
484,54,62513,5,4,0:0:0:0:
371,208,62673,1,0,0:0:0:0:
331,224,62752,1,0,0:0:0:0:
290,240,62832,1,10,0:0:0:0:
225,20,62992,1,2,0:0:0:0:
77,197,63151,1,0,0:0:0:0:
71,240,63231,1,0,0:0:0:0:
91,278,63311,1,0,0:0:0:0:
130,295,63391,1,0,0:0:0:0:
172,289,63471,1,8,0:0:0:0:
204,261,63550,1,0,0:0:0:0:
212,218,63630,1,0,0:0:0:0:
193,178,63710,1,0,0:0:0:0:
153,158,63790,6,0,L|293:149,1,123.499994346619,6|0,0:0|0:0,0:0:0:0:
146,57,64109,1,8,0:0:0:0:
308,234,64268,2,0,P|405:227|351:94,1,246.999988693238,6|0,0:0|0:0,0:0:0:0:
295,330,64747,1,10,0:0:0:0:
254,94,64907,1,2,0:0:0:0:
172,289,65066,5,2,0:0:0:0:
378,149,65226,1,0,0:0:0:0:
129,171,65385,1,8,0:0:0:0:
392,141,65545,2,0,L|396:267,1,123.499994346619,2|0,0:0|0:0,0:0:0:0:
172,289,65864,1,0,0:0:0:0:
386,247,66024,1,10,0:0:0:0:
129,171,66183,1,2,0:0:0:0:
344,54,66343,5,4,0:0:0:0:
344,54,66423,1,0,0:0:0:0:
344,54,66502,1,0,0:0:0:0:
303,320,66662,2,0,B|294:283|294:283|308:241|308:241|299:191,1,123.499994346619,10|0,0:0|0:0,0:0:0:0:
410,338,66981,1,4,0:0:0:0:
410,338,67061,1,0,0:0:0:0:
410,338,67141,1,0,0:0:0:0:
95,245,67300,2,0,L|237:228,1,123.499994346619,10|0,0:0|0:0,0:0:0:0:
425,208,67619,5,4,0:0:0:0:
193,203,67779,1,0,0:0:0:0:
425,208,67939,1,10,0:0:0:0:
162,324,68098,1,2,0:0:0:0:
425,208,68258,1,0,0:0:0:0:
452,174,68338,1,0,0:0:0:0:
445,131,68417,1,0,0:0:0:0:
411,103,68497,1,0,0:0:0:0:
368,95,68577,1,8,0:0:0:0:
329,115,68657,1,0,0:0:0:0:
293,139,68737,1,0,0:0:0:0:
250,137,68816,1,0,0:0:0:0:
213,113,68896,6,0,L|219:241,1,123.499994346619,6|0,0:0|0:0,0:0:0:0:
270,40,69215,1,8,0:0:0:0:
127,238,69375,2,0,B|95:316|95:316|80:155,1,246.999988693238,6|0,0:0|0:0,0:0:0:0:
293,139,69854,1,10,0:0:0:0:
127,238,70013,1,2,0:0:0:0:
285,270,70173,6,0,L|412:255,1,123.499994346619,2|0,0:0|0:0,0:0:0:0:
246,366,70492,1,8,0:0:0:0:
205,188,70651,2,0,P|195:132|204:57,1,123.499994346619,2|0,0:0|0:0,0:0:0:0:
285,270,70971,1,0,0:0:0:0:
127,238,71130,1,10,0:0:0:0:
293,139,71290,1,2,0:0:0:0:
400,318,71449,5,4,0:0:0:0:
400,318,71529,1,0,0:0:0:0:
400,318,71609,1,0,0:0:0:0:
235,61,71768,2,0,L|228:204,1,123.499994346619,10|0,0:0|0:0,0:0:0:0:
117,320,72088,1,4,0:0:0:0:
117,320,72167,1,0,0:0:0:0:
117,320,72247,1,0,0:0:0:0:
413,141,72407,2,0,P|359:128|285:142,1,123.499994346619,10|0,0:0|0:0,0:0:0:0:
252,352,72726,6,0,L|245:222,1,123.499994346619,4|0,0:0|0:0,0:0:0:0:
174,164,72965,1,0,0:0:0:0:
138,191,73045,2,0,L|65:203,2,61.7499971733095,10|0|2,0:0|0:0|0:0,0:0:0:0:
286,86,73364,1,0,0:0:0:0:
307,123,73444,1,0,0:0:0:0:
343,146,73524,1,0,0:0:0:0:
385,152,73604,1,0,0:0:0:0:
423,134,73683,1,8,0:3:0:0:
448,169,73763,1,8,0:3:0:0:
452,212,73843,1,4,0:3:0:0:
436,252,73923,1,4,0:3:0:0:
402,278,74002,6,0,B|361:315|301:302|301:302|262:260|262:260|168:268,1,246.999988693238,4|10,0:0|0:0,0:0:0:0:
231,358,74481,1,2,0:0:0:0:
365,64,74641,2,0,L|358:193,1,123.499994346619
109,149,74960,2,0,P|172:138|239:160,1,123.499994346619,10|0,0:0|0:0,0:0:0:0:
326,330,75279,5,6,0:0:0:0:
98,274,75439,1,0,0:0:0:0:
155,46,75598,1,10,0:0:0:0:
382,103,75758,1,0,0:0:0:0:
188,338,75917,1,2,0:0:0:0:
311,27,76077,1,0,0:0:0:0:
425,308,76237,1,10,0:0:0:0:
453,295,76556,6,0,B|426:271|439:228|439:228|481:206|481:206|491:163|459:117,1,185.249991519928,6|0,0:0|0:0,0:0:0:0:
368,158,76875,2,0,P|355:120|386:72,1,61.7499971733095,10|0,0:0|0:0,0:0:0:0:
341,253,77034,2,0,B|296:231|246:241|246:241|212:313,1,123.499994346619,2|2,0:0|0:0,0:0:0:0:
294,338,77354,1,2,0:0:0:0:
205,158,77513,2,0,L|207:239,1,61.7499971733095,8|0,0:0|0:0,0:0:0:0:
122,329,77673,2,0,L|120:267,1,61.7499971733095
110,44,77832,5,2,0:0:0:0:
474,92,77992,1,0,0:0:0:0:
52,154,78151,1,10,0:0:0:0:
469,173,78311,1,0,0:0:0:0:
4,274,78471,1,2,0:0:0:0:
463,255,78630,1,0,0:0:0:0:
225,342,78790,1,10,0:0:0:0:
196,310,78869,1,0,0:0:0:0:
184,268,78949,1,0,0:0:0:0:
189,224,79029,1,0,0:0:0:0:
214,189,79109,6,0,B|212:153|212:153|228:125|228:125|225:61,1,123.499994346619,4|0,0:0|0:0,0:0:0:0:
306,258,79428,1,8,0:0:0:0:
94,100,79588,1,0,0:0:0:0:
355,179,79747,1,2,0:0:0:0:
68,215,79907,1,2,0:0:0:0:
308,27,80066,1,10,0:0:0:0:
384,311,80226,1,0,0:0:0:0:
68,215,80385,5,4,0:0:0:0:
231,126,80545,1,0,0:0:0:0:
274,127,80625,1,0,0:0:0:0:
311,149,80705,1,8,0:0:0:0:
327,188,80784,1,0,0:0:0:0:
321,231,80864,1,0,0:0:0:0:
292,263,80944,1,0,0:0:0:0:
249,272,81024,1,2,0:0:0:0:
142,155,81183,1,0,0:0:0:0:
420,116,81343,1,10,0:0:0:0:
303,346,81502,1,0,0:0:0:0:
123,108,81662,6,0,L|106:233,1,95,4|0,0:0|0:0,0:0:0:0:
64,292,81981,1,0,0:0:0:0:
268,180,82141,1,0,0:0:0:0:
309,273,82300,2,0,B|357:288|357:288|413:269,1,95
509,269,82619,1,0,0:0:0:0:
206,347,82779,1,0,0:0:0:0:
206,347,82859,1,0,0:0:0:0:
206,347,82939,5,0,0:0:0:0:
281,74,83098,1,0,0:0:0:0:
333,357,83258,1,0,0:0:0:0:
41,262,83417,1,0,0:0:0:0:
41,262,83737,1,0,0:0:0:0:
57,253,83816,1,0,0:0:0:0:
74,244,83896,1,4,0:0:0:0:
74,244,84215,5,0,0:0:0:0:
127,75,84375,1,0,0:0:0:0:
127,75,84455,1,0,0:0:0:0:
127,75,84534,1,0,0:0:0:0:
146,307,84694,1,4,0:0:0:0:
244,63,84854,1,0,0:0:0:0:
244,63,84933,1,0,0:0:0:0:
244,63,85013,1,0,0:0:0:0:
250,341,85173,1,0,0:0:0:0:
250,341,85252,1,0,0:0:0:0:
250,341,85332,1,4,0:0:0:0:
314,164,85492,5,0,0:0:0:0:
196,233,85651,1,8,0:0:0:0:
463,211,85811,1,8,0:0:0:0:
49,173,85971,1,8,0:0:0:0:
302,254,86130,1,0,0:0:0:0:
323,273,86210,1,0,0:0:0:0:
351,276,86290,1,0,0:0:0:0:
378,268,86369,1,0,0:0:0:0:
398,247,86449,1,0,0:0:0:0:
405,219,86529,1,0,0:0:0:0:
396,191,86609,1,0,0:0:0:0:
374,171,86689,1,0,0:0:0:0:
346,165,86768,5,8,0:0:0:0:
201,331,86928,1,0,0:0:0:0:
201,331,87008,1,0,0:0:0:0:
201,331,87088,1,8,0:0:0:0:
256,58,87247,1,4,0:0:0:0:
