osu file format v9

[General]
AudioFilename: blue water[cut].mp3
AudioLeadIn: 0
PreviewTime: 150699
Countdown: 0
SampleSet: Normal
StackLeniency: 0.7
Mode: 0
LetterboxInBreaks: 1

[Editor]
DistanceSpacing: 1.1
BeatDivisor: 4
GridSize: 8

[Metadata]
Title:Clear Blue Water
Artist:Current Value feat. Saiba
Creator:La Cataline
Version:Normal
Source:
Tags:drum and bass dnb oceanlab

[Difficulty]
HPDrainRate:4
CircleSize:3
OverallDifficulty:4
ApproachRate:4
SliderMultiplier:1
SliderTickRate:1

[Events]
//Background and Video events
0,0,"bgpic.jpg"
//Break Periods
2,86899,107379
//Storyboard Layer 0 (Background)
//Storyboard Layer 1 (Fail)
//Storyboard Layer 2 (Pass)
//Storyboard Layer 3 (Foreground)
//Storyboard Sound Samples
//Background Colour Transformations
3,100,163,162,255

[TimingPoints]
33366,333.333333333333,4,2,0,79,1,0
44032,-100,4,2,0,79,0,0
59949,-100,4,1,0,79,0,0
60116,-100,4,2,0,79,0,0
62616,-100,4,1,0,79,0,0
62782,-100,4,2,0,79,0,0
65282,-100,4,1,0,79,0,0
65449,-100,4,2,0,79,0,0
66699,-100,4,1,0,79,0,0
66782,-100,4,2,0,79,0,0
68032,-100,4,1,0,79,0,0
68116,-100,4,2,0,79,0,0
69366,-100,4,1,0,79,0,0
69449,-100,4,2,0,79,0,0
70616,-100,4,1,0,79,0,0
70782,-100,4,2,0,79,0,0
73366,-100,4,1,0,79,0,0
73449,-100,4,2,0,79,0,0
76032,-100,4,1,0,79,0,0
76116,-100,4,2,0,79,0,0
77282,-100,4,1,0,79,0,0
77449,-100,4,2,0,79,0,0
78699,-100,4,1,0,79,0,0
78782,-100,4,2,0,79,0,0
80032,-100,4,1,0,79,0,0
80116,-100,4,2,0,79,0,0
81366,-100,4,1,0,79,0,0
81532,-100,4,2,0,79,0,0
86616,-100,4,2,0,0,0,0
108032,-200,4,2,0,47,0,0
129365,-142.857142857143,4,2,0,0,0,0
129449,-142.857142857143,4,2,0,60,0,0
150699,-100,4,1,1,79,0,1
150782,-100,4,1,1,79,0,0
158699,-100,4,2,0,79,0,1
161365,-100,4,2,0,79,0,0
161532,-100,4,1,1,79,0,0
162282,-100,4,2,1,79,0,0
162449,-100,4,1,1,79,0,0
164949,-100,4,2,1,79,0,0
165365,-100,4,1,1,79,0,0
167615,-100,4,2,1,79,0,0
167782,-100,4,1,1,79,0,0
168949,-100,4,2,1,79,0,0
169365,-100,4,2,0,79,0,1
169782,-100,4,1,1,79,0,1
170532,-100,4,2,0,79,0,1
171115,-100,4,1,1,79,0,1
172032,-100,4,2,0,90,0,0
172282,-100,4,1,1,90,0,0
172449,-100,4,2,0,90,0,0
172782,-100,4,1,1,90,0,0
172949,-100,4,2,0,90,0,0
173615,-100,4,1,0,90,0,0
173782,-100,4,2,0,90,0,0
174115,-100,4,1,0,90,0,0
174282,-100,4,2,0,90,0,0
174949,-100,4,1,0,90,0,0
175115,-100,4,2,0,90,0,0
175449,-100,4,1,0,90,0,0
175615,-100,4,2,0,90,0,0
176282,-100,4,1,0,90,0,0
176449,-100,4,2,0,90,0,0
176782,-100,4,1,0,90,0,0
176949,-100,4,2,0,90,0,0
177615,-100,4,1,0,90,0,0
177782,-100,4,2,0,90,0,0
178115,-100,4,1,0,90,0,0
178282,-100,4,2,0,90,0,0
178949,-100,4,1,0,90,0,0
179115,-100,4,2,0,90,0,0
179449,-100,4,1,0,90,0,0
179615,-100,4,2,0,90,0,0
180032,-100,4,2,0,90,0,1
180282,-100,4,1,0,90,0,1
180449,-100,4,2,0,90,0,1
181615,-100,4,1,0,90,0,1
181782,-100,4,2,0,90,0,1
182699,-100,4,2,0,90,0,0
182949,-100,4,1,0,90,0,0
183115,-100,4,2,0,90,0,0
183449,-100,4,1,0,90,0,0
183615,-100,4,2,0,90,0,0
184282,-100,4,1,0,90,0,0
184449,-100,4,2,0,90,0,0
184782,-100,4,1,0,90,0,0
184949,-100,4,2,0,90,0,0
185615,-100,4,1,0,90,0,0
185782,-100,4,2,0,90,0,0
186115,-100,4,1,0,90,0,0
186282,-100,4,2,0,90,0,0
186949,-100,4,1,0,90,0,0
187115,-100,4,2,0,90,0,0
188282,-100,4,1,0,90,0,0
188449,-100,4,2,0,90,0,0
188782,-100,4,1,0,90,0,0
188949,-100,4,2,0,90,0,0
189615,-100,4,1,0,90,0,0
189782,-100,4,2,0,90,0,0
190115,-100,4,1,0,90,0,0
190282,-100,4,2,0,90,0,0
190615,-100,4,1,0,90,0,0
190699,-100,4,1,0,90,0,1
190865,-100,4,1,0,90,0,0

[Colours]
Combo1 : 128,128,192
Combo2 : 102,205,255
Combo3 : 175,88,145

[HitObjects]
108,88,60032,2,0,B|64:124|92:196,1,100,0|2
184,152,60699,2,0,B|212:284|108:340,1,200
224,356,61699,1,2
125,329,62032,2,0,B|16:328,2,100
224,356,63032,5,2
320,332,63366,2,0,B|429:330,2,100
224,356,64366,1,2
248,260,64699,2,0,B|200:152|284:60,1,200
364,120,65699,6,0,B|320:148|332:224,1,100,2|0
396,284,66366,2,0,B|440:256|428:180,1,100
429,195,67032,1,8
364,120,67366,2,0,B|148:120,1,200
164,120,68366,6,0,B|208:148|196:224,1,100,2|0
132,284,69033,2,0,B|88:256|100:180,1,100
98,195,69699,1,8
164,120,70033,2,0,B|380:120,1,200
312,208,71032,6,0,B|420:208,1,100,2|0
360,296,71699,2,0,B|468:296,2,100,0|0|8
260,296,72699,2,0,B|56:296,1,200
100,204,73699,6,0,B|216:204,1,100,2|0
160,112,74366,2,0,B|256:64|356:112,1,200,0|8
412,204,75366,2,0,B|296:204,2,100
244,312,76699,5,2
144,296,77032,1,2
44,276,77366,1,0
212,168,78032,2,0,B|112:148,2,100,0|2|0
332,328,79366,6,0,B|432:348,2,100,2|2|0
212,168,80699,1,0
312,184,81032,1,2
412,204,81366,1,0
412,204,82699,1,0
256,192,84032,12,0,86699
256,192,108699,5,2
296,220,109032,1,0
336,248,109365,2,0,B|420:248,2,75,0|2|4
234,248,112032,2,0,B|84:248,1,150,2|0
256,132,114365,5,2
256,68,114699,2,0,B|292:56|332:68,1,75,0|2
256,132,115699,2,0,B|204:148|148:128,1,100
256,92,119365,5,2
256,148,119699,1,0
256,204,120032,2,0,B|256:288,2,75,2|0|4
152,320,122699,6,0,B|255:327|356:320,1,200,2|0
256,188,125032,1,2
296,152,125365,2,0,B|216:152,1,75,0|2
208,72,126365,2,0,B|312:72,1,100,0|2
256,192,127365,12,0,129365
72,200,130032,6,0,B|64:92|220:48|276:144,1,279.99999332428,2|0
280,224,131699,1,0
352,176,132032,2,0,B|432:200|471:132,1,139.99999666214,2|2
414,274,133365,2,0,B|334:250|295:318,1,139.99999666214,0|2
217,318,134365,2,0,B|177:249|97:273,1,139.99999666214,0|2
206,164,135699,5,2
206,164,136032,2,0,B|318:164,1,104.999997496605,0|2
328,48,137032,2,0,B|176:48,1,139.99999666214,0|2
80,128,140699,6,0,B|28:172,2,69.99999833107,2|0|0
144,84,141699,2,0,B|200:44,2,69.99999833107,2|0|0
156,160,142699,2,0,B|188:224|284:220,1,139.99999666214,2|2
372,340,144032,6,0,B|480:348|524:192|428:136,1,279.99999332428,0|2
288,88,146032,1,2
240,148,146365,1,0
212,76,146699,2,4,B|104:68|60:224|156:280,1,279.99999332428,2|4
256,192,148199,12,0,150699
256,192,151032,6,0,B|288:240|256:288,1,100,8|0
258,285,151532,2,0,B|95:286,1,150,0|0
108,175,152365,2,0,B|76:127|108:79,1,100,8|0
107,81,152865,2,0,B|270:81,1,150
367,81,153699,6,0,B|367:187,1,100,8|0
365,236,154199,2,0,B|309:236|269:188|213:188,1,150,8|0
224,299,155032,2,0,B|179:300|139:252|83:252,2,150,8|8|0
320,240,156365,6,0,B|346:323|290:395,2,150,8|8|0
216,192,157699,2,0,B|190:109|246:37,2,150,8|8|4
160,288,159032,6,4,B|208:304|258:286,1,100
374,290,159699,2,4,B|358:242|376:192,1,100
426,94,160366,2,4,B|378:78|328:96,1,100
217,93,161032,2,4,B|234:142|216:192,1,100
168,296,161699,6,0,B|246:358|326:310,1,150,8|8
358,294,162365,1,2
262,246,162699,1,0
310,150,163032,2,0,B|206:150,1,100,8|0
185,101,163532,2,0,B|345:101,1,150,8|0
440,128,164365,6,0,B|392:200|432:272,1,150,8|8
431,269,165032,2,0,B|312:272,1,100,2|0
232,320,165699,2,0,B|208:271|232:223,1,100,8|0
283,200,166199,2,0,B|241:263|281:343,1,150,8|0
360,272,167032,2,0,B|403:208|363:128,1,150,8|8
363,129,167699,1,2
256,104,168032,1,0
283,200,168365,2,0,B|241:263|281:343,1,150,8|8
281,342,169032,1,2
171,342,169365,6,0,B|54:341,1,100,4|4
72,341,169865,2,0,B|92:286|60:238,1,100,0|8
163,111,170699,2,0,B|281:111,1,100,4|4
263,111,171199,2,0,B|244:165|276:213,1,100,0|8
272,207,171699,1,8
360,144,172032,5,4
448,216,172365,2,0,B|496:144|440:64,1,150
448,75,173032,1,2
360,144,173365,1,4
256,176,173699,2,0,B|208:248|264:328,1,150
257,316,174366,1,2
344,248,174699,5,4
256,176,175032,2,0,B|184:128|104:184,1,150
116,177,175699,1,2
32,248,176032,1,4
32,248,176365,2,0,B|-16:176|40:96,2,150,0|0|4
144,232,177699,6,0,B|296:216,1,150,0|0
294,216,178365,2,0,B|284:113,1,100,2|4
176,128,179032,2,0,B|25:143,1,150
26,144,179698,2,2,B|37:246,1,100,2|4
112,320,180365,6,0,B|160:328|224:312,1,100,0|4
320,304,181032,2,0,B|328:256|312:192,1,100,2|4
304,96,181699,2,0,B|256:88|192:104,1,100,0|4
96,120,182365,2,0,B|88:168|104:232,1,100,2|4
120,328,183032,6,0,B|188:341|292:325,2,150,0|0|4
192,240,184365,2,0,B|272:240|336:176,1,150
328,184,185032,2,0,B|440:184,1,100,2|4
376,88,185699,2,0,B|308:75|204:91,2,150,0|0|4
328,184,187032,2,0,B|248:184|184:248,1,150
193,239,187699,2,2,B|81:239,1,100,2|4
96,128,188365,6,0,B|216:128,1,100
196,128,188865,2,0,B|280:128|312:48,1,150,0|4
344,152,189699,2,0,B|260:152|228:232,2,150,0|0|4
256,192,191032,12,4,193365
256,192,194032,12,4,196032
