osu file format v9

[General]
AudioFilename: blue water[cut].mp3
AudioLeadIn: 0
PreviewTime: 150699
Countdown: 0
SampleSet: Normal
StackLeniency: 0.4
Mode: 0
LetterboxInBreaks: 1

[Editor]
DistanceSpacing: 0.8
BeatDivisor: 4
GridSize: 8

[Metadata]
Title:Clear Blue Water
Artist:Current Value feat. Saiba
Creator:La Cataline
Version:Hard
Source:
Tags:drum and bass dnb oceanlab

[Difficulty]
HPDrainRate:5
CircleSize:4
OverallDifficulty:5
ApproachRate:8
SliderMultiplier:1.5
SliderTickRate:1

[Events]
//Background and Video events
0,0,"bgpic.jpg"
//Break Periods
2,86899,107949
//Storyboard Layer 0 (Background)
//Storyboard Layer 1 (Fail)
//Storyboard Layer 2 (Pass)
//Storyboard Layer 3 (Foreground)
//Storyboard Sound Samples
//Background Colour Transformations
3,100,163,162,255

[TimingPoints]
33366,333.333333333333,4,2,0,79,1,0
44032,-100,4,2,0,79,0,0
59949,-100,4,1,0,79,0,0
60116,-100,4,2,0,79,0,0
62616,-100,4,1,0,79,0,0
62782,-100,4,2,0,79,0,0
65366,-100,4,1,0,79,0,0
65449,-100,4,2,0,79,0,0
68032,-100,4,1,0,79,0,0
68116,-100,4,2,0,79,0,0
70616,-100,4,1,0,79,0,0
70782,-100,4,2,0,79,0,0
73366,-100,4,1,0,79,0,0
73449,-100,4,2,0,79,0,0
76032,-100,4,1,0,79,0,0
76116,-100,4,2,0,79,0,0
78699,-100,4,1,0,79,0,0
78782,-100,4,2,0,79,0,0
81366,-100,4,1,0,79,0,0
81532,-100,4,2,0,79,0,0
82199,-100,4,2,0,77,0,0
82699,-100,4,2,0,68,0,0
83032,-100,4,2,0,57,0,0
83366,-100,4,2,0,52,0,0
83699,-100,4,2,0,42,0,0
84032,-100,4,2,0,39,0,0
84366,-100,4,2,0,32,0,0
84699,-100,4,2,0,24,0,0
85032,-100,4,2,0,19,0,0
86616,-100,4,2,0,0,0,0
108032,-200,4,2,0,47,0,0
129365,-142.857142857143,4,2,0,0,0,0
129532,-142.857142857143,4,2,0,60,0,0
150699,-100,4,1,1,79,0,1
150782,-100,4,1,1,79,0,0
151615,-100,4,2,1,79,0,0
151949,-100,4,1,1,79,0,0
152949,-100,4,2,1,79,0,0
153282,-100,4,1,1,79,0,0
154282,-100,4,2,1,79,0,0
154699,-100,4,1,1,79,0,0
154865,-100,4,2,1,79,0,0
154949,-100,4,1,1,79,0,0
156615,-100,4,2,1,79,0,0
156782,-100,4,1,1,79,0,0
157949,-100,4,2,1,79,0,0
158282,-100,4,1,1,79,0,0
158699,-100,4,2,1,79,0,1
158782,-100,4,1,1,79,0,1
158949,-100,4,2,1,79,0,1
159449,-100,4,1,1,79,0,1
159615,-100,4,2,1,79,0,1
159782,-100,4,1,1,79,0,1
159949,-100,4,2,1,79,0,1
160282,-100,4,2,1,79,0,1
160449,-100,4,1,1,79,0,1
160615,-100,4,2,1,79,0,1
160782,-100,4,1,1,79,0,1
160949,-100,4,2,1,79,0,1
161699,-100,4,1,1,79,0,0
162282,-100,4,2,1,79,0,0
162615,-100,4,1,1,79,0,0
162865,-100,4,2,1,79,0,0
162949,-100,4,1,1,79,0,0
164949,-100,4,2,1,79,0,0
165282,-100,4,1,1,79,0,0
165532,-100,4,2,1,79,0,0
165615,-100,4,1,1,79,0,0
166115,-100,4,2,1,79,0,0
166615,-100,4,1,1,79,0,0
167615,-100,4,2,1,79,0,0
168032,-100,4,1,1,79,0,0
168782,-100,4,2,1,79,0,0
169365,-100,4,2,1,79,0,1
169782,-100,4,1,1,79,0,1
170615,-100,4,2,1,79,0,1
170782,-100,4,1,1,79,0,1
170949,-100,4,2,1,79,0,1
171115,-100,4,1,1,79,0,1
172032,-100,4,1,1,79,0,0
172282,-100,4,1,0,90,0,0
172449,-100,4,2,0,90,0,0
172782,-100,4,1,0,90,0,0
172949,-100,4,2,0,90,0,0
173615,-100,4,1,0,90,0,0
173782,-100,4,2,0,90,0,0
174115,-100,4,1,0,90,0,0
174282,-100,4,2,0,90,0,0
174949,-100,4,1,0,90,0,0
175115,-100,4,2,0,90,0,0
175449,-100,4,1,0,90,0,0
175615,-100,4,2,0,90,0,0
176282,-100,4,1,0,90,0,0
176449,-100,4,2,0,90,0,0
176782,-100,4,1,0,90,0,0
176949,-100,4,2,0,90,0,0
177615,-100,4,1,0,90,0,0
177782,-100,4,2,0,90,0,0
178115,-100,4,1,0,90,0,0
178282,-100,4,2,0,90,0,0
178949,-100,4,1,0,90,0,0
179115,-100,4,2,0,90,0,0
179449,-100,4,1,0,90,0,0
179615,-100,4,2,0,90,0,0
180032,-100,4,2,0,90,0,1
180282,-100,4,1,0,90,0,1
180449,-100,4,2,0,90,0,1
180782,-100,4,1,0,90,0,1
180949,-100,4,2,0,90,0,1
181615,-100,4,1,0,90,0,1
181782,-100,4,2,0,90,0,1
182115,-100,4,1,0,90,0,1
182282,-100,4,2,0,90,0,1
182699,-100,4,2,0,90,0,0
182949,-100,4,1,0,90,0,0
183115,-100,4,2,0,90,0,0
183449,-100,4,1,0,90,0,0
183615,-100,4,2,0,90,0,0
184282,-100,4,1,0,90,0,0
184449,-100,4,2,0,90,0,0
184782,-100,4,1,0,90,0,0
184949,-100,4,2,0,90,0,0
185615,-100,4,1,0,90,0,0
185782,-100,4,2,0,90,0,0
186115,-100,4,1,0,90,0,0
186282,-100,4,2,0,90,0,0
186949,-100,4,1,0,90,0,0
187115,-100,4,2,0,90,0,0
188282,-100,4,1,0,90,0,0
188449,-100,4,2,0,90,0,0
188782,-100,4,1,0,90,0,0
188949,-100,4,2,0,90,0,0
189615,-100,4,1,0,90,0,0
189782,-100,4,2,0,90,0,0
190115,-100,4,1,1,90,0,0
190282,-100,4,2,0,90,0,0
190699,-100,4,2,0,90,0,1
190782,-100,4,1,1,90,0,1
191365,-100,4,2,0,90,0,1
191449,-100,4,1,1,90,0,1
191949,-100,4,2,0,90,0,1
192115,-100,4,1,1,90,0,1
192699,-100,4,2,0,90,0,1
192782,-100,4,1,1,90,0,1
193699,-100,4,1,1,90,0,0

[Colours]
Combo1 : 128,128,192
Combo2 : 102,205,255
Combo3 : 175,88,145

[HitObjects]
32,64,54866,5,0
104,40,55032,1,2
88,112,55199,1,0
88,112,55532,1,0
160,88,55699,1,2
152,160,55866,1,2
152,160,56199,5,0
128,256,56366,1,2
224,232,56532,1,0
224,232,56866,1,0
200,328,57032,1,2
296,304,57199,1,2
296,304,57532,5,0
416,344,57699,1,2
392,224,57866,1,0
392,224,58199,5,0
504,248,58366,1,2
472,136,58532,1,2
392,224,58866,5,0
360,112,59032,1,2
280,200,59199,1,0
280,200,59532,5,0
232,136,59699,1,2
200,208,59866,1,2
152,144,60032,5,0
104,200,60199,1,0
88,128,60366,1,2
136,72,60532,1,0
416,192,60866,1,0
432,264,61032,1,2
384,320,61199,1,2
368,248,61366,2,0,B|288:280|224:208,1,150,0|0
312,176,61866,2,0,B|256:112|176:144,1,150,0|0
104,184,62366,5,2
112,88,62532,1,2
208,64,62699,2,0,B|288:80,1,75
248,184,63032,2,0,B|312:232,1,75
208,280,63366,2,0,B|232:352,1,75,0|2
112,280,63699,2,2,B|-40:360,1,150,0|4
264,200,64366,6,0,B|200:152,1,75
312,104,64699,2,0,B|280:24,1,75,0|2
408,136,65032,2,2,B|552:56,1,150,0|0
328,216,65699,6,0,B|432:256,1,112.5,2|0
400,288,66032,2,0,B|456:336,1,75,2|0
304,312,66366,2,0,B|144:352,1,150,0|2
96,208,67032,6,0,B|24:248,1,75,10|0
104,136,67366,2,0,B|88:64,1,75,2|8
168,176,67699,2,0,B|320:192,1,150,0|0
368,48,68366,6,0,B|344:160,1,112.5,2|0
384,176,68699,2,0,B|360:256,1,75,2|0
298,343,69032,2,4,B|448:336,1,150,0|2
64,112,69699,6,0,B|80:208,1,75,10|0
0,296,70032,2,0,B|72:266,1,75,2|8
160,304,70366,1,0
216,232,70532,1,2
232,152,70699,6,0,B|456:168,1,225,0|0
400,264,71366,1,0
400,264,71449,1,0
400,264,71532,1,10
440,344,71699,1,0
496,272,71866,1,2
496,272,72199,5,0
496,168,72366,1,2
512,64,72532,1,2
328,40,72866,1,8
304,136,73032,1,2
296,232,73199,1,2
272,328,73366,6,0,B|48:360,1,225,0|0
48,256,74032,1,0
48,256,74116,1,0
48,256,74199,1,8
160,232,74366,1,2
88,144,74532,1,0
88,144,74866,5,0
152,72,75032,1,2
240,48,75199,1,0
376,256,75532,1,8
312,328,75699,1,2
224,352,75866,1,2
256,240,76032,6,0,B|200:144,2,112.5,0|0|0
312,152,76699,2,0,B|376:112,1,75,0|10
152,248,77032,2,0,B|88:288,1,75,2|0
304,336,77532,1,0
384,280,77699,1,8
304,336,77866,1,2
232,56,78199,1,8
152,112,78366,1,2
232,56,78532,1,2
232,144,78699,6,0,B|304:240,2,112.5,0|0|0
336,96,79366,2,0,B|424:104,1,75,0|8
168,224,79699,2,0,B|136:304,1,75,2|0
400,192,80199,1,0
488,208,80365,1,8
400,192,80532,1,2
112,192,80865,1,8
24,208,81032,1,2
112,192,81199,1,2
256,152,81365,5,0
256,152,81699,1,8
256,256,81865,1,2
256,256,81949,1,0
256,256,82032,1,0
160,312,82199,2,0,B|48:344,2,112.5,10|0|2
120,232,82865,6,0,B|72:144,1,75,0|10
168,144,83199,2,0,B|160:64,1,75,2|0
256,128,83532,2,0,B|280:16,2,112.5,10|0|2
256,328,84365,5,8
312,256,84532,1,2
312,256,84615,1,0
312,256,84699,1,0
352,168,84865,2,0,B|464:136,2,112.5,10|0|4
256,192,85532,8,0,86699
144,88,108699,5,2
104,224,109032,1,0
240,184,109365,1,2
416,344,109865,1,2
480,120,110365,1,4
256,328,112032,6,0,B|176:312|96:328,1,150,2|2
256,296,113032,2,0,B|328:312|416:296,1,150,2|2
208,72,114365,1,2
304,72,114699,1,0
328,312,115199,1,2
328,312,115699,2,0,B|256:280|176:312,1,150,0|2
56,320,119365,6,0,B|24:240,1,75,2|0
120,240,120032,2,0,B|88:120,1,112.5,2|2
208,224,121032,2,4,B|208:72,2,150,6|0|2
392,104,122699,6,0,B|320:104|288:160,1,112.5,2|0
104,312,123699,2,0,B|192:312|224:232,1,150,2|2
256,64,125032,1,2
192,128,125365,2,0,B|112:160,1,75,0|2
320,128,125865,2,0,B|400:160,1,75,0|2
256,200,126365,2,0,B|256:352,1,150,0|2
256,192,127699,8,4,129365
80,176,130032,6,0,B|168:112,1,104.999997496605,2|0
256,239,130699,2,0,B|256:344,1,104.999997496605,0|2
432,176,131365,2,0,B|344:112,1,104.999997496605
256,32,132032,1,2
256,352,132699,1,2
144,192,133365,6,0,B|32:192,1,104.999997496605,0|2
368,192,134032,2,0,B|480:192,1,104.999997496605,0|0
256,32,134699,1,2
256,352,135365,1,2
200,224,135699,1,2
312,224,136032,1,0
56,224,136532,5,2
472,224,137032,1,0
472,224,137699,1,2
144,120,140699,6,0,B|152:176|112:232,1,104.999997496605,2|0
256,192,141365,2,0,B|256:320,1,104.999997496605,0|2
368,120,142032,2,0,B|360:176|400:232,1,104.999997496605,0|0
256,56,142699,1,2
256,56,143365,1,2
336,328,144032,6,0,B|448:320,1,104.999997496605,0|2
352,288,144532,2,0,B|240:296,1,104.999997496605,0|0
247,295,145032,1,2
184,56,145365,2,0,B|72:64,1,104.999997496605,2|2
160,96,145865,2,0,B|272:88,1,104.999997496605,0|2
264,88,146365,1,0
152,192,146699,6,0,B|148:252|190:291,1,104.999997496605,0|2
360,192,147199,2,0,B|364:132|322:93,1,104.999997496605,0|2
208,104,147699,2,0,B|261:119|243:272|296:287,1,209.99999499321,0|2
256,192,148532,8,4,150699
400,216,151032,5,8
400,216,151199,2,0,B|320:240|256:200,1,150,0|8
256,200,151699,2,0,B|256:112,1,75,2|0
256,126,152032,2,0,B|191:85|111:109,1,150,0|8
296,240,152532,6,0,B|360:280|440:256,1,150,0|8
336,128,153032,1,0
176,200,153199,1,2
216,88,153365,2,0,B|152:48|72:72,1,150,0|8
71,72,153865,1,8
71,72,154199,5,0
48,176,154365,1,2
80,272,154532,1,0
104,296,154615,1,0
128,320,154699,2,0,B|232:320,1,75
256,232,155032,2,0,B|256:152,1,75,8|0
304,320,155365,1,0
304,320,155532,2,8,B|424:320,1,112.5,8|8
344,224,155949,1,8
344,224,156032,6,0,B|296:152|360:64,1,150,0|8
347,82,156699,1,2
156,82,156866,2,0,B|208:152|160:224,1,150,8|0
104,152,157365,2,0,B|264:160,1,150,0|8
253,159,158032,1,2
280,256,158199,1,0
280,256,158282,1,0
280,256,158365,1,0
304,352,158532,1,0
304,352,158699,6,0,B|352:328|408:376|456:352,1,150,4|4
208,352,159365,2,0,B|160:328|104:376|56:352,1,150,4|4
318,238,160032,2,0,B|256:280,1,75,4|0
192,240,160366,2,0,B|256:280,1,75,4|0
256,280,160699,2,4,B|256:120,1,150
108,38,161365,6,0,B|257:52,1,150,4|8
407,38,161865,2,0,B|257:52,1,150,0|8
296,240,162365,2,0,B|370:254,1,75,2|2
216,240,162698,2,0,B|142:254,1,75,0|0
369,253,163032,2,0,B|408:176|368:104,1,150,8|0
141,109,163532,2,0,B|104:176|143:253,1,150,8|0
336,168,164032,6,0,B|248:176|216:88,1,150,0|8
293,94,164532,2,0,B|263:175|175:167,1,150,0|8
443,249,165032,6,0,B|403:243|380:198,1,75,2|2
432,136,165365,2,0,B|471:141|494:186,1,75,0|0
256,232,165698,2,0,B|267:164|357:130,1,150,8|0
356,130,166199,1,2
356,130,166532,1,2
256,64,166699,6,0,B|196:82|144:80,1,112.5,4|0
145,80,167032,2,0,B|129:120|161:152,1,75,8|0
89,248,167365,2,0,B|129:256|169:224,1,75,0|8
241,328,167699,2,0,B|265:232|225:176,1,150,2|4
229,182,168365,1,8
328,192,168532,2,0,B|352:224|408:216,1,75,0|0
288,96,168865,1,0
288,96,169032,2,2,B|288:0|416:0,1,150,2|4
416,344,169699,6,0,B|504:344,1,75,4|4
288,344,170199,2,0,B|200:344,1,75,0|0
216,256,170532,2,0,B|304:256,1,75,0|4
96,344,171032,2,0,B|8:344,1,75,4|4
256,136,171532,1,8
256,136,171699,1,8
256,136,172032,5,4
72,160,172365,2,0,B|144:224|80:296,1,150,0|2
40,232,172865,2,0,B|144:152|256:240,1,225,0|4
247,233,173532,1,0
344,288,173699,1,0
392,192,173865,1,0
392,192,173949,1,0
392,192,174032,1,2
296,136,174199,2,0,B|240:128|200:72,2,112.5,0|0|4
104,264,175032,5,0
104,264,175199,2,0,B|128:352|224:344,1,150,2|0
216,344,175699,2,0,B|128:320|136:224,1,150,0|4
200,184,176199,2,0,B|224:208|216:256,1,75
128,152,176532,2,0,B|104:128|112:80,1,75,0|2
111,81,176865,1,0
232,88,177032,1,0
328,176,177199,1,0
328,288,177365,1,4
328,288,177699,6,0,B|392:352|464:296,1,150,0|2
400,248,178199,2,0,B|432:224|424:168,2,75
352,192,178699,2,0,B|304:120|376:48,1,150,4|0
272,216,179199,2,0,B|320:288|256:360,1,150,2|0
216,280,179699,2,0,B|176:288|136:248,1,75,0|2
64,224,180032,5,4
64,224,180365,2,0,B|24:248|38:294,1,75,0|2
128,152,180698,2,0,B|133:101|82:84,1,75,4|0
160,248,181032,2,0,B|194:266|226:226,1,75
225,227,181365,1,4
432,296,181699,2,0,B|336:272,1,75,0|2
432,200,182032,2,0,B|360:136,1,75,4|0
480,120,182365,2,0,B|448:32,1,75,0|2
296,152,182699,6,0,B|128:208,1,150,4|0
56,235,183199,1,2
90,334,183365,1,0
189,299,183532,1,0
154,200,183699,2,0,B|152:152|112:128,1,75,0|2
122,267,184032,6,0,B|289:210,1,150,4|0
362,184,184532,1,2
328,86,184699,1,0
229,121,184865,1,0
265,219,185032,2,0,B|256:264|296:296,1,75,0|2
296,152,185365,6,0,B|376:176|448:96,1,150,4|0
504,64,185865,1,2
504,64,185949,1,0
504,64,186032,1,0
432,111,186199,1,0
512,152,186365,1,2
440,200,186532,1,0
424,232,186615,1,0
408,264,186699,6,0,B|376:288|336:264,1,75,4|0
248,232,187032,2,0,B|209:209|177:233,1,75,0|2
216,320,187365,2,0,B|88:376|8:280,1,225,4|2
104,232,188032,6,0,B|32:200|48:88,1,150,4|0
45,105,188532,2,0,B|76:175|171:161,1,150
128,80,189032,2,0,B|136:32|192:24,1,75,2|2
224,96,189365,2,0,B|304:128|376:80,1,150,4|0
408,8,189865,2,0,B|480:64|432:152,1,150
412,228,190365,1,2
384,320,190532,1,0
384,320,190699,6,0,B|488:320,1,75,4|0
304,360,191032,2,0,B|176:360,1,112.5,8|8
216,320,191365,2,0,B|296:320,1,75,4|0
128,320,191699,2,0,B|24:320,1,75,8|0
130,168,192032,6,0,B|171:232,1,75,4|0
200,72,192365,2,0,B|328:72,1,112.5,8|8
292,120,192699,2,4,B|212:120,1,75,4|0
381,168,193032,2,0,B|341:232,1,75,0|0
256,312,193365,5,4
256,192,193699,8,4,196032
