osu file format v14

[General]
AudioFilename: Your Addiction by Duelle & CiRRO (Culture Code Remix).mp3
AudioLeadIn: 0
PreviewTime: -1
Countdown: 0
SampleSet: None
StackLeniency: 1
Mode: 0
LetterboxInBreaks: 1
WidescreenStoryboard: 0

[Editor]
DistanceSpacing: 1
BeatDivisor: 8
GridSize: 4
TimelineZoom: 1

[Metadata]
Title:Your Addiction by Duelle & CiRRO (Culture Code Remix)
TitleUnicode:Your Addiction by Duelle & CiRRO (Culture Code Remix)
Artist:Culture Code
ArtistUnicode:Culture Code
Creator:cheezstik
Version:
Source:
Tags:
BeatmapID:747290
BeatmapSetID:337794

[Difficulty]
HPDrainRate:6
CircleSize:3.4
OverallDifficulty:8
ApproachRate:9.1
SliderMultiplier:2.3
SliderTickRate:1

[Events]
//Background and Video events
//Break Periods
2,24216,35432
//Storyboard Layer 0 (Background)
//Storyboard Layer 1 (Fail)
//Storyboard Layer 2 (Pass)
//Storyboard Layer 3 (Foreground)
//Storyboard Sound Samples

[TimingPoints]
12016,375,4,1,0,75,1,0
36016,-133.333333333333,4,1,0,75,0,0
36953,-100,4,1,0,75,0,0
37516,-133.333333333333,4,1,0,75,0,0
38453,-100,4,1,0,75,0,0
58516,-300,4,1,0,75,0,0
60016,-83.3333333333333,4,1,0,75,0,0
60766,-133.333333333333,4,1,0,75,0,0
61516,-100,4,1,0,75,0,0
63766,-133.333333333333,4,1,0,75,0,0
64516,-100,4,1,0,75,0,0
66016,-83.3333333333333,4,1,0,75,0,0
66766,-133.333333333333,4,1,0,75,0,0
67516,-100,4,1,0,75,0,0
72016,-83.3333333333333,4,1,0,75,0,0
72766,-133.333333333333,4,1,0,75,0,0
73516,-100,4,1,0,75,0,0
75766,-133.333333333333,4,1,0,75,0,0
76516,-100,4,1,0,75,0,0
78016,-83.3333333333333,4,1,0,75,0,0
78766,-133.333333333333,4,1,0,75,0,0
79516,-100,4,1,0,75,0,0
84016,-83.3333333333333,4,1,0,75,0,0
84766,-133.333333333333,4,1,0,75,0,0
85516,-100,4,1,0,75,0,0
87016,-133.333333333333,4,1,0,75,0,0
87766,-100,4,1,0,75,0,0
90016,-83.3333333333333,4,1,0,75,0,0
90766,-133.333333333333,4,1,0,75,0,0
91516,-100,4,1,0,75,0,0
96016,-83.3333333333333,4,1,0,75,0,0
96766,-133.333333333333,4,1,0,75,0,0
97516,-100,4,1,0,75,0,0
99016,-133.333333333333,4,1,0,75,0,0
99766,-100,4,1,0,75,0,0
102016,-83.3333333333333,4,1,0,75,0,0
102766,-133.333333333333,4,1,0,75,0,0
103516,-100,4,1,0,75,0,0

[HitObjects]
84,128,12016,6,0,B|152:96|152:96|192:96,1,115
328,104,12391,1,0,0:0:0:0:
264,224,12578,1,0,0:0:0:0:
80,160,12766,1,0,0:0:0:0:
152,340,12953,1,0,0:0:0:0:
240,232,13141,1,0,0:0:0:0:
352,312,13328,1,0,0:0:0:0:
412,188,13516,5,0,0:0:0:0:
348,68,13703,2,0,L|356:24,1,28.75
260,84,13891,2,0,L|248:56,1,28.75
176,132,14078,1,0,0:0:0:0:
72,44,14266,1,0,0:0:0:0:
32,236,14453,1,0,0:0:0:0:
116,128,14641,1,0,0:0:0:0:
124,264,14828,1,0,0:0:0:0:
244,192,15016,5,0,0:0:0:0:
368,132,15203,1,0,0:0:0:0:
472,40,15391,1,0,0:0:0:0:
344,188,15578,2,0,B|336:144|336:144|244:88,1,115
148,60,15953,1,0,0:0:0:0:
172,196,16141,1,0,0:0:0:0:
36,184,16328,1,0,0:0:0:0:
116,296,16516,6,0,L|100:324,1,28.75
228,288,16703,2,0,L|232:320,1,28.75
356,276,16891,2,0,L|356:308,1,28.75
448,212,17078,1,0,0:0:0:0:
420,76,17266,2,0,P|384:112|316:128,1,115
188,108,17641,1,0,0:0:0:0:
96,212,17828,1,0,0:0:0:0:
204,300,18016,6,0,B|264:280|264:280|308:216,1,115
356,116,18391,1,0,0:0:0:0:
172,176,18578,1,0,0:0:0:0:
344,268,18766,1,0,0:0:0:0:
252,96,18953,1,0,0:0:0:0:
220,288,19141,1,0,0:0:0:0:
92,240,19328,1,0,0:0:0:0:
80,104,19516,6,0,L|52:96,1,28.75
176,64,19703,2,0,L|156:20,1,28.75
292,60,19891,1,0,0:0:0:0:
384,160,20078,1,0,0:0:0:0:
432,288,20266,6,0,L|460:296,1,28.75
336,328,20453,2,0,L|356:372,1,28.75
220,332,20641,1,0,0:0:0:0:
128,232,20828,1,0,0:0:0:0:
176,104,21016,5,0,0:0:0:0:
484,348,21391,1,0,0:0:0:0:
96,304,21766,2,0,L|64:316,1,28.75
360,132,22141,2,0,L|388:116,1,28.75
44,156,22516,1,0,0:0:0:0:
224,84,22703,1,0,0:0:0:0:
420,112,22891,1,0,0:0:0:0:
512,284,23078,1,0,0:0:0:0:
328,352,23266,1,0,0:0:0:0:
132,336,23453,1,0,0:0:0:0:
56,156,23641,1,0,0:0:0:0:
248,196,23828,1,0,0:0:0:0:
248,196,24016,1,0,0:0:0:0:
96,104,36016,6,0,B|126:91|126:91|292:80,1,172.500006580353
438,285,36953,2,0,B|442:228|442:228|426:150,1,115
156,211,37516,2,0,P|219:254|337:259,1,172.500006580353
56,145,38453,2,0,B|31:101|31:101|32:10,1,115
251,105,39016,6,0,L|217:63,1,28.75
362,80,39203,2,0,L|371:45,1,28.75
472,132,39391,2,0,L|476:94,1,28.75
420,221,39578,1,0,0:0:0:0:
324,320,39766,2,0,P|266:348|207:317,1,115
101,262,40141,1,0,0:0:0:0:
40,138,40328,1,0,0:0:0:0:
157,65,40516,5,0,0:0:0:0:
224,247,40703,1,0,0:0:0:0:
367,113,40891,1,0,0:0:0:0:
176,71,41078,1,0,0:0:0:0:
50,221,41266,1,0,0:0:0:0:
236,278,41453,2,0,B|261:246|261:246|344:213,1,115
92,77,42016,6,0,B|37:39|5:46|9:95,1,115
30,226,42391,1,0,0:0:0:0:
160,181,42578,1,0,0:0:0:0:
266,268,42766,1,0,0:0:0:0:
394,217,42953,2,0,B|426:180|426:180|516:148,1,115
304,364,43516,5,0,0:0:0:0:
330,170,43703,2,0,P|384:125|387:163,1,115
213,31,44078,1,0,0:0:0:0:
85,179,44266,1,0,0:0:0:0:
189,343,44453,2,0,B|211:279|211:279|266:238,1,115
361,170,44828,1,0,0:0:0:0:
239,104,45016,5,0,0:0:0:0:
145,205,45203,1,0,0:0:0:0:
239,306,45391,1,0,0:0:0:0:
332,205,45578,1,0,0:0:0:0:
239,104,45766,1,0,0:0:0:0:
144,274,45953,1,0,0:0:0:0:
340,275,46141,1,0,0:0:0:0:
240,107,46328,6,0,P|161:81|107:76,1,115
129,76,46891,1,0,0:0:0:0:
129,76,47078,1,0,0:0:0:0:
322,43,47266,1,0,0:0:0:0:
63,335,47641,1,0,0:0:0:0:
445,253,48016,1,0,0:0:0:0:
256,192,48203,12,0,53641,0:0:0:0:
196,314,54016,5,0,0:0:0:0:
43,192,54203,5,0,0:0:0:0:
70,171,54296,1,0,0:0:0:0:
103,160,54390,1,0,0:0:0:0:
273,256,54578,5,0,0:0:0:0:
292,227,54672,1,0,0:0:0:0:
302,194,54766,1,0,0:0:0:0:
145,77,54953,5,0,0:0:0:0:
178,67,55047,1,0,0:0:0:0:
212,69,55141,1,0,0:0:0:0:
401,21,55328,5,0,0:0:0:0:
417,51,55422,1,0,0:0:0:0:
408,84,55516,1,0,0:0:0:0:
218,128,55703,5,0,0:0:0:0:
202,158,55797,1,0,0:0:0:0:
211,191,55891,1,0,0:0:0:0:
397,246,56078,5,0,0:0:0:0:
413,276,56172,1,0,0:0:0:0:
404,309,56266,1,0,0:0:0:0:
209,326,56453,5,0,0:0:0:0:
179,342,56547,1,0,0:0:0:0:
146,333,56641,1,0,0:0:0:0:
11,191,56828,5,0,0:0:0:0:
29,161,56921,1,0,0:0:0:0:
48,133,57015,1,0,0:0:0:0:
80,121,57109,1,0,0:0:0:0:
113,109,57203,5,0,0:0:0:0:
146,99,57296,1,0,0:0:0:0:
179,90,57390,1,0,0:0:0:0:
213,82,57484,1,0,0:0:0:0:
247,77,57578,5,0,0:0:0:0:
281,74,57671,1,0,0:0:0:0:
316,76,57765,1,0,0:0:0:0:
349,83,57859,1,0,0:0:0:0:
380,99,57953,5,0,0:0:0:0:
402,125,58046,1,0,0:0:0:0:
412,158,58140,1,0,0:0:0:0:
411,192,58234,1,0,0:0:0:0:
402,225,58328,5,0,0:0:0:0:
385,255,58421,1,0,0:0:0:0:
363,282,58516,2,0,B|295:304|295:304|221:293|221:216|223:202|247:205|271:204|252:232,1,230
475,54,60016,2,0,B|402:51|402:51|355:102|309:189|427:250,1,275.999991577149
212,330,60766,2,0,B|194:304|194:304|177:323|177:323|161:305|161:305|142:326|142:326|126:299|126:299|110:333|110:333|58:295|90:267,1,258.75000987053
152,145,61516,6,0,B|212:122|360:123|274:25,1,230
143,65,62078,2,0,L|137:30,1,28.75
56,138,62266,2,0,L|27:134,1,28.75
75,254,62453,2,0,L|42:249,1,28.75
129,350,62641,2,0,L|108:369,1,28.75
232,334,62828,2,0,L|240:365,1,28.75
363,321,63016,2,0,B|408:290|441:207|437:141|437:141|361:145|361:145|356:184|408:187,1,345
272,236,63766,2,0,B|245:230|245:230|224:241|224:241|210:222|210:222|181:231|181:231|175:200|175:200|142:204|142:204|145:141|157:110,1,258.75000987053
285,72,64516,6,0,L|309:54,1,28.75
154,134,64703,2,0,L|124:125,1,28.75
273,219,64891,2,0,L|297:201,1,28.75
142,281,65078,2,0,L|112:272,1,28.75
350,220,65453,6,0,L|384:216,1,28.75
240,110,65641,2,0,L|239:80,1,28.75
130,215,65828,2,0,L|99:215,1,28.75
70,93,66016,6,0,B|115:54|115:54|165:52|223:122|239:166|165:223,1,275.999991577149
35,292,66766,2,0,B|56:321|56:321|90:285|90:315|90:315|112:285|115:322|115:322|133:280|138:321|138:321|158:278|149:322|149:322|181:302,1,258.75000987053
311,320,67516,2,0,B|387:279|387:279|449:133|454:65|363:56,1,345
238,65,68266,2,0,L|250:31,1,28.75
131,96,68453,2,0,L|105:78,1,28.75
68,204,68641,2,0,L|27:199,1,28.75
94,317,68828,2,0,L|76:340,1,28.75
157,237,69016,5,0,0:0:0:0:
316,72,69203,1,0,0:0:0:0:
313,302,69391,1,0,0:0:0:0:
187,109,69578,1,0,0:0:0:0:
404,185,69766,1,0,0:0:0:0:
212,310,69953,1,0,0:0:0:0:
50,145,70141,1,0,0:0:0:0:
256,45,70328,1,0,0:0:0:0:
355,253,70516,5,0,0:0:0:0:
478,59,70703,1,0,0:0:0:0:
254,1,70891,1,0,0:0:0:0:
170,214,71078,1,0,0:0:0:0:
385,131,71266,1,0,0:0:0:0:
160,83,71453,1,0,0:0:0:0:
111,308,71641,1,0,0:0:0:0:
277,150,71828,1,0,0:0:0:0:
28,144,72016,6,0,B|93:119|93:119|216:198|129:308,1,275.999991577149
345,283,72766,2,0,B|379:265|379:265|359:240|394:231|394:231|381:199|414:191|414:191|383:158|416:147|416:147|385:118|427:96|411:70,1,258.75000987053
231,190,73516,6,0,P|272:149|165:93,1,230
140,228,74078,2,0,L|124:254,1,28.75
64,89,74266,2,0,L|86:69,1,28.75
249,125,74453,2,0,L|234:154,1,28.75
340,289,74641,2,0,L|367:260,1,28.75
193,315,74828,2,0,L|191:351,1,28.75
45,247,75016,6,0,B|83:187|83:187|249:95|229:174|195:213|195:213|251:242,1,345
373,284,75766,2,0,B|412:255|412:255|373:240|426:210|426:210|406:165|463:163|463:163|444:127|502:125|502:125,1,258.75000987053
328,96,76516,6,0,L|314:72,1,28.75
279,196,76703,2,0,L|291:228,1,28.75
194,132,76891,2,0,L|211:101,1,28.75
139,216,77078,2,0,L|155:245,1,28.75
453,205,77453,6,0,L|484:212,1,28.75
320,143,77641,2,0,L|295:106,1,28.75
316,291,77828,2,0,L|313:322,1,28.75
153,268,78016,6,0,B|84:214|84:214|71:266|54:293|99:323|2:385,1,275.999991577149
70,108,78766,2,0,B|108:116|108:116|131:81|148:130|148:130|176:94|182:126|182:126|212:98|217:130|217:130|233:94|269:104|269:104,1,258.75000987053
389,221,79516,2,0,P|346:257|379:181,1,230
200,125,80078,2,0,L|178:108,1,28.75
155,236,80266,2,0,L|117:239,1,28.75
217,330,80453,2,0,L|207:357,1,28.75
329,311,80641,2,0,L|336:342,1,28.75
407,231,80828,2,0,L|442:250,1,28.75
399,118,81016,5,0,0:0:0:0:
247,323,82516,1,0,0:0:0:0:
58,57,84016,6,0,B|127:64|127:64|141:142|192:171|288:184|149:266,1,275.999991577149
54,330,84766,2,0,B|115:301|115:301|118:336|169:296|169:296|153:340|216:286|216:286|213:323|256:274|256:274,1,258.75000987053
347,235,85516,2,0,L|367:204,1,28.75
162,185,85891,6,0,L|133:170,1,28.75
292,97,86078,2,0,L|296:69,1,28.75
382,219,86266,2,0,L|410:204,1,28.75
236,177,86453,2,0,L|224:151,1,28.75
146,306,86641,2,0,L|110:298,1,28.75
22,12,87016,2,0,B|53:27|53:27|106:21|100:45|74:49|74:49|94:61|94:61|60:75|107:93|107:93|78:120|78:120|114:150,1,258.75000987053
160,307,87766,6,0,L|174:323,1,21.5625008225441
261,213,87953,2,0,L|272:174,1,28.75
396,213,88141,2,0,L|381:173,1,28.75
494,115,88328,2,0,L|454:114,1,28.75
291,109,88516,6,0,L|309:80,1,28.75
163,182,88703,2,0,L|127:170,1,28.75
223,323,88891,2,0,L|208:365,1,28.75
354,250,89078,2,0,L|384:268,1,28.75
80,317,89453,6,0,L|79:284,1,28.75
178,145,89641,2,0,L|189:115,1,28.75
295,253,89828,2,0,L|330:267,1,28.75
470,117,90016,6,0,B|420:101|420:101|355:102|330:220|330:220|417:248,1,275.999991577149
229,304,90766,2,0,B|208:273|201:296|201:296|188:270|174:291|174:290|174:290|161:258|142:277|142:277|134:253|115:278|115:278|105:251|80:261|80:261|73:233|47:248|47:248|51:223,1,258.75000987053
109,139,91516,6,0,L|87:107,1,28.75
383,199,91891,2,0,L|396:174,1,28.75
260,66,92078,2,0,L|247:36,1,28.75
92,115,92266,2,0,L|89:83,1,28.75
220,198,92453,2,0,L|237:170,1,28.75
333,316,92641,2,0,L|317:283,1,28.75
22,344,93016,5,0,0:0:0:0:
160,161,93203,1,0,0:0:0:0:
349,292,93391,1,0,0:0:0:0:
119,288,93578,1,0,0:0:0:0:
257,105,93765,1,0,0:0:0:0:
446,236,93953,1,0,0:0:0:0:
215,227,94141,1,0,0:0:0:0:
353,44,94328,1,0,0:0:0:0:
155,163,94516,5,0,0:0:0:0:
293,346,94703,1,0,0:0:0:0:
482,215,94891,1,0,0:0:0:0:
315,57,95078,5,0,0:0:0:0:
200,256,95266,1,0,0:0:0:0:
414,173,95453,1,0,0:0:0:0:
190,117,95641,1,0,0:0:0:0:
353,277,95828,1,0,0:0:0:0:
130,337,96016,6,0,B|52:328|52:328|39:272|44:84|87:151|91:191,1,275.999991577149
224,65,96766,2,0,B|246:34|264:61|264:61|270:33|284:56|284:56|287:33|316:60|316:60|331:33|338:74|338:74|357:45|361:78|361:78|378:45|404:98|404:98,1,258.75000987053
403,197,97516,6,0,L|441:230,1,28.75
130,145,97891,2,0,L|88:146,1,28.75
216,86,98078,2,0,L|246:71,1,28.75
280,197,98266,2,0,L|290:232,1,28.75
158,222,98453,2,0,L|129:202,1,28.75
17,263,98641,2,0,L|49:282,1,28.75
263,325,99016,6,0,B|349:312|349:312|377:234|441:222|381:144|380:144,1,258.75000987053
295,86,99766,2,0,L|291:56,1,28.75
193,155,99953,2,0,L|171:138,1,28.75
180,276,100141,2,0,L|141:303,1,28.75
291,322,100328,2,0,L|292:351,1,28.75
362,230,100516,6,0,L|393:242,1,28.75
218,212,100703,2,0,L|178:219,1,28.75
359,176,100891,2,0,L|389:187,1,28.75
213,181,101078,2,0,L|187:164,1,28.75
437,337,101453,6,0,L|458:305,1,28.75
308,216,101641,2,0,L|298:185,1,28.75
164,297,101828,2,0,L|133:290,1,28.75
55,168,102016,6,0,B|90:130|90:130|145:126|170:167|165:256|106:313,1,275.999991577149
255,206,102766,2,0,B|287:165|287:165|312:177|301:141|301:141|352:161|332:120|332:120|371:127|364:93|364:93|386:104|377:77|377:77|398:66,1,258.75000987053
274,70,103516,6,0,L|262:42,1,28.75
84,288,103891,2,0,L|101:258,1,28.75
222,300,104078,2,0,L|227:261,1,28.75
354,294,104266,2,0,L|348:263,1,28.75
468,215,104453,2,0,L|417:197,1,28.75
445,74,104641,2,0,L|417:81,1,28.75
224,139,105016,5,0,0:0:0:0:
399,248,106516,1,0,0:0:0:0:
188,332,108016,1,0,0:0:0:0:
