osu file format v13

[General]
AudioFilename: Crywolf - Eyes Half Closed.mp3
AudioLeadIn: 0
PreviewTime: 120939
Countdown: 0
SampleSet: Soft
StackLeniency: 0.7
Mode: 3
LetterboxInBreaks: 0
SpecialStyle: 0
WidescreenStoryboard: 1

[Editor]
Bookmarks: 270309
DistanceSpacing: 0.9
BeatDivisor: 8
GridSize: 4
TimelineZoom: 1.44

[Metadata]
Title:Eyes Half Closed
TitleUnicode:Eyes Half Closed
Artist:Crywolf
ArtistUnicode:Crywolf
Creator:DUZ_MACHINES_84
Version:Marathon
Source:AirwaveMusic
Tags:Dubstep
BeatmapID:440065
BeatmapSetID:183707

[Difficulty]
HPDrainRate:7.5
CircleSize:7
OverallDifficulty:7.5
ApproachRate:5
SliderMultiplier:1.4
SliderTickRate:1

[Events]
//Background and Video events
0,0,"Untitled-1.jpg",0,0
//Break Periods
//Storyboard Layer 0 (Background)
//Storyboard Layer 1 (Fail)
//Storyboard Layer 2 (Pass)
//Storyboard Layer 3 (Foreground)
//Storyboard Sound Samples
//Background Colour Transformations
3,100,163,162,255

[TimingPoints]
1871,444.444444444444,4,1,1,30,1,0
19648,-100,4,2,1,30,0,0
48093,-100,4,1,1,30,0,0
120565,-50,4,1,1,30,0,0
120870,-400,4,1,1,30,0,0
120982,-100,4,1,1,30,0,0
121426,-133.333333333333,4,1,1,30,0,0
121870,-400,4,1,1,30,0,0
121908,-66.6666666666667,4,1,1,30,0,0
122019,-400,4,1,1,30,0,0
122056,-66.6666666666667,4,1,1,30,0,0
122167,-400,4,1,1,30,0,0
122204,-66.6666666666667,4,1,1,30,0,0
122315,-400,4,1,1,30,0,0
122352,-66.6666666666667,4,1,1,30,0,0
122463,-400,4,1,1,30,0,0
122500,-66.6666666666667,4,1,1,30,0,0
122611,-400,4,1,1,30,0,0
122648,-66.6666666666667,4,1,1,30,0,0
122759,-400,4,1,1,30,0,0
122796,-66.6666666666667,4,1,1,30,0,0
122908,-400,4,1,1,30,0,0
122945,-66.6666666666667,4,1,1,30,0,0
123056,-400,4,1,1,30,0,0
123093,-66.6666666666667,4,1,1,30,0,0
123204,-400,4,1,1,30,0,0
123241,-66.6666666666667,4,1,1,30,0,0
123352,-400,4,1,1,30,0,0
123389,-66.6666666666667,4,1,1,30,0,0
123500,-400,4,1,1,30,0,0
123537,-66.6666666666667,4,1,1,30,0,0
123648,-400,4,1,1,30,0,0
123685,-66.6666666666667,4,1,1,30,0,0
123797,-400,4,1,1,30,0,0
123834,-66.6666666666667,4,1,1,30,0,0
123945,-400,4,1,1,30,0,0
123982,-66.6666666666667,4,1,1,30,0,0
124093,-400,4,1,1,30,0,0
124130,-66.6666666666667,4,1,1,30,0,0
124241,-400,4,1,1,30,0,0
124278,-66.6666666666667,4,1,1,30,0,0
124389,-400,4,1,1,30,0,0
124426,-66.6666666666667,4,1,1,30,0,0
124537,-133.333333333333,4,1,1,30,0,0
124982,-133.333333333333,4,1,1,30,0,0
125426,-400,4,1,1,30,0,0
125464,-66.6666666666667,4,1,1,30,0,0
125575,-400,4,1,1,30,0,0
125612,-66.6666666666667,4,1,1,30,0,0
125723,-400,4,1,1,30,0,0
125760,-66.6666666666667,4,1,1,30,0,0
125871,-400,4,1,1,30,0,0
125908,-66.6666666666667,4,1,1,30,0,0
126019,-400,4,1,1,30,0,0
126056,-66.6666666666667,4,1,1,30,0,0
126167,-400,4,1,1,30,0,0
126204,-66.6666666666667,4,1,1,30,0,0
126315,-400,4,1,1,30,0,0
126352,-66.6666666666667,4,1,1,30,0,0
126464,-400,4,1,1,30,0,0
126501,-66.6666666666667,4,1,1,30,0,0
126612,-400,4,1,1,30,0,0
126649,-66.6666666666667,4,1,1,30,0,0
126760,-400,4,1,1,30,0,0
126797,-66.6666666666667,4,1,1,30,0,0
126908,-400,4,1,1,30,0,0
126945,-66.6666666666667,4,1,1,30,0,0
127056,-400,4,1,1,30,0,0
127093,-66.6666666666667,4,1,1,30,0,0
127204,-400,4,1,1,30,0,0
127241,-66.6666666666667,4,1,1,30,0,0
127353,-400,4,1,1,30,0,0
127390,-66.6666666666667,4,1,1,30,0,0
127501,-400,4,1,1,30,0,0
127538,-66.6666666666667,4,1,1,30,0,0
127649,-400,4,1,1,30,0,0
127686,-66.6666666666667,4,1,1,30,0,0
127797,-400,4,1,1,30,0,0
127834,-66.6666666666667,4,1,1,30,0,0
127945,-400,4,1,1,30,0,0
127982,-66.6666666666667,4,1,1,30,0,0
128093,-66.6666666666667,4,1,1,30,0,0
128537,-100,4,1,1,30,0,0
128982,-400,4,1,1,30,0,0
129019,-66.6666666666667,4,1,1,30,0,0
129131,-400,4,1,1,30,0,0
129168,-66.6666666666667,4,1,1,30,0,0
129279,-400,4,1,1,30,0,0
129316,-66.6666666666667,4,1,1,30,0,0
129427,-400,4,1,1,30,0,0
129464,-66.6666666666667,4,1,1,30,0,0
129575,-400,4,1,1,30,0,0
129612,-66.6666666666667,4,1,1,30,0,0
129723,-400,4,1,1,30,0,0
129760,-66.6666666666667,4,1,1,30,0,0
129871,-66.6666666666667,4,1,1,30,0,0
130315,-100,4,1,1,30,0,0
130760,-400,4,1,1,30,0,0
130797,-66.6666666666667,4,1,1,30,0,0
130909,-400,4,1,1,30,0,0
130946,-66.6666666666667,4,1,1,30,0,0
131057,-400,4,1,1,30,0,0
131094,-66.6666666666667,4,1,1,30,0,0
131205,-400,4,1,1,30,0,0
131242,-66.6666666666667,4,1,1,30,0,0
131353,-400,4,1,1,30,0,0
131390,-66.6666666666667,4,1,1,30,0,0
131501,-400,4,1,1,30,0,0
131538,-66.6666666666667,4,1,1,30,0,0
131649,-66.6666666666667,4,1,1,30,0,0
132093,-400,4,1,1,30,0,0
132130,-66.6666666666667,4,1,1,30,0,0
132241,-400,4,1,1,30,0,0
132278,-66.6666666666667,4,1,1,30,0,0
132389,-400,4,1,1,30,0,0
132426,-66.6666666666667,4,1,1,30,0,0
132536,-100,4,1,1,30,0,0
132982,-400,4,1,1,30,0,0
133019,-66.6666666666667,4,1,1,30,0,0
133131,-400,4,1,1,30,0,0
133168,-66.6666666666667,4,1,1,30,0,0
133279,-400,4,1,1,30,0,0
133316,-66.6666666666667,4,1,1,30,0,0
133426,-100,4,1,1,30,0,0
133870,-400,4,1,1,30,0,0
133908,-66.6666666666667,4,1,1,30,0,0
134019,-400,4,1,1,30,0,0
134056,-66.6666666666667,4,1,1,30,0,0
134167,-400,4,1,1,30,0,0
134204,-66.6666666666667,4,1,1,30,0,0
134315,-100,4,1,1,30,0,0
134759,-400,4,1,1,30,0,0
134798,-66.6666666666667,4,1,1,30,0,0
134909,-400,4,1,1,30,0,0
134946,-66.6666666666667,4,1,1,30,0,0
135057,-400,4,1,1,30,0,0
135094,-66.6666666666667,4,1,1,30,0,0
135206,-100,4,1,1,30,0,0
135208,-100,4,1,1,30,0,0
135650,-133.333333333333,4,1,1,30,0,0
136094,-400,4,1,1,30,0,0
136132,-66.6666666666667,4,1,1,30,0,0
136243,-400,4,1,1,30,0,0
136280,-66.6666666666667,4,1,1,30,0,0
136391,-400,4,1,1,30,0,0
136428,-66.6666666666667,4,1,1,30,0,0
136539,-400,4,1,1,30,0,0
136576,-66.6666666666667,4,1,1,30,0,0
136687,-400,4,1,1,30,0,0
136724,-66.6666666666667,4,1,1,30,0,0
136835,-400,4,1,1,30,0,0
136872,-66.6666666666667,4,1,1,30,0,0
136983,-400,4,1,1,30,0,0
137020,-66.6666666666667,4,1,1,30,0,0
137132,-400,4,1,1,30,0,0
137169,-66.6666666666667,4,1,1,30,0,0
137280,-400,4,1,1,30,0,0
137317,-66.6666666666667,4,1,1,30,0,0
137428,-400,4,1,1,30,0,0
137465,-66.6666666666667,4,1,1,30,0,0
137576,-400,4,1,1,30,0,0
137613,-66.6666666666667,4,1,1,30,0,0
137726,-400,4,1,1,30,0,0
137763,-66.6666666666667,4,1,1,30,0,0
137874,-400,4,1,1,30,0,0
137911,-66.6666666666667,4,1,1,30,0,0
138023,-400,4,1,1,30,0,0
138060,-66.6666666666667,4,1,1,30,0,0
138171,-400,4,1,1,30,0,0
138208,-66.6666666666667,4,1,1,30,0,0
138319,-400,4,1,1,30,0,0
138356,-66.6666666666667,4,1,1,30,0,0
138467,-400,4,1,1,30,0,0
138504,-66.6666666666667,4,1,1,30,0,0
138615,-400,4,1,1,30,0,0
138652,-66.6666666666667,4,1,1,30,0,0
138763,-100,4,1,1,30,0,0
139208,-133.333333333333,4,1,1,30,0,0
139652,-400,4,1,1,30,0,0
139690,-66.6666666666667,4,1,1,30,0,0
139801,-400,4,1,1,30,0,0
139838,-66.6666666666667,4,1,1,30,0,0
139949,-400,4,1,1,30,0,0
139986,-66.6666666666667,4,1,1,30,0,0
140095,-400,4,1,1,30,0,0
140132,-66.6666666666667,4,1,1,30,0,0
140243,-400,4,1,1,30,0,0
140280,-66.6666666666667,4,1,1,30,0,0
140391,-400,4,1,1,30,0,0
140428,-66.6666666666667,4,1,1,30,0,0
140539,-400,4,1,1,30,0,0
140576,-66.6666666666667,4,1,1,30,0,0
140688,-400,4,1,1,30,0,0
140725,-66.6666666666667,4,1,1,30,0,0
140836,-400,4,1,1,30,0,0
140873,-66.6666666666667,4,1,1,30,0,0
140984,-400,4,1,1,30,0,0
141021,-66.6666666666667,4,1,1,30,0,0
141132,-400,4,1,1,30,0,0
141169,-66.6666666666667,4,1,1,30,0,0
141280,-400,4,1,1,30,0,0
141317,-66.6666666666667,4,1,1,30,0,0
141428,-400,4,1,1,30,0,0
141465,-66.6666666666667,4,1,1,30,0,0
141577,-400,4,1,1,30,0,0
141614,-66.6666666666667,4,1,1,30,0,0
141725,-400,4,1,1,30,0,0
141762,-66.6666666666667,4,1,1,30,0,0
141873,-400,4,1,1,30,0,0
141910,-66.6666666666667,4,1,1,30,0,0
142021,-400,4,1,1,30,0,0
142058,-66.6666666666667,4,1,1,30,0,0
142169,-400,4,1,1,30,0,0
142206,-66.6666666666667,4,1,1,30,0,0
142317,-66.6666666666667,4,1,1,30,0,0
142761,-100,4,1,1,30,0,0
143204,-400,4,1,1,30,0,0
143241,-66.6666666666667,4,1,1,30,0,0
143353,-400,4,1,1,30,0,0
143390,-66.6666666666667,4,1,1,30,0,0
143501,-400,4,1,1,30,0,0
143538,-66.6666666666667,4,1,1,30,0,0
143648,-400,4,1,1,30,0,0
143686,-66.6666666666667,4,1,1,30,0,0
143797,-400,4,1,1,30,0,0
143834,-66.6666666666667,4,1,1,30,0,0
143945,-400,4,1,1,30,0,0
143982,-66.6666666666667,4,1,1,30,0,0
144093,-66.6666666666667,4,1,1,30,0,0
144537,-100,4,1,1,30,0,0
144982,-400,4,1,1,30,0,0
145019,-66.6666666666667,4,1,1,30,0,0
145131,-400,4,1,1,30,0,0
145168,-66.6666666666667,4,1,1,30,0,0
145279,-400,4,1,1,30,0,0
145316,-66.6666666666667,4,1,1,30,0,0
145426,-400,4,1,1,30,0,0
145464,-66.6666666666667,4,1,1,30,0,0
145575,-400,4,1,1,30,0,0
145612,-66.6666666666667,4,1,1,30,0,0
145723,-400,4,1,1,30,0,0
145760,-66.6666666666667,4,1,1,30,0,0
145870,-66.6666666666667,4,1,1,30,0,0
146315,-400,4,1,1,30,0,0
146317,-400,4,1,1,30,0,0
146349,-66.6666666666667,4,1,1,30,0,0
146465,-400,4,1,1,30,0,0
146500,-66.6666666666667,4,1,1,30,0,0
146611,-400,4,1,1,30,0,0
146648,-66.6666666666667,4,1,1,30,0,0
146759,-100,4,1,1,30,0,0
149426,-100,4,1,1,30,0,1
176093,-100,4,1,1,30,0,0
269908,-50,4,1,1,30,0,0
270204,-400,4,1,1,30,0,0
270315,-100,4,1,1,30,0,0
270759,-133.333333333333,4,1,1,30,0,0
271204,-400,4,1,1,30,0,0
271241,-66.6666666666667,4,1,1,30,0,0
271352,-400,4,1,1,30,0,0
271389,-66.6666666666667,4,1,1,30,0,0
271500,-400,4,1,1,30,0,0
271537,-66.6666666666667,4,1,1,30,0,0
271648,-400,4,1,1,30,0,0
271685,-66.6666666666667,4,1,1,30,0,0
271796,-400,4,1,1,30,0,0
271833,-66.6666666666667,4,1,1,30,0,0
271945,-400,4,1,1,30,0,0
271982,-66.6666666666667,4,1,1,30,0,0
272093,-400,4,1,1,30,0,0
272130,-66.6666666666667,4,1,1,30,0,0
272241,-400,4,1,1,30,0,0
272278,-66.6666666666667,4,1,1,30,0,0
272389,-400,4,1,1,30,0,0
272426,-66.6666666666667,4,1,1,30,0,0
272537,-400,4,1,1,30,0,0
272574,-66.6666666666667,4,1,1,30,0,0
272685,-400,4,1,1,30,0,0
272722,-66.6666666666667,4,1,1,30,0,0
272833,-400,4,1,1,30,0,0
272870,-66.6666666666667,4,1,1,30,0,0
272982,-400,4,1,1,30,0,0
273019,-66.6666666666667,4,1,1,30,0,0
273130,-400,4,1,1,30,0,0
273167,-66.6666666666667,4,1,1,30,0,0
273278,-400,4,1,1,30,0,0
273315,-66.6666666666667,4,1,1,30,0,0
273426,-400,4,1,1,30,0,0
273463,-66.6666666666667,4,1,1,30,0,0
273574,-400,4,1,1,30,0,0
273611,-66.6666666666667,4,1,1,30,0,0
273722,-400,4,1,1,30,0,0
273759,-66.6666666666667,4,1,1,30,0,0
273870,-100,4,1,1,30,0,0
274315,-133.333333333333,4,1,1,30,0,0
274759,-400,4,1,1,30,0,0
274796,-66.6666666666667,4,1,1,30,0,0
274907,-400,4,1,1,30,0,0
274944,-66.6666666666667,4,1,1,30,0,0
275055,-400,4,1,1,30,0,0
275092,-66.6666666666667,4,1,1,30,0,0
275203,-400,4,1,1,30,0,0
275240,-66.6666666666667,4,1,1,30,0,0
275351,-400,4,1,1,30,0,0
275388,-66.6666666666667,4,1,1,30,0,0
275500,-400,4,1,1,30,0,0
275537,-66.6666666666667,4,1,1,30,0,0
275648,-400,4,1,1,30,0,0
275685,-66.6666666666667,4,1,1,30,0,0
275796,-400,4,1,1,30,0,0
275833,-66.6666666666667,4,1,1,30,0,0
275944,-400,4,1,1,30,0,0
275981,-66.6666666666667,4,1,1,30,0,0
276092,-400,4,1,1,30,0,0
276129,-66.6666666666667,4,1,1,30,0,0
276240,-400,4,1,1,30,0,0
276277,-66.6666666666667,4,1,1,30,0,0
276388,-400,4,1,1,30,0,0
276425,-66.6666666666667,4,1,1,30,0,0
276537,-400,4,1,1,30,0,0
276574,-66.6666666666667,4,1,1,30,0,0
276685,-400,4,1,1,30,0,0
276722,-66.6666666666667,4,1,1,30,0,0
276833,-400,4,1,1,30,0,0
276870,-66.6666666666667,4,1,1,30,0,0
276981,-400,4,1,1,30,0,0
277018,-66.6666666666667,4,1,1,30,0,0
277129,-400,4,1,1,30,0,0
277166,-66.6666666666667,4,1,1,30,0,0
277277,-400,4,1,1,30,0,0
277314,-66.6666666666667,4,1,1,30,0,0
277426,-100,4,1,1,30,0,1
277870,-133.333333333333,4,1,1,30,0,0
278315,-400,4,1,1,30,0,0
278352,-66.6666666666667,4,1,1,30,0,0
278463,-400,4,1,1,30,0,0
278500,-66.6666666666667,4,1,1,30,0,0
278611,-400,4,1,1,30,0,0
278648,-66.6666666666667,4,1,1,30,0,0
278759,-400,4,1,1,30,0,0
278796,-66.6666666666667,4,1,1,30,0,0
278908,-400,4,1,1,30,0,0
278945,-66.6666666666667,4,1,1,30,0,0
279056,-400,4,1,1,30,0,0
279093,-66.6666666666667,4,1,1,30,0,0
279205,-100,4,1,1,30,0,0
279649,-133.333333333333,4,1,1,30,0,0
280094,-400,4,1,1,30,0,0
280131,-66.6666666666667,4,1,1,30,0,0
280242,-400,4,1,1,30,0,0
280279,-66.6666666666667,4,1,1,30,0,0
280390,-400,4,1,1,30,0,0
280427,-66.6666666666667,4,1,1,30,0,0
280538,-400,4,1,1,30,0,0
280575,-66.6666666666667,4,1,1,30,0,0
280687,-400,4,1,1,30,0,0
280724,-66.6666666666667,4,1,1,30,0,0
280835,-400,4,1,1,30,0,0
280872,-66.6666666666667,4,1,1,30,0,0
280982,-100,4,1,1,30,0,0
281426,-400,4,1,1,30,0,0
281463,-66.6666666666667,4,1,1,30,0,0
281574,-400,4,1,1,30,0,0
281611,-66.6666666666667,4,1,1,30,0,0
281722,-400,4,1,1,30,0,0
281759,-66.6666666666667,4,1,1,30,0,0
281870,-100,4,1,1,30,0,0
282315,-400,4,1,1,30,0,0
282352,-66.6666666666667,4,1,1,30,0,0
282463,-400,4,1,1,30,0,0
282500,-66.6666666666667,4,1,1,30,0,0
282611,-400,4,1,1,30,0,0
282648,-66.6666666666667,4,1,1,30,0,0
282759,-100,4,1,1,30,0,0
283204,-400,4,1,1,30,0,0
283241,-66.6666666666667,4,1,1,30,0,0
283352,-400,4,1,1,30,0,0
283389,-66.6666666666667,4,1,1,30,0,0
283500,-400,4,1,1,30,0,0
283537,-66.6666666666667,4,1,1,30,0,0
283648,-100,4,1,1,30,0,0
284093,-400,4,1,1,30,0,0
284130,-66.6666666666667,4,1,1,30,0,0
284241,-400,4,1,1,30,0,0
284278,-66.6666666666667,4,1,1,30,0,0
284389,-400,4,1,1,30,0,0
284426,-66.6666666666667,4,1,1,30,0,0
284537,-100,4,1,1,30,0,0
284981,-133.333333333333,4,1,1,30,0,0
285426,-400,4,1,1,30,0,0
285463,-66.6666666666667,4,1,1,30,0,0
285574,-400,4,1,1,30,0,0
285611,-66.6666666666667,4,1,1,30,0,0
285722,-400,4,1,1,30,0,0
285759,-66.6666666666667,4,1,1,30,0,0
285870,-400,4,1,1,30,0,0
285907,-66.6666666666667,4,1,1,30,0,0
286018,-400,4,1,1,30,0,0
286055,-66.6666666666667,4,1,1,30,0,0
286167,-400,4,1,1,30,0,0
286204,-66.6666666666667,4,1,1,30,0,0
286315,-400,4,1,1,30,0,0
286352,-66.6666666666667,4,1,1,30,0,0
286463,-400,4,1,1,30,0,0
286500,-66.6666666666667,4,1,1,30,0,0
286611,-400,4,1,1,30,0,0
286648,-66.6666666666667,4,1,1,30,0,0
286759,-400,4,1,1,30,0,0
286796,-66.6666666666667,4,1,1,30,0,0
286907,-400,4,1,1,30,0,0
286944,-66.6666666666667,4,1,1,30,0,0
287055,-400,4,1,1,30,0,0
287092,-66.6666666666667,4,1,1,30,0,0
287204,-400,4,1,1,30,0,0
287241,-66.6666666666667,4,1,1,30,0,0
287352,-400,4,1,1,30,0,0
287389,-66.6666666666667,4,1,1,30,0,0
287500,-400,4,1,1,30,0,0
287537,-66.6666666666667,4,1,1,30,0,0
287648,-400,4,1,1,30,0,0
287685,-66.6666666666667,4,1,1,30,0,0
287796,-400,4,1,1,30,0,0
287833,-66.6666666666667,4,1,1,30,0,0
287944,-400,4,1,1,30,0,0
287981,-66.6666666666667,4,1,1,30,0,0
288092,-100,4,1,1,30,0,0
288537,-133.333333333333,4,1,1,30,0,0
288981,-400,4,1,1,30,0,0
288981,-400,4,1,1,30,0,0
289018,-66.6666666666667,4,1,1,30,0,0
289129,-400,4,1,1,30,0,0
289166,-66.6666666666667,4,1,1,30,0,0
289277,-400,4,1,1,30,0,0
289314,-66.6666666666667,4,1,1,30,0,0
289425,-400,4,1,1,30,0,0
289462,-66.6666666666667,4,1,1,30,0,0
289573,-400,4,1,1,30,0,0
289610,-66.6666666666667,4,1,1,30,0,0
289722,-400,4,1,1,30,0,0
289759,-66.6666666666667,4,1,1,30,0,0
289870,-400,4,1,1,30,0,0
289907,-66.6666666666667,4,1,1,30,0,0
290018,-400,4,1,1,30,0,0
290055,-66.6666666666667,4,1,1,30,0,0
290166,-400,4,1,1,30,0,0
290203,-66.6666666666667,4,1,1,30,0,0
290314,-400,4,1,1,30,0,0
290351,-66.6666666666667,4,1,1,30,0,0
290462,-400,4,1,1,30,0,0
290499,-66.6666666666667,4,1,1,30,0,0
290610,-400,4,1,1,30,0,0
290647,-66.6666666666667,4,1,1,30,0,0
290759,-400,4,1,1,30,0,0
290796,-66.6666666666667,4,1,1,30,0,0
290907,-400,4,1,1,30,0,0
290944,-66.6666666666667,4,1,1,30,0,0
291055,-400,4,1,1,30,0,0
291092,-66.6666666666667,4,1,1,30,0,0
291203,-400,4,1,1,30,0,0
291240,-66.6666666666667,4,1,1,30,0,0
291351,-400,4,1,1,30,0,0
291388,-66.6666666666667,4,1,1,30,0,0
291499,-400,4,1,1,30,0,0
291536,-66.6666666666667,4,1,1,30,0,0
291648,-100,4,1,1,30,0,0
292092,-133.333333333333,4,1,1,30,0,0
292537,-400,4,1,1,30,0,0
292574,-66.6666666666667,4,1,1,30,0,0
292685,-400,4,1,1,30,0,0
292722,-66.6666666666667,4,1,1,30,0,0
292833,-400,4,1,1,30,0,0
292870,-66.6666666666667,4,1,1,30,0,0
292981,-400,4,1,1,30,0,0
293018,-66.6666666666667,4,1,1,30,0,0
293130,-400,4,1,1,30,0,0
293167,-66.6666666666667,4,1,1,30,0,0
293278,-400,4,1,1,30,0,0
293315,-66.6666666666667,4,1,1,30,0,0
293427,-100,4,1,1,30,0,0
293871,-133.333333333333,4,1,1,30,0,0
294316,-400,4,1,1,30,0,0
294353,-66.6666666666667,4,1,1,30,0,0
294464,-400,4,1,1,30,0,0
294501,-66.6666666666667,4,1,1,30,0,0
294612,-400,4,1,1,30,0,0
294649,-66.6666666666667,4,1,1,30,0,0
294760,-400,4,1,1,30,0,0
294797,-66.6666666666667,4,1,1,30,0,0
294909,-400,4,1,1,30,0,0
294946,-66.6666666666667,4,1,1,30,0,0
295057,-400,4,1,1,30,0,0
295094,-66.6666666666667,4,1,1,30,0,0
295204,-100,4,1,1,30,0,0
295648,-400,4,1,1,30,0,0
295685,-66.6666666666667,4,1,1,30,0,0
295796,-400,4,1,1,30,0,0
295833,-66.6666666666667,4,1,1,30,0,0
295944,-400,4,1,1,30,0,0
295981,-66.6666666666667,4,1,1,30,0,0
296092,-100,4,1,1,30,0,0
296537,-400,4,1,1,30,0,0
296574,-66.6666666666667,4,1,1,30,0,0
296685,-400,4,1,1,30,0,0
296722,-66.6666666666667,4,1,1,30,0,0
296833,-400,4,1,1,30,0,0
296870,-66.6666666666667,4,1,1,30,0,0
296981,-100,4,1,1,30,0,0
297426,-400,4,1,1,30,0,0
297463,-66.6666666666667,4,1,1,30,0,0
297574,-400,4,1,1,30,0,0
297611,-66.6666666666667,4,1,1,30,0,0
297722,-400,4,1,1,30,0,0
297759,-66.6666666666667,4,1,1,30,0,0
297870,-100,4,1,1,30,0,0
298315,-400,4,1,1,30,0,0
298352,-66.6666666666667,4,1,1,30,0,0
298463,-400,4,1,1,30,0,0
298500,-66.6666666666667,4,1,1,30,0,0
298611,-400,4,1,1,30,0,0
298648,-66.6666666666667,4,1,1,30,0,0
298759,-133.333333333333,4,1,1,30,0,0
299648,-100,4,1,1,30,0,0
302315,-133.333333333333,4,1,1,30,0,0
303204,-100,4,1,1,30,0,0
312982,-133.333333333333,4,1,1,30,0,0
313870,-100,4,1,1,30,0,0
316537,-133.333333333333,4,1,1,30,0,0
317426,-100,4,1,1,30,0,0
327204,-100,4,1,1,30,0,1
353870,-100,4,1,1,30,0,0

[HitObjects]
475,192,1871,128,0,2315:0:0:0:0:
182,192,2315,128,0,2759:0:0:0:0:
402,192,2759,128,0,3204:0:0:0:0:
109,192,3204,128,0,3648:0:0:0:0:
51,192,3648,128,0,5426:0:0:0:0:
256,192,4093,128,0,4982:0:0:0:0:
460,192,4537,128,0,5426:0:0:0:0:
153,192,4982,1,8,0:0:0:0:
358,192,4982,1,8,0:0:0:0:
402,192,5204,1,2,0:0:0:0:
256,192,5204,1,2,0:0:0:0:
109,192,5204,1,2,0:0:0:0:
256,192,5426,1,2,0:0:0:0:
109,192,5426,1,2,0:0:0:0:
402,192,5426,1,2,0:0:0:0:
51,192,6315,1,8,0:0:0:0:
460,192,6315,1,8,0:0:0:0:
256,192,6315,1,8,0:0:0:0:
256,192,7204,1,2,0:0:0:0:
182,192,7204,1,2,0:0:0:0:
329,192,7204,1,2,0:0:0:0:
109,192,8093,1,8,0:0:0:0:
402,192,8093,1,8,0:0:0:0:
256,192,8093,1,8,0:0:0:0:
256,192,8537,1,2,0:0:0:0:
329,192,8537,1,2,0:0:0:0:
182,192,8537,1,2,0:0:0:0:
256,192,8982,1,2,0:0:0:0:
182,192,8982,1,2,0:0:0:0:
329,192,8982,1,2,0:0:0:0:
36,192,9870,1,8,0:0:0:0:
109,192,9870,1,8,0:0:0:0:
329,192,9870,1,8,0:0:0:0:
329,192,10315,1,8,0:0:0:0:
475,192,10315,1,8,0:0:0:0:
182,192,10315,1,8,0:0:0:0:
256,192,10537,1,2,0:0:0:0:
402,192,10537,1,2,0:0:0:0:
109,192,10537,1,2,0:0:0:0:
329,192,10759,1,2,0:0:0:0:
36,192,10759,1,2,0:0:0:0:
182,192,10759,1,2,0:0:0:0:
256,192,11204,1,2,0:0:0:0:
329,192,11204,1,2,0:0:0:0:
475,192,11204,1,2,0:0:0:0:
182,192,11315,1,0,0:0:0:0:
109,192,11370,1,0,0:0:0:0:
36,192,11426,1,0,0:0:0:0:
402,192,11648,1,8,0:0:0:0:
475,192,11648,1,8,0:0:0:0:
329,192,11648,1,8,0:0:0:0:
36,192,12093,1,0,0:0:0:0:
109,192,12093,1,2,0:0:0:0:
182,192,12093,1,2,0:0:0:0:
109,192,12537,1,2,0:0:0:0:
36,192,12537,1,0,0:0:0:0:
182,192,12537,1,2,0:0:0:0:
329,192,12759,1,0,0:0:0:0:
182,192,12982,1,0,0:0:0:0:
475,192,13204,1,0,0:0:0:0:
256,192,13426,1,8,0:0:0:0:
402,192,13426,1,8,0:0:0:0:
329,192,13426,1,8,0:0:0:0:
182,192,13648,1,0,0:0:0:0:
109,192,13870,1,2,0:0:0:0:
475,192,13870,1,2,0:0:0:0:
402,192,13870,1,2,0:0:0:0:
36,192,14093,1,0,0:0:0:0:
256,192,14315,1,2,0:0:0:0:
182,192,14315,1,2,0:0:0:0:
329,192,14315,1,2,0:0:0:0:
109,192,14537,1,0,0:0:0:0:
402,192,14759,1,0,0:0:0:0:
329,192,14982,1,0,0:0:0:0:
256,192,15204,1,8,0:0:0:0:
475,192,15204,1,8,0:0:0:0:
36,192,15204,1,8,0:0:0:0:
109,192,15426,1,0,0:0:0:0:
36,192,15648,1,0,0:0:0:0:
402,192,15870,1,0,0:0:0:0:
109,192,16093,128,2,16759:0:0:0:0:
402,192,16315,1,0,0:0:0:0:
36,192,16537,128,0,16759:0:0:0:0:
475,192,16537,1,0,0:0:0:0:
182,192,16759,1,0,0:0:0:0:
329,192,16759,1,0,0:0:0:0:
256,192,16982,1,8,0:0:0:0:
402,192,16982,1,8,0:0:0:0:
475,192,16982,1,8,0:0:0:0:
329,192,17204,1,0,0:0:0:0:
36,192,17426,1,2,0:0:0:0:
182,192,17426,1,2,0:0:0:0:
109,192,17426,1,2,0:0:0:0:
402,192,17648,1,0,0:0:0:0:
36,192,17870,1,2,0:0:0:0:
182,192,17870,1,2,0:0:0:0:
109,192,17870,1,2,0:0:0:0:
329,192,18093,1,0,0:0:0:0:
475,192,18315,1,0,0:0:0:0:
402,192,18537,1,0,0:0:0:0:
109,192,18759,1,8,0:0:0:0:
256,192,18759,1,8,0:0:0:0:
182,192,18759,1,8,0:0:0:0:
329,192,18982,128,0,19648:0:0:0:0:
475,192,19204,128,0,19648:0:0:0:0:
182,192,19648,1,0,0:0:0:0:
182,192,19945,1,0,0:0:0:0:
182,192,20315,1,0,0:0:0:0:
329,192,20537,1,0,0:0:0:0:
182,192,20759,1,0,0:0:0:0:
402,192,20982,1,0,0:0:0:0:
109,192,21204,1,0,0:0:0:0:
329,192,21315,1,0,0:0:0:0:
402,192,21370,1,0,0:0:0:0:
475,192,21426,1,0,0:0:0:0:
182,192,21648,1,0,0:0:0:0:
329,192,21870,1,0,0:0:0:0:
109,192,22093,1,0,0:0:0:0:
475,192,22315,1,0,0:0:0:0:
182,192,22537,1,0,0:0:0:0:
329,192,22759,1,0,0:0:0:0:
109,192,22982,1,0,0:0:0:0:
182,192,23093,1,0,0:0:0:0:
329,192,23148,1,0,0:0:0:0:
402,192,23204,1,0,0:0:0:0:
182,192,23426,1,0,0:0:0:0:
329,192,23648,1,0,0:0:0:0:
36,192,23870,1,0,0:0:0:0:
182,192,24093,1,0,0:0:0:0:
475,192,24315,1,0,0:0:0:0:
329,192,24537,1,0,0:0:0:0:
36,192,24759,1,0,0:0:0:0:
475,192,24982,1,0,0:0:0:0:
329,192,25204,1,0,0:0:0:0:
36,192,25426,1,0,0:0:0:0:
182,192,25648,1,0,0:0:0:0:
475,192,25870,128,0,26093:0:0:0:0:
329,192,26093,1,0,0:0:0:0:
36,192,26315,128,0,26759:0:0:0:0:
182,192,26537,1,0,0:0:0:0:
182,192,26759,1,0,0:0:0:0:
329,192,26815,1,0,0:0:0:0:
475,192,26870,1,0,0:0:0:0:
109,192,26982,1,0,0:0:0:0:
182,192,27204,1,0,0:0:0:0:
36,192,27426,1,0,0:0:0:0:
182,192,27648,1,0,0:0:0:0:
329,192,27870,1,0,0:0:0:0:
36,192,28093,1,0,0:0:0:0:
256,192,28315,1,0,0:0:0:0:
402,192,28537,1,0,0:0:0:0:
329,192,28593,1,0,0:0:0:0:
256,192,28648,1,0,0:0:0:0:
182,192,28704,1,0,0:0:0:0:
109,192,28759,1,0,0:0:0:0:
256,192,28982,1,0,0:0:0:0:
109,192,29204,1,0,0:0:0:0:
36,192,29426,1,0,0:0:0:0:
256,192,29648,1,0,0:0:0:0:
109,192,29870,1,0,0:0:0:0:
36,192,30093,1,0,0:0:0:0:
182,192,30315,1,0,0:0:0:0:
256,192,30370,1,0,0:0:0:0:
329,192,30426,1,0,0:0:0:0:
402,192,30482,1,0,0:0:0:0:
475,192,30537,1,0,0:0:0:0:
475,192,30759,1,0,0:0:0:0:
256,192,30982,1,0,0:0:0:0:
36,192,31204,1,0,0:0:0:0:
475,192,31426,1,0,0:0:0:0:
256,192,31648,1,0,0:0:0:0:
36,192,31870,1,0,0:0:0:0:
475,192,32093,1,0,0:0:0:0:
256,192,32315,1,0,0:0:0:0:
36,192,32537,128,0,32759:0:0:0:0:
36,192,32982,1,0,0:0:0:0:
109,192,33037,1,0,0:0:0:0:
182,192,33093,1,0,0:0:0:0:
256,192,33148,1,0,0:0:0:0:
329,192,33204,1,0,0:0:0:0:
182,192,33426,128,0,33870:0:0:0:0:
402,192,33870,128,0,35648:0:0:0:0:
36,192,34093,1,0,0:0:0:0:
475,192,34315,1,0,0:0:0:0:
329,192,34537,1,0,0:0:0:0:
256,192,34759,1,0,0:0:0:0:
475,192,34982,1,0,0:0:0:0:
329,192,35204,1,0,0:0:0:0:
182,192,35426,1,0,0:0:0:0:
109,192,35648,128,0,37426:0:0:0:0:
36,192,35870,1,0,0:0:0:0:
475,192,36093,1,0,0:0:0:0:
182,192,36315,1,0,0:0:0:0:
256,192,36537,1,0,0:0:0:0:
475,192,36759,1,0,0:0:0:0:
402,192,36982,1,0,0:0:0:0:
36,192,37204,1,0,0:0:0:0:
329,192,37426,128,0,40982:0:0:0:0:
182,192,37648,1,0,0:0:0:0:
475,192,37870,1,0,0:0:0:0:
36,192,38093,1,0,0:0:0:0:
182,192,38315,128,0,39648:0:0:0:0:
475,192,38537,1,0,0:0:0:0:
36,192,38759,1,0,0:0:0:0:
109,192,38982,1,0,0:0:0:0:
402,192,39204,1,0,0:0:0:0:
36,192,39426,1,0,0:0:0:0:
475,192,39648,1,0,0:0:0:0:
109,192,40093,128,0,40537:0:0:0:0:
182,192,40537,1,0,0:0:0:0:
475,192,40982,128,0,42759:0:0:0:0:
182,192,41204,1,0,0:0:0:0:
402,192,41426,1,0,0:0:0:0:
109,192,41648,1,0,0:0:0:0:
36,192,41870,1,0,0:0:0:0:
402,192,42093,1,0,0:0:0:0:
256,192,42315,1,0,0:0:0:0:
109,192,42537,1,0,0:0:0:0:
36,192,42759,128,0,44537:0:0:0:0:
182,192,42982,1,0,0:0:0:0:
402,192,43204,1,0,0:0:0:0:
109,192,43426,1,0,0:0:0:0:
256,192,43648,128,0,45426:0:0:0:0:
475,192,43870,1,0,0:0:0:0:
182,192,44093,1,0,0:0:0:0:
109,192,44315,1,0,0:0:0:0:
402,192,44537,128,0,48093:0:0:0:0:
182,192,44759,1,0,0:0:0:0:
475,192,44982,1,0,0:0:0:0:
36,192,45204,1,0,0:0:0:0:
329,192,45426,1,0,0:0:0:0:
109,192,45426,128,0,48093:0:0:0:0:
182,192,45648,1,0,0:0:0:0:
475,192,45870,1,0,0:0:0:0:
36,192,46093,1,0,0:0:0:0:
329,192,46315,1,0,0:0:0:0:
182,192,46537,1,0,0:0:0:0:
36,192,46759,1,0,0:0:0:0:
475,192,46982,1,0,0:0:0:0:
256,192,47204,128,0,47426:0:0:0:0:
329,192,47648,1,0,0:0:0:0:
36,192,47870,1,0,0:0:0:0:
256,192,48093,1,2,0:0:0:0:
182,192,48093,1,2,0:0:0:0:
329,192,48093,1,2,0:0:0:0:
36,192,48315,1,0,0:0:0:0:
109,192,48537,1,0,0:0:0:0:
36,192,48759,1,0,0:0:0:0:
329,192,48982,1,8,0:0:0:0:
475,192,48982,1,8,0:0:0:0:
402,192,48982,1,8,0:0:0:0:
109,192,49204,1,0,0:0:0:0:
36,192,49426,1,0,0:0:0:0:
109,192,49648,1,0,0:0:0:0:
256,192,49870,1,2,0:0:0:0:
182,192,49870,1,2,0:0:0:0:
329,192,49870,1,2,0:0:0:0:
402,192,50093,1,0,0:0:0:0:
329,192,50315,1,0,0:0:0:0:
182,192,50537,1,0,0:0:0:0:
402,192,50759,1,8,0:0:0:0:
475,192,50759,1,8,0:0:0:0:
329,192,50759,1,8,0:0:0:0:
109,192,50982,1,0,0:0:0:0:
182,192,51204,1,0,0:0:0:0:
329,192,51426,1,0,0:0:0:0:
182,192,51648,1,2,0:0:0:0:
36,192,51648,1,2,0:0:0:0:
109,192,51648,1,2,0:0:0:0:
256,192,51870,1,0,0:0:0:0:
402,192,52093,1,0,0:0:0:0:
182,192,52315,1,0,0:0:0:0:
329,192,52537,1,8,0:0:0:0:
475,192,52537,1,8,0:0:0:0:
402,192,52537,1,8,0:0:0:0:
256,192,52759,1,0,0:0:0:0:
109,192,52982,1,0,0:0:0:0:
329,192,53204,1,0,0:0:0:0:
36,192,53426,1,2,0:0:0:0:
182,192,53426,1,2,0:0:0:0:
109,192,53426,1,2,0:0:0:0:
256,192,53648,1,0,0:0:0:0:
36,192,53759,1,2,0:0:0:0:
109,192,53759,1,2,0:0:0:0:
182,192,53759,1,2,0:0:0:0:
256,192,53870,1,0,0:0:0:0:
256,192,54093,128,2,54315:0:0:0:0:
36,192,54093,1,2,0:0:0:0:
402,192,54315,1,8,0:0:0:0:
329,192,54315,1,8,0:0:0:0:
475,192,54315,1,8,0:0:0:0:
182,192,54537,1,0,0:0:0:0:
256,192,54759,1,2,0:0:0:0:
402,192,54759,1,2,0:0:0:0:
329,192,54759,1,2,0:0:0:0:
109,192,54982,1,0,0:0:0:0:
256,192,55204,1,2,0:0:0:0:
402,192,55204,1,2,0:0:0:0:
329,192,55204,1,2,0:0:0:0:
36,192,55426,1,0,0:0:0:0:
182,192,55648,1,0,0:0:0:0:
109,192,55870,1,0,0:0:0:0:
402,192,56093,1,8,0:0:0:0:
36,192,56093,1,8,0:0:0:0:
475,192,56093,1,8,0:0:0:0:
329,192,56315,1,0,0:0:0:0:
256,192,56537,1,0,0:0:0:0:
402,192,56759,1,0,0:0:0:0:
402,192,56982,1,2,0:0:0:0:
182,192,56982,1,2,0:0:0:0:
109,192,56982,1,2,0:0:0:0:
329,192,57204,1,0,0:0:0:0:
402,192,57426,1,0,0:0:0:0:
256,192,57648,1,0,0:0:0:0:
109,192,57870,1,8,0:0:0:0:
475,192,57870,1,8,0:0:0:0:
402,192,57870,1,8,0:0:0:0:
182,192,58093,1,0,0:0:0:0:
256,192,58315,1,0,0:0:0:0:
36,192,58537,1,0,0:0:0:0:
402,192,58759,1,2,0:0:0:0:
256,192,58759,1,2,0:0:0:0:
329,192,58759,1,2,0:0:0:0:
182,192,58982,1,0,0:0:0:0:
109,192,59204,1,0,0:0:0:0:
36,192,59426,1,0,0:0:0:0:
109,192,59648,1,8,0:0:0:0:
475,192,59648,1,8,0:0:0:0:
402,192,59648,1,8,0:0:0:0:
329,192,59870,1,0,0:0:0:0:
182,192,60093,1,0,0:0:0:0:
36,192,60315,1,0,0:0:0:0:
329,192,60537,1,2,0:0:0:0:
475,192,60537,1,2,0:0:0:0:
402,192,60537,1,2,0:0:0:0:
256,192,60759,1,0,0:0:0:0:
182,192,60870,1,2,0:0:0:0:
36,192,60870,1,2,0:0:0:0:
109,192,60870,1,2,0:0:0:0:
256,192,60982,1,0,0:0:0:0:
475,192,61204,128,2,61426:0:0:0:0:
256,192,61204,1,2,0:0:0:0:
109,192,61426,1,8,0:0:0:0:
36,192,61426,1,8,0:0:0:0:
402,192,61426,1,8,0:0:0:0:
256,192,61648,1,0,0:0:0:0:
182,192,61870,1,2,0:0:0:0:
329,192,61870,1,2,0:0:0:0:
402,192,61870,1,2,0:0:0:0:
256,192,62093,1,0,0:0:0:0:
182,192,62315,1,2,0:0:0:0:
329,192,62315,1,2,0:0:0:0:
109,192,62315,1,2,0:0:0:0:
256,192,62537,1,0,0:0:0:0:
109,192,62759,1,0,0:0:0:0:
36,192,62982,1,0,0:0:0:0:
402,192,63204,1,8,0:0:0:0:
36,192,63204,1,8,0:0:0:0:
475,192,63204,1,8,0:0:0:0:
256,192,63426,1,0,0:0:0:0:
182,192,63648,1,0,0:0:0:0:
109,192,63870,1,0,0:0:0:0:
256,192,64093,1,2,0:0:0:0:
182,192,64093,1,2,0:0:0:0:
329,192,64093,1,2,0:0:0:0:
402,192,64315,1,0,0:0:0:0:
256,192,64537,1,0,0:0:0:0:
109,192,64759,1,0,0:0:0:0:
402,192,64982,1,8,0:0:0:0:
36,192,64982,1,8,0:0:0:0:
475,192,64982,1,8,0:0:0:0:
109,192,65204,1,0,0:0:0:0:
256,192,65426,1,0,0:0:0:0:
402,192,65648,1,0,0:0:0:0:
109,192,65870,1,2,0:0:0:0:
475,192,65870,1,2,0:0:0:0:
36,192,65870,1,2,0:0:0:0:
329,192,66093,1,0,0:0:0:0:
256,192,66315,1,0,0:0:0:0:
182,192,66537,1,0,0:0:0:0:
109,192,66759,1,8,0:0:0:0:
475,192,66759,1,8,0:0:0:0:
402,192,66759,1,8,0:0:0:0:
182,192,66982,1,0,0:0:0:0:
109,192,67204,1,0,0:0:0:0:
36,192,67426,1,0,0:0:0:0:
182,192,67648,1,2,0:0:0:0:
402,192,67648,1,2,0:0:0:0:
329,192,67648,1,2,0:0:0:0:
256,192,67870,1,0,0:0:0:0:
329,192,67982,1,2,0:0:0:0:
109,192,67982,1,2,0:0:0:0:
182,192,67982,1,2,0:0:0:0:
256,192,68093,1,0,0:0:0:0:
36,192,68315,128,2,68537:0:0:0:0:
256,192,68315,1,2,0:0:0:0:
329,192,68537,1,8,0:0:0:0:
475,192,68537,1,8,0:0:0:0:
402,192,68537,1,8,0:0:0:0:
182,192,68759,1,0,0:0:0:0:
256,192,68982,1,2,0:0:0:0:
402,192,68982,1,2,0:0:0:0:
329,192,68982,1,2,0:0:0:0:
109,192,69204,1,0,0:0:0:0:
182,192,69426,1,2,0:0:0:0:
329,192,69426,1,2,0:0:0:0:
256,192,69426,1,2,0:0:0:0:
36,192,69648,1,0,0:0:0:0:
329,192,69870,1,0,0:0:0:0:
182,192,70093,1,0,0:0:0:0:
329,192,70315,1,8,0:0:0:0:
475,192,70315,1,8,0:0:0:0:
402,192,70315,1,8,0:0:0:0:
256,192,70537,1,0,0:0:0:0:
475,192,70759,1,0,0:0:0:0:
36,192,70982,1,0,0:0:0:0:
182,192,71204,1,2,0:0:0:0:
109,192,71204,1,2,0:0:0:0:
402,192,71204,1,2,0:0:0:0:
329,192,71426,1,0,0:0:0:0:
36,192,71648,1,0,0:0:0:0:
182,192,71870,1,0,0:0:0:0:
402,192,72093,1,8,0:0:0:0:
475,192,72093,1,8,0:0:0:0:
329,192,72093,1,8,0:0:0:0:
256,192,72315,1,0,0:0:0:0:
182,192,72537,1,0,0:0:0:0:
329,192,72759,1,0,0:0:0:0:
36,192,72982,1,2,0:0:0:0:
109,192,72982,1,2,0:0:0:0:
475,192,72982,1,2,0:0:0:0:
402,192,73204,1,0,0:0:0:0:
109,192,73426,1,0,0:0:0:0:
256,192,73648,1,0,0:0:0:0:
402,192,73870,1,8,0:0:0:0:
475,192,73870,1,8,0:0:0:0:
36,192,73870,1,8,0:0:0:0:
256,192,74093,1,0,0:0:0:0:
109,192,74315,1,0,0:0:0:0:
402,192,74537,1,0,0:0:0:0:
402,192,74759,1,2,0:0:0:0:
475,192,74759,1,2,0:0:0:0:
256,192,74759,1,2,0:0:0:0:
256,192,74982,1,0,0:0:0:0:
329,192,75093,1,2,0:0:0:0:
36,192,75093,1,2,0:0:0:0:
109,192,75093,1,2,0:0:0:0:
256,192,75204,1,0,0:0:0:0:
256,192,75426,1,2,0:0:0:0:
182,192,75426,128,2,75648:0:0:0:0:
329,192,75648,1,8,0:0:0:0:
475,192,75648,1,8,0:0:0:0:
402,192,75648,1,8,0:0:0:0:
36,192,75870,1,0,0:0:0:0:
182,192,76093,1,2,0:0:0:0:
329,192,76093,1,2,0:0:0:0:
256,192,76093,1,0,0:0:0:0:
36,192,76315,1,0,0:0:0:0:
256,192,76537,128,0,77426:0:0:0:0:
182,192,77426,128,0,78093:0:0:0:0:
329,192,77722,128,0,78093:0:0:0:0:
402,192,77870,1,8,0:0:0:0:
475,192,77870,1,8,0:0:0:0:
109,192,78093,1,2,0:0:0:0:
402,192,78093,1,2,0:0:0:0:
256,192,78093,128,0,78315:0:0:0:0:
36,192,78315,1,2,0:0:0:0:
109,192,78315,1,2,0:0:0:0:
109,192,78537,1,0,0:0:0:0:
329,192,78759,128,0,79204:0:0:0:0:
256,192,78982,128,0,79204:0:0:0:0:
402,192,79204,1,8,0:0:0:0:
475,192,79204,1,8,0:0:0:0:
402,192,79426,1,0,0:0:0:0:
182,192,79648,128,0,80093:0:0:0:0:
256,192,79870,128,0,80093:0:0:0:0:
36,192,80093,1,2,0:0:0:0:
109,192,80093,1,2,0:0:0:0:
256,192,80315,128,0,80537:0:0:0:0:
182,192,80537,1,0,0:0:0:0:
109,192,80759,128,0,80982:0:0:0:0:
402,192,80982,1,8,0:0:0:0:
182,192,80982,1,8,0:0:0:0:
475,192,81204,1,0,0:0:0:0:
256,192,81426,1,2,0:0:0:0:
329,192,81426,1,2,0:0:0:0:
182,192,81648,1,0,0:0:0:0:
329,192,81759,1,0,0:0:0:0:
109,192,81870,1,2,0:0:0:0:
36,192,81870,1,2,0:0:0:0:
475,192,81982,1,0,0:0:0:0:
329,192,82093,128,0,82315:0:0:0:0:
36,192,82315,128,0,82759:0:0:0:0:
182,192,82759,128,8,83204:0:0:0:0:
256,192,82759,1,8,0:0:0:0:
402,192,82982,128,0,83204:0:0:0:0:
256,192,83204,1,8,0:0:0:0:
475,192,83204,128,8,83648:0:0:0:0:
402,192,83426,1,2,0:0:0:0:
109,192,83426,128,2,83648:0:0:0:0:
36,192,83648,1,2,0:0:0:0:
402,192,83648,1,2,0:0:0:0:
256,192,83759,1,0,0:0:0:0:
256,192,83870,1,0,0:0:0:0:
256,192,83982,1,0,0:0:0:0:
36,192,84093,1,2,0:0:0:0:
402,192,84093,1,2,0:0:0:0:
109,192,84204,1,0,0:0:0:0:
182,192,84259,1,0,0:0:0:0:
256,192,84315,128,0,84537:0:0:0:0:
329,192,84537,1,8,0:0:0:0:
182,192,84537,128,8,84759:0:0:0:0:
109,192,84759,128,0,84982:0:0:0:0:
182,192,84982,1,0,0:0:0:0:
329,192,84982,1,2,0:0:0:0:
402,192,84982,128,2,85204:0:0:0:0:
256,192,85204,128,0,85315:0:0:0:0:
329,192,85315,1,0,0:0:0:0:
182,192,85426,1,2,0:0:0:0:
475,192,85426,1,2,0:0:0:0:
36,192,85426,1,2,0:0:0:0:
109,192,85648,1,0,0:0:0:0:
402,192,85648,1,0,0:0:0:0:
36,192,85870,1,0,0:0:0:0:
329,192,85870,1,0,0:0:0:0:
182,192,86093,1,0,0:0:0:0:
475,192,86093,1,0,0:0:0:0:
109,192,86315,1,8,0:0:0:0:
402,192,86315,1,8,0:0:0:0:
256,192,86315,1,8,0:0:0:0:
36,192,86537,1,0,0:0:0:0:
329,192,86537,1,0,0:0:0:0:
256,192,86759,1,2,0:0:0:0:
475,192,86759,1,2,0:0:0:0:
109,192,86759,1,2,0:0:0:0:
182,192,86982,1,0,0:0:0:0:
402,192,86982,1,0,0:0:0:0:
109,192,87204,1,2,0:0:0:0:
329,192,87204,1,2,0:0:0:0:
475,192,87204,1,2,0:0:0:0:
329,192,87426,1,0,0:0:0:0:
36,192,87426,1,0,0:0:0:0:
109,192,87648,1,0,0:0:0:0:
402,192,87648,1,0,0:0:0:0:
182,192,87870,1,0,0:0:0:0:
475,192,87870,1,0,0:0:0:0:
402,192,88093,1,8,0:0:0:0:
475,192,88093,1,8,0:0:0:0:
256,192,88093,1,8,0:0:0:0:
36,192,88315,1,0,0:0:0:0:
109,192,88315,1,0,0:0:0:0:
329,192,88537,1,0,0:0:0:0:
402,192,88537,1,0,0:0:0:0:
182,192,88759,1,0,0:0:0:0:
109,192,88759,1,0,0:0:0:0:
256,192,88982,128,2,89648:0:0:0:0:
402,192,88982,1,2,0:0:0:0:
475,192,88982,1,2,0:0:0:0:
182,192,89426,128,0,89648:0:0:0:0:
402,192,89648,1,0,0:0:0:0:
475,192,89648,1,0,0:0:0:0:
256,192,89870,128,8,90093:0:0:0:0:
182,192,89870,128,8,90093:0:0:0:0:
36,192,89870,1,8,0:0:0:0:
36,192,90315,1,2,0:0:0:0:
182,192,90315,1,2,0:0:0:0:
402,192,90537,128,0,90759:0:0:0:0:
329,192,90537,128,0,90759:0:0:0:0:
36,192,90759,1,2,0:0:0:0:
109,192,90759,1,2,0:0:0:0:
182,192,90982,128,0,91204:0:0:0:0:
475,192,90982,1,0,0:0:0:0:
109,192,91204,1,0,0:0:0:0:
256,192,91204,1,0,0:0:0:0:
329,192,91426,128,0,91648:0:0:0:0:
36,192,91426,1,0,0:0:0:0:
402,192,91648,1,8,0:0:0:0:
256,192,91648,128,8,91870:0:0:0:0:
329,192,91870,128,0,92093:0:0:0:0:
182,192,91870,128,0,92093:0:0:0:0:
402,192,92093,128,0,92537:0:0:0:0:
109,192,92093,128,0,92537:0:0:0:0:
182,192,92537,1,0,0:0:0:0:
329,192,92537,128,0,96093:0:0:0:0:
36,192,92759,1,0,0:0:0:0:
182,192,92982,1,0,0:0:0:0:
36,192,93204,1,0,0:0:0:0:
182,192,93426,1,0,0:0:0:0:
36,192,93648,1,0,0:0:0:0:
182,192,93870,1,0,0:0:0:0:
36,192,94093,1,0,0:0:0:0:
182,192,94315,1,0,0:0:0:0:
36,192,94537,1,0,0:0:0:0:
182,192,94759,1,0,0:0:0:0:
36,192,94982,1,0,0:0:0:0:
182,192,95204,1,0,0:0:0:0:
36,192,95426,1,0,0:0:0:0:
182,192,95648,1,0,0:0:0:0:
36,192,95870,1,0,0:0:0:0:
475,192,96093,1,0,0:0:0:0:
182,192,96093,128,0,99648:0:0:0:0:
329,192,96315,1,0,0:0:0:0:
475,192,96537,1,0,0:0:0:0:
329,192,96759,1,0,0:0:0:0:
475,192,96982,1,0,0:0:0:0:
329,192,97204,1,0,0:0:0:0:
475,192,97426,1,0,0:0:0:0:
329,192,97648,1,0,0:0:0:0:
475,192,97870,1,0,0:0:0:0:
329,192,98093,1,0,0:0:0:0:
475,192,98315,1,0,0:0:0:0:
329,192,98537,1,0,0:0:0:0:
475,192,98759,1,0,0:0:0:0:
329,192,98982,1,0,0:0:0:0:
475,192,99204,1,0,0:0:0:0:
329,192,99426,1,0,0:0:0:0:
109,192,99648,1,0,0:0:0:0:
402,192,99648,128,0,101426:0:0:0:0:
256,192,99870,1,0,0:0:0:0:
475,192,100093,1,0,0:0:0:0:
256,192,100315,1,0,0:0:0:0:
109,192,100537,1,0,0:0:0:0:
256,192,100759,1,0,0:0:0:0:
475,192,100982,1,0,0:0:0:0:
256,192,101204,1,0,0:0:0:0:
182,192,101426,1,0,0:0:0:0:
475,192,101426,128,0,103204:0:0:0:0:
36,192,101648,1,0,0:0:0:0:
109,192,101870,1,0,0:0:0:0:
36,192,102093,1,0,0:0:0:0:
182,192,102315,1,0,0:0:0:0:
36,192,102537,1,0,0:0:0:0:
109,192,102759,1,0,0:0:0:0:
36,192,102982,1,0,0:0:0:0:
402,192,103204,1,0,0:0:0:0:
256,192,103204,128,0,104982:0:0:0:0:
402,192,103426,1,0,0:0:0:0:
109,192,103648,1,0,0:0:0:0:
109,192,103870,1,0,0:0:0:0:
402,192,104093,1,0,0:0:0:0:
402,192,104315,1,0,0:0:0:0:
109,192,104537,1,0,0:0:0:0:
109,192,104759,1,0,0:0:0:0:
475,192,104982,1,0,0:0:0:0:
329,192,104982,128,0,106759:0:0:0:0:
182,192,104982,128,0,106759:0:0:0:0:
36,192,104982,1,0,0:0:0:0:
402,192,105204,1,0,0:0:0:0:
109,192,105204,1,0,0:0:0:0:
475,192,105426,1,0,0:0:0:0:
36,192,105426,1,0,0:0:0:0:
402,192,105648,1,0,0:0:0:0:
109,192,105648,1,0,0:0:0:0:
475,192,105870,1,0,0:0:0:0:
36,192,105870,1,0,0:0:0:0:
402,192,106093,1,0,0:0:0:0:
109,192,106093,1,0,0:0:0:0:
475,192,106315,1,0,0:0:0:0:
36,192,106315,1,0,0:0:0:0:
402,192,106537,1,0,0:0:0:0:
109,192,106537,1,0,0:0:0:0:
36,192,106759,1,2,0:0:0:0:
109,192,106759,1,2,0:0:0:0:
402,192,106759,1,2,0:0:0:0:
475,192,106759,1,2,0:0:0:0:
182,192,106982,1,0,0:0:0:0:
256,192,107204,1,0,0:0:0:0:
182,192,107426,1,0,0:0:0:0:
36,192,107648,1,2,0:0:0:0:
109,192,107648,1,2,0:0:0:0:
402,192,107648,1,2,0:0:0:0:
475,192,107648,1,2,0:0:0:0:
182,192,107870,1,0,0:0:0:0:
329,192,108093,1,0,0:0:0:0:
182,192,108315,1,0,0:0:0:0:
36,192,108537,1,2,0:0:0:0:
109,192,108537,1,2,0:0:0:0:
402,192,108537,1,2,0:0:0:0:
475,192,108537,1,2,0:0:0:0:
182,192,108759,1,0,0:0:0:0:
402,192,108982,1,0,0:0:0:0:
182,192,109204,1,0,0:0:0:0:
36,192,109426,1,2,0:0:0:0:
109,192,109426,1,2,0:0:0:0:
402,192,109426,1,2,0:0:0:0:
475,192,109426,1,2,0:0:0:0:
182,192,109648,1,0,0:0:0:0:
475,192,109870,1,0,0:0:0:0:
182,192,110093,1,0,0:0:0:0:
36,192,110315,1,2,0:0:0:0:
109,192,110315,1,2,0:0:0:0:
402,192,110315,1,2,0:0:0:0:
475,192,110315,1,2,0:0:0:0:
329,192,110537,1,0,0:0:0:0:
256,192,110759,1,0,0:0:0:0:
329,192,110982,1,0,0:0:0:0:
36,192,111204,1,2,0:0:0:0:
109,192,111204,1,2,0:0:0:0:
402,192,111204,1,2,0:0:0:0:
475,192,111204,1,2,0:0:0:0:
329,192,111426,1,0,0:0:0:0:
182,192,111648,1,0,0:0:0:0:
329,192,111870,1,0,0:0:0:0:
36,192,112093,1,2,0:0:0:0:
109,192,112093,1,2,0:0:0:0:
402,192,112093,1,2,0:0:0:0:
475,192,112093,1,2,0:0:0:0:
329,192,112315,1,0,0:0:0:0:
109,192,112537,1,0,0:0:0:0:
329,192,112759,1,0,0:0:0:0:
36,192,112982,1,2,0:0:0:0:
109,192,112982,1,2,0:0:0:0:
402,192,112982,1,2,0:0:0:0:
475,192,112982,1,2,0:0:0:0:
329,192,113204,1,0,0:0:0:0:
36,192,113426,1,0,0:0:0:0:
329,192,113648,1,0,0:0:0:0:
109,192,113870,1,2,0:0:0:0:
182,192,113870,1,2,0:0:0:0:
329,192,113870,1,2,0:0:0:0:
402,192,113870,1,2,0:0:0:0:
256,192,114093,1,2,0:0:0:0:
182,192,114315,1,2,0:0:0:0:
36,192,114315,1,2,0:0:0:0:
329,192,114315,1,2,0:0:0:0:
475,192,114315,1,2,0:0:0:0:
256,192,114537,1,2,0:0:0:0:
182,192,114759,1,2,0:0:0:0:
109,192,114759,1,2,0:0:0:0:
402,192,114759,1,2,0:0:0:0:
329,192,114759,1,2,0:0:0:0:
256,192,114982,1,2,0:0:0:0:
329,192,115204,1,2,0:0:0:0:
475,192,115204,1,2,0:0:0:0:
182,192,115204,1,2,0:0:0:0:
36,192,115204,1,2,0:0:0:0:
256,192,115426,1,2,0:0:0:0:
402,192,115648,1,2,0:0:0:0:
329,192,115648,1,2,0:0:0:0:
182,192,115648,1,2,0:0:0:0:
109,192,115648,1,2,0:0:0:0:
256,192,115870,1,2,0:0:0:0:
182,192,116093,1,2,0:0:0:0:
36,192,116093,1,2,0:0:0:0:
329,192,116093,1,2,0:0:0:0:
475,192,116093,1,2,0:0:0:0:
256,192,116315,1,2,0:0:0:0:
182,192,116537,1,2,0:0:0:0:
109,192,116537,1,2,0:0:0:0:
402,192,116537,1,2,0:0:0:0:
329,192,116537,1,2,0:0:0:0:
256,192,116759,1,2,0:0:0:0:
329,192,116982,1,2,0:0:0:0:
475,192,116982,1,2,0:0:0:0:
182,192,116982,1,2,0:0:0:0:
36,192,116982,1,2,0:0:0:0:
256,192,117204,1,2,0:0:0:0:
402,192,117426,1,2,0:0:0:0:
329,192,117426,1,2,0:0:0:0:
256,192,117426,1,2,0:0:0:0:
109,192,117426,1,2,0:0:0:0:
256,192,117648,1,2,0:0:0:0:
109,192,117648,1,2,0:0:0:0:
475,192,117648,1,2,0:0:0:0:
402,192,117648,1,2,0:0:0:0:
109,192,117870,1,2,0:0:0:0:
36,192,117870,1,2,0:0:0:0:
182,192,117870,1,2,0:0:0:0:
329,192,117870,1,2,0:0:0:0:
329,192,118093,1,2,0:0:0:0:
475,192,118093,1,2,0:0:0:0:
182,192,118093,1,2,0:0:0:0:
36,192,118093,1,2,0:0:0:0:
402,192,118315,1,2,0:0:0:0:
329,192,118315,1,2,0:0:0:0:
475,192,118315,1,2,0:0:0:0:
109,192,118315,1,2,0:0:0:0:
182,192,118537,1,2,0:0:0:0:
109,192,118537,1,2,0:0:0:0:
402,192,118537,1,2,0:0:0:0:
329,192,118537,1,2,0:0:0:0:
256,192,118759,1,2,0:0:0:0:
36,192,118759,1,2,0:0:0:0:
329,192,118759,1,2,0:0:0:0:
475,192,118759,1,2,0:0:0:0:
329,192,118982,1,2,0:0:0:0:
475,192,118982,1,2,0:0:0:0:
182,192,118982,1,2,0:0:0:0:
36,192,118982,1,2,0:0:0:0:
402,192,119204,1,2,0:0:0:0:
329,192,119204,1,2,0:0:0:0:
182,192,119204,1,2,0:0:0:0:
109,192,119204,1,2,0:0:0:0:
182,192,119426,1,2,0:0:0:0:
36,192,119426,1,2,0:0:0:0:
109,192,119426,1,2,0:0:0:0:
329,192,119426,1,2,0:0:0:0:
402,192,119648,1,2,0:0:0:0:
182,192,119648,1,2,0:0:0:0:
36,192,119648,1,2,0:0:0:0:
329,192,119648,1,2,0:0:0:0:
329,192,119870,1,2,0:0:0:0:
475,192,119870,1,2,0:0:0:0:
109,192,119870,1,2,0:0:0:0:
402,192,119870,1,2,0:0:0:0:
402,192,120093,1,2,0:0:0:0:
256,192,120093,1,2,0:0:0:0:
182,192,120093,1,2,0:0:0:0:
109,192,120093,1,2,0:0:0:0:
182,192,120315,1,2,0:0:0:0:
109,192,120315,1,2,0:0:0:0:
402,192,120315,1,2,0:0:0:0:
329,192,120315,1,2,0:0:0:0:
109,192,120537,1,10,0:0:0:0:
256,192,120537,1,10,0:0:0:0:
36,192,120537,1,10,0:0:0:0:
329,192,120537,1,10,0:0:0:0:
475,192,120537,1,10,0:0:0:0:
475,192,120982,1,2,0:0:0:0:
182,192,120982,1,2,0:0:0:0:
36,192,120982,1,2,0:0:0:0:
256,192,120982,1,2,0:0:0:0:
329,192,120982,128,2,121426:0:0:0:0:
256,192,121426,1,2,0:0:0:0:
36,192,121426,1,2,0:0:0:0:
402,192,121426,1,2,0:0:0:0:
475,192,121426,1,2,0:0:0:0:
109,192,121426,128,2,121870:0:0:0:0:
329,192,121870,1,0,0:0:0:0:
475,192,121870,1,0,0:0:0:0:
36,192,121870,1,0,0:0:0:0:
256,192,121870,1,0,0:0:0:0:
109,192,122019,1,0,0:0:0:0:
402,192,122167,1,0,0:0:0:0:
109,192,122315,1,0,0:0:0:0:
402,192,122463,1,0,0:0:0:0:
109,192,122611,1,0,0:0:0:0:
182,192,122759,1,2,0:0:0:0:
329,192,122759,1,2,0:0:0:0:
36,192,122759,1,2,0:0:0:0:
475,192,122759,1,2,0:0:0:0:
109,192,122908,1,0,0:0:0:0:
402,192,123056,1,0,0:0:0:0:
109,192,123204,1,0,0:0:0:0:
402,192,123352,1,0,0:0:0:0:
109,192,123500,1,0,0:0:0:0:
329,192,123648,1,8,0:0:0:0:
36,192,123648,1,8,0:0:0:0:
182,192,123648,1,8,0:0:0:0:
475,192,123648,1,8,0:0:0:0:
36,192,123796,1,0,0:0:0:0:
475,192,123945,1,0,0:0:0:0:
36,192,124093,1,0,0:0:0:0:
475,192,124241,1,0,0:0:0:0:
36,192,124389,1,0,0:0:0:0:
36,192,124537,1,2,0:0:0:0:
109,192,124537,1,2,0:0:0:0:
475,192,124537,1,2,0:0:0:0:
256,192,124537,1,2,0:0:0:0:
329,192,124537,128,2,124982:0:0:0:0:
256,192,124982,1,2,0:0:0:0:
182,192,124982,1,2,0:0:0:0:
475,192,124982,1,2,0:0:0:0:
36,192,124982,128,2,125426:0:0:0:0:
402,192,124982,1,2,0:0:0:0:
182,192,125426,1,8,0:0:0:0:
329,192,125426,1,8,0:0:0:0:
475,192,125426,1,8,0:0:0:0:
109,192,125426,1,8,0:0:0:0:
402,192,125574,1,0,0:0:0:0:
256,192,125722,1,0,0:0:0:0:
402,192,125870,1,0,0:0:0:0:
256,192,126019,1,0,0:0:0:0:
402,192,126167,1,0,0:0:0:0:
36,192,126315,1,2,0:0:0:0:
109,192,126315,1,2,0:0:0:0:
329,192,126315,1,2,0:0:0:0:
256,192,126315,1,2,0:0:0:0:
402,192,126463,1,0,0:0:0:0:
109,192,126611,1,0,0:0:0:0:
402,192,126759,1,0,0:0:0:0:
109,192,126908,1,0,0:0:0:0:
402,192,127056,1,0,0:0:0:0:
109,192,127204,1,8,0:0:0:0:
182,192,127204,1,8,0:0:0:0:
329,192,127204,1,8,0:0:0:0:
475,192,127204,1,8,0:0:0:0:
402,192,127352,1,0,0:0:0:0:
36,192,127500,1,0,0:0:0:0:
475,192,127648,1,0,0:0:0:0:
109,192,127796,1,0,0:0:0:0:
402,192,127945,1,0,0:0:0:0:
36,192,128093,1,2,0:0:0:0:
329,192,128093,1,2,0:0:0:0:
182,192,128093,1,2,0:0:0:0:
475,192,128093,1,2,0:0:0:0:
256,192,128093,128,2,128537:0:0:0:0:
109,192,128537,1,2,0:0:0:0:
36,192,128537,1,2,0:0:0:0:
475,192,128537,1,2,0:0:0:0:
402,192,128537,1,2,0:0:0:0:
402,192,128759,1,2,0:0:0:0:
109,192,128759,1,2,0:0:0:0:
182,192,128759,1,2,0:0:0:0:
329,192,128759,1,2,0:0:0:0:
36,192,128982,1,8,0:0:0:0:
329,192,128982,1,8,0:0:0:0:
182,192,128982,1,8,0:0:0:0:
475,192,128982,1,8,0:0:0:0:
109,192,129130,1,0,0:0:0:0:
182,192,129278,1,0,0:0:0:0:
256,192,129426,1,0,0:0:0:0:
329,192,129574,1,0,0:0:0:0:
402,192,129722,1,0,0:0:0:0:
109,192,129870,1,2,0:0:0:0:
329,192,129870,1,2,0:0:0:0:
182,192,129870,1,2,0:0:0:0:
475,192,129870,1,2,0:0:0:0:
256,192,129870,128,2,130315:0:0:0:0:
329,192,130315,1,2,0:0:0:0:
475,192,130315,1,2,0:0:0:0:
36,192,130315,1,2,0:0:0:0:
109,192,130315,1,2,0:0:0:0:
475,192,130537,1,2,0:0:0:0:
256,192,130537,1,2,0:0:0:0:
402,192,130537,1,2,0:0:0:0:
36,192,130537,1,2,0:0:0:0:
402,192,130759,1,8,0:0:0:0:
109,192,130759,1,8,0:0:0:0:
256,192,130759,1,8,0:0:0:0:
182,192,130759,1,8,0:0:0:0:
329,192,130908,1,0,0:0:0:0:
256,192,131056,1,0,0:0:0:0:
182,192,131204,1,0,0:0:0:0:
109,192,131352,1,0,0:0:0:0:
36,192,131500,1,0,0:0:0:0:
402,192,131648,1,2,0:0:0:0:
475,192,131648,1,2,0:0:0:0:
329,192,131648,1,2,0:0:0:0:
109,192,131648,128,2,132093:0:0:0:0:
182,192,132093,1,0,0:0:0:0:
256,192,132241,1,0,0:0:0:0:
329,192,132389,1,0,0:0:0:0:
36,192,132537,1,8,0:0:0:0:
475,192,132537,1,8,0:0:0:0:
402,192,132537,1,8,0:0:0:0:
182,192,132537,128,8,132982:0:0:0:0:
256,192,132982,1,0,0:0:0:0:
329,192,133130,1,0,0:0:0:0:
402,192,133278,1,0,0:0:0:0:
256,192,133426,1,2,0:0:0:0:
475,192,133426,1,2,0:0:0:0:
109,192,133426,1,2,0:0:0:0:
329,192,133426,128,2,133870:0:0:0:0:
109,192,133870,1,2,0:0:0:0:
182,192,133870,1,2,0:0:0:0:
36,192,133870,1,2,0:0:0:0:
256,192,134019,1,0,0:0:0:0:
329,192,134167,1,2,0:0:0:0:
402,192,134315,1,8,0:0:0:0:
182,192,134315,1,8,0:0:0:0:
109,192,134315,1,8,0:0:0:0:
475,192,134315,128,8,134759:0:0:0:0:
109,192,134759,1,2,0:0:0:0:
256,192,134759,1,2,0:0:0:0:
36,192,134759,1,2,0:0:0:0:
402,192,134759,1,2,0:0:0:0:
182,192,134908,1,0,0:0:0:0:
329,192,134908,1,0,0:0:0:0:
256,192,135056,1,2,0:0:0:0:
402,192,135056,1,2,0:0:0:0:
109,192,135056,1,2,0:0:0:0:
475,192,135204,128,2,135648:0:0:0:0:
36,192,135204,1,2,0:0:0:0:
329,192,135204,1,2,0:0:0:0:
182,192,135204,1,2,0:0:0:0:
329,192,135648,1,2,0:0:0:0:
109,192,135648,128,2,136093:0:0:0:0:
402,192,135648,1,2,0:0:0:0:
256,192,135648,1,2,0:0:0:0:
36,192,135648,1,2,0:0:0:0:
256,192,136093,1,8,0:0:0:0:
182,192,136093,1,8,0:0:0:0:
475,192,136093,1,8,0:0:0:0:
402,192,136093,1,8,0:0:0:0:
36,192,136241,1,0,0:0:0:0:
402,192,136389,1,0,0:0:0:0:
109,192,136537,1,0,0:0:0:0:
475,192,136685,1,0,0:0:0:0:
182,192,136833,1,0,0:0:0:0:
36,192,136982,1,2,0:0:0:0:
475,192,136982,1,2,0:0:0:0:
402,192,136982,1,2,0:0:0:0:
329,192,136982,1,2,0:0:0:0:
182,192,137130,1,0,0:0:0:0:
402,192,137278,1,0,0:0:0:0:
256,192,137426,1,0,0:0:0:0:
475,192,137574,1,0,0:0:0:0:
329,192,137722,1,0,0:0:0:0:
402,192,137870,1,8,0:0:0:0:
256,192,137870,1,8,0:0:0:0:
109,192,137870,1,8,0:0:0:0:
182,192,137870,1,8,0:0:0:0:
36,192,138019,1,0,0:0:0:0:
329,192,138167,1,0,0:0:0:0:
182,192,138315,1,0,0:0:0:0:
475,192,138463,1,0,0:0:0:0:
329,192,138611,1,0,0:0:0:0:
256,192,138759,1,2,0:0:0:0:
182,192,138759,128,2,139204:0:0:0:0:
475,192,138759,1,2,0:0:0:0:
36,192,138759,1,2,0:0:0:0:
109,192,138759,1,2,0:0:0:0:
475,192,139204,1,2,0:0:0:0:
36,192,139204,128,2,139648:0:0:0:0:
402,192,139204,1,2,0:0:0:0:
256,192,139204,1,2,0:0:0:0:
329,192,139204,1,2,0:0:0:0:
475,192,139648,1,8,0:0:0:0:
329,192,139648,1,8,0:0:0:0:
182,192,139648,1,8,0:0:0:0:
109,192,139648,1,8,0:0:0:0:
402,192,139796,1,0,0:0:0:0:
402,192,139945,1,0,0:0:0:0:
109,192,140093,1,0,0:0:0:0:
109,192,140241,1,0,0:0:0:0:
402,192,140389,1,0,0:0:0:0:
256,192,140537,1,2,0:0:0:0:
475,192,140537,1,2,0:0:0:0:
329,192,140537,1,2,0:0:0:0:
36,192,140537,1,2,0:0:0:0:
182,192,140685,1,0,0:0:0:0:
182,192,140833,1,0,0:0:0:0:
329,192,140982,1,0,0:0:0:0:
329,192,141130,1,0,0:0:0:0:
475,192,141278,1,0,0:0:0:0:
109,192,141426,1,8,0:0:0:0:
329,192,141426,1,8,0:0:0:0:
182,192,141426,1,8,0:0:0:0:
36,192,141426,1,8,0:0:0:0:
402,192,141574,1,0,0:0:0:0:
402,192,141722,1,0,0:0:0:0:
36,192,141870,1,0,0:0:0:0:
36,192,142019,1,0,0:0:0:0:
402,192,142167,1,0,0:0:0:0:
475,192,142315,1,2,0:0:0:0:
256,192,142315,128,2,142759:0:0:0:0:
182,192,142315,1,2,0:0:0:0:
109,192,142315,1,2,0:0:0:0:
329,192,142315,1,2,0:0:0:0:
475,192,142759,1,2,0:0:0:0:
182,192,142759,1,2,0:0:0:0:
329,192,142759,1,2,0:0:0:0:
36,192,142759,1,2,0:0:0:0:
475,192,142982,1,2,0:0:0:0:
182,192,142982,1,2,0:0:0:0:
36,192,142982,1,2,0:0:0:0:
329,192,142982,1,2,0:0:0:0:
475,192,143204,1,8,0:0:0:0:
109,192,143204,1,8,0:0:0:0:
402,192,143204,1,8,0:0:0:0:
36,192,143204,1,8,0:0:0:0:
256,192,143352,1,0,0:0:0:0:
109,192,143500,1,0,0:0:0:0:
329,192,143648,1,0,0:0:0:0:
182,192,143796,1,0,0:0:0:0:
402,192,143945,1,0,0:0:0:0:
475,192,144093,1,2,0:0:0:0:
256,192,144093,128,2,144537:0:0:0:0:
182,192,144093,1,2,0:0:0:0:
109,192,144093,1,2,0:0:0:0:
329,192,144093,1,2,0:0:0:0:
475,192,144537,1,2,0:0:0:0:
329,192,144537,1,2,0:0:0:0:
402,192,144537,1,2,0:0:0:0:
182,192,144537,1,2,0:0:0:0:
36,192,144759,1,2,0:0:0:0:
402,192,144759,1,2,0:0:0:0:
109,192,144759,1,2,0:0:0:0:
329,192,144759,1,2,0:0:0:0:
182,192,144982,1,8,0:0:0:0:
256,192,144982,1,8,0:0:0:0:
475,192,144982,1,8,0:0:0:0:
36,192,144982,1,8,0:0:0:0:
329,192,145130,1,0,0:0:0:0:
402,192,145278,1,0,0:0:0:0:
256,192,145426,1,0,0:0:0:0:
329,192,145574,1,0,0:0:0:0:
182,192,145722,1,0,0:0:0:0:
256,192,145870,1,2,0:0:0:0:
109,192,145870,128,2,146315:0:0:0:0:
402,192,145870,1,2,0:0:0:0:
475,192,145870,1,2,0:0:0:0:
182,192,146315,1,2,0:0:0:0:
36,192,146315,1,2,0:0:0:0:
329,192,146315,1,2,0:0:0:0:
256,192,146463,1,0,0:0:0:0:
329,192,146611,1,0,0:0:0:0:
36,192,146759,1,2,0:0:0:0:
182,192,146759,128,2,147204:0:0:0:0:
402,192,146759,1,2,0:0:0:0:
475,192,146759,1,2,0:0:0:0:
256,192,147204,1,8,0:0:0:0:
402,192,147204,1,8,0:0:0:0:
36,192,147204,1,8,0:0:0:0:
475,192,147204,1,8,0:0:0:0:
36,192,147426,1,2,0:0:0:0:
109,192,147426,1,2,0:0:0:0:
256,192,147426,1,2,0:0:0:0:
475,192,147648,1,0,0:0:0:0:
36,192,147648,1,2,0:0:0:0:
256,192,147648,1,2,0:0:0:0:
109,192,147648,128,2,147870:0:0:0:0:
402,192,147870,128,0,148093:0:0:0:0:
109,192,148093,128,0,148315:0:0:0:0:
402,192,148315,128,0,148537:0:0:0:0:
109,192,148537,128,0,148759:0:0:0:0:
256,192,148759,128,2,148982:0:0:0:0:
36,192,148759,1,2,0:0:0:0:
402,192,148759,1,2,0:0:0:0:
475,192,148759,1,2,0:0:0:0:
182,192,148982,1,8,0:0:0:0:
329,192,148982,1,8,0:0:0:0:
402,192,148982,128,8,149426:0:0:0:0:
109,192,148982,1,8,0:0:0:0:
109,192,149204,1,0,0:0:0:0:
256,192,149426,1,2,0:0:0:0:
182,192,149426,1,2,0:0:0:0:
475,192,149426,1,2,0:0:0:0:
36,192,149537,1,0,0:0:0:0:
329,192,149648,1,0,0:0:0:0:
36,192,149759,1,0,0:0:0:0:
256,192,149870,1,2,0:0:0:0:
182,192,149870,1,2,0:0:0:0:
475,192,149870,128,2,150093:0:0:0:0:
36,192,149982,1,0,0:0:0:0:
329,192,150093,128,0,150315:0:0:0:0:
109,192,150204,1,0,0:0:0:0:
256,192,150315,1,8,0:0:0:0:
36,192,150315,1,8,0:0:0:0:
475,192,150315,1,8,0:0:0:0:
402,192,150426,1,0,0:0:0:0:
182,192,150537,1,0,0:0:0:0:
475,192,150648,1,0,0:0:0:0:
109,192,150759,128,0,150982:0:0:0:0:
402,192,150870,1,0,0:0:0:0:
182,192,150982,128,0,151204:0:0:0:0:
475,192,151093,1,0,0:0:0:0:
256,192,151204,1,2,0:0:0:0:
36,192,151204,1,2,0:0:0:0:
402,192,151204,1,2,0:0:0:0:
329,192,151315,1,0,0:0:0:0:
109,192,151426,1,0,0:0:0:0:
36,192,151426,128,0,151648:0:0:0:0:
402,192,151537,1,0,0:0:0:0:
182,192,151648,1,0,0:0:0:0:
329,192,151759,1,0,0:0:0:0:
109,192,151870,1,0,0:0:0:0:
402,192,151982,1,0,0:0:0:0:
109,192,152093,1,8,0:0:0:0:
475,192,152093,1,8,0:0:0:0:
256,192,152093,128,8,152315:0:0:0:0:
36,192,152204,1,0,0:0:0:0:
329,192,152315,1,0,0:0:0:0:
475,192,152315,128,0,152537:0:0:0:0:
36,192,152426,1,0,0:0:0:0:
402,192,152537,1,0,0:0:0:0:
182,192,152537,128,0,152982:0:0:0:0:
109,192,152648,1,0,0:0:0:0:
402,192,152759,1,0,0:0:0:0:
109,192,152870,1,0,0:0:0:0:
329,192,152982,1,2,0:0:0:0:
475,192,152982,1,2,0:0:0:0:
36,192,152982,1,2,0:0:0:0:
256,192,153093,1,0,0:0:0:0:
402,192,153093,1,2,0:0:0:0:
182,192,153204,1,0,0:0:0:0:
329,192,153204,1,2,0:0:0:0:
109,192,153315,1,0,0:0:0:0:
36,192,153426,1,2,0:0:0:0:
475,192,153426,1,2,0:0:0:0:
402,192,153426,1,2,0:0:0:0:
329,192,153537,1,0,0:0:0:0:
182,192,153648,1,0,0:0:0:0:
36,192,153759,1,0,0:0:0:0:
475,192,153870,1,8,0:0:0:0:
256,192,153870,1,8,0:0:0:0:
329,192,153870,128,8,154093:0:0:0:0:
109,192,153982,1,0,0:0:0:0:
402,192,154093,128,0,154315:0:0:0:0:
36,192,154204,1,0,0:0:0:0:
475,192,154315,128,0,154537:0:0:0:0:
109,192,154426,1,0,0:0:0:0:
329,192,154537,128,0,154759:0:0:0:0:
36,192,154648,1,0,0:0:0:0:
182,192,154759,1,2,0:0:0:0:
109,192,154759,1,2,0:0:0:0:
402,192,154759,1,2,0:0:0:0:
256,192,154870,1,0,0:0:0:0:
256,192,154982,1,0,0:0:0:0:
256,192,155093,1,0,0:0:0:0:
36,192,155204,1,0,0:0:0:0:
256,192,155315,1,0,0:0:0:0:
329,192,155370,1,0,0:0:0:0:
402,192,155426,1,0,0:0:0:0:
475,192,155537,1,0,0:0:0:0:
329,192,155648,1,8,0:0:0:0:
256,192,155648,1,8,0:0:0:0:
109,192,155648,128,8,155870:0:0:0:0:
402,192,155759,1,0,0:0:0:0:
36,192,155870,128,0,156093:0:0:0:0:
475,192,155870,1,0,0:0:0:0:
182,192,155982,1,0,0:0:0:0:
475,192,156093,128,0,156315:0:0:0:0:
329,192,156093,1,0,0:0:0:0:
109,192,156204,1,0,0:0:0:0:
182,192,156315,1,0,0:0:0:0:
402,192,156315,1,0,0:0:0:0:
36,192,156426,1,0,0:0:0:0:
329,192,156426,1,0,0:0:0:0:
402,192,156537,1,2,0:0:0:0:
475,192,156537,1,2,0:0:0:0:
256,192,156537,1,2,0:0:0:0:
109,192,156759,1,0,0:0:0:0:
402,192,156759,1,0,0:0:0:0:
36,192,156982,1,2,0:0:0:0:
256,192,156982,1,2,0:0:0:0:
109,192,156982,1,2,0:0:0:0:
475,192,157204,1,0,0:0:0:0:
182,192,157204,1,0,0:0:0:0:
256,192,157426,1,8,0:0:0:0:
109,192,157426,1,8,0:0:0:0:
402,192,157426,1,8,0:0:0:0:
329,192,157648,1,0,0:0:0:0:
36,192,157648,1,0,0:0:0:0:
475,192,157870,1,2,0:0:0:0:
109,192,157870,1,2,0:0:0:0:
256,192,157870,1,2,0:0:0:0:
182,192,158093,1,0,0:0:0:0:
402,192,158093,1,0,0:0:0:0:
475,192,158315,1,2,0:0:0:0:
329,192,158315,1,2,0:0:0:0:
109,192,158315,1,2,0:0:0:0:
329,192,158537,1,0,0:0:0:0:
36,192,158537,1,0,0:0:0:0:
402,192,158759,1,2,0:0:0:0:
256,192,158759,1,2,0:0:0:0:
36,192,158759,1,2,0:0:0:0:
182,192,158982,1,0,0:0:0:0:
475,192,158982,1,0,0:0:0:0:
256,192,159204,1,8,0:0:0:0:
402,192,159204,1,8,0:0:0:0:
475,192,159204,128,8,159648:0:0:0:0:
36,192,159426,1,0,0:0:0:0:
109,192,159426,1,0,0:0:0:0:
402,192,159648,1,0,0:0:0:0:
329,192,159648,128,0,160093:0:0:0:0:
109,192,159870,1,0,0:0:0:0:
182,192,159870,1,0,0:0:0:0:
402,192,160093,1,2,0:0:0:0:
475,192,160093,1,2,0:0:0:0:
256,192,160093,128,2,160759:0:0:0:0:
109,192,160315,1,0,0:0:0:0:
182,192,160537,128,0,160759:0:0:0:0:
36,192,160537,1,0,0:0:0:0:
402,192,160759,1,0,0:0:0:0:
475,192,160759,128,0,161204:0:0:0:0:
36,192,160982,1,8,0:0:0:0:
256,192,160982,128,8,161204:0:0:0:0:
182,192,160982,128,8,161204:0:0:0:0:
109,192,161315,1,0,0:0:0:0:
182,192,161426,1,0,0:0:0:0:
36,192,161426,128,0,161870:0:0:0:0:
402,192,161648,128,0,161870:0:0:0:0:
329,192,161648,128,0,161870:0:0:0:0:
109,192,161870,1,2,0:0:0:0:
256,192,161870,1,2,0:0:0:0:
182,192,161870,1,2,0:0:0:0:
256,192,161982,1,0,0:0:0:0:
475,192,162093,1,0,0:0:0:0:
182,192,162093,128,0,162759:0:0:0:0:
109,192,162315,1,0,0:0:0:0:
256,192,162315,1,0,0:0:0:0:
36,192,162537,1,0,0:0:0:0:
329,192,162537,128,0,162759:0:0:0:0:
256,192,162759,128,8,163426:0:0:0:0:
402,192,162759,1,8,0:0:0:0:
109,192,162759,1,8,0:0:0:0:
475,192,162982,128,0,163204:0:0:0:0:
36,192,162982,128,0,163204:0:0:0:0:
402,192,163204,128,0,163648:0:0:0:0:
109,192,163204,128,0,163648:0:0:0:0:
329,192,163648,1,2,0:0:0:0:
182,192,163648,1,2,0:0:0:0:
256,192,163648,1,2,0:0:0:0:
109,192,163759,1,0,0:0:0:0:
402,192,163870,1,0,0:0:0:0:
109,192,163982,1,0,0:0:0:0:
182,192,164093,1,2,0:0:0:0:
329,192,164093,1,2,0:0:0:0:
36,192,164093,128,2,164315:0:0:0:0:
256,192,164204,1,0,0:0:0:0:
402,192,164315,128,0,164537:0:0:0:0:
182,192,164426,1,0,0:0:0:0:
109,192,164537,1,8,0:0:0:0:
329,192,164537,1,8,0:0:0:0:
36,192,164537,1,8,0:0:0:0:
475,192,164648,1,0,0:0:0:0:
256,192,164759,1,0,0:0:0:0:
36,192,164870,1,0,0:0:0:0:
182,192,164982,128,0,165204:0:0:0:0:
475,192,165093,1,0,0:0:0:0:
256,192,165204,128,0,165426:0:0:0:0:
36,192,165315,1,0,0:0:0:0:
475,192,165426,1,2,0:0:0:0:
182,192,165426,1,2,0:0:0:0:
109,192,165426,1,2,0:0:0:0:
402,192,165537,1,0,0:0:0:0:
109,192,165648,128,0,165870:0:0:0:0:
182,192,165648,1,0,0:0:0:0:
475,192,165759,1,0,0:0:0:0:
256,192,165870,1,0,0:0:0:0:
402,192,165982,1,0,0:0:0:0:
182,192,166093,1,0,0:0:0:0:
475,192,166204,1,0,0:0:0:0:
256,192,166315,1,8,0:0:0:0:
109,192,166315,128,8,166537:0:0:0:0:
402,192,166315,1,8,0:0:0:0:
329,192,166426,1,0,0:0:0:0:
36,192,166537,1,0,0:0:0:0:
402,192,166537,128,0,166759:0:0:0:0:
329,192,166648,1,0,0:0:0:0:
475,192,166759,1,0,0:0:0:0:
256,192,166759,128,0,167204:0:0:0:0:
182,192,166870,1,0,0:0:0:0:
475,192,166982,1,0,0:0:0:0:
182,192,167093,1,0,0:0:0:0:
109,192,167204,1,2,0:0:0:0:
402,192,167204,1,2,0:0:0:0:
36,192,167204,1,2,0:0:0:0:
329,192,167315,1,0,0:0:0:0:
475,192,167315,1,0,0:0:0:0:
256,192,167426,1,0,0:0:0:0:
402,192,167426,1,0,0:0:0:0:
182,192,167537,1,0,0:0:0:0:
109,192,167648,1,2,0:0:0:0:
475,192,167648,1,2,0:0:0:0:
36,192,167648,1,2,0:0:0:0:
402,192,167759,1,0,0:0:0:0:
256,192,167870,1,0,0:0:0:0:
109,192,167982,1,0,0:0:0:0:
329,192,168093,1,0,0:0:0:0:
402,192,168093,128,0,168315:0:0:0:0:
36,192,168093,1,0,0:0:0:0:
182,192,168204,1,0,0:0:0:0:
475,192,168315,128,0,168537:0:0:0:0:
109,192,168426,1,0,0:0:0:0:
36,192,168537,128,0,168759:0:0:0:0:
182,192,168648,1,0,0:0:0:0:
402,192,168759,128,0,168982:0:0:0:0:
109,192,168870,1,0,0:0:0:0:
182,192,168982,1,2,0:0:0:0:
256,192,168982,1,2,0:0:0:0:
475,192,168982,1,2,0:0:0:0:
329,192,169093,1,0,0:0:0:0:
329,192,169204,1,0,0:0:0:0:
329,192,169315,1,0,0:0:0:0:
109,192,169426,1,0,0:0:0:0:
329,192,169537,1,0,0:0:0:0:
402,192,169593,1,0,0:0:0:0:
475,192,169648,1,0,0:0:0:0:
36,192,169759,1,0,0:0:0:0:
329,192,169870,1,8,0:0:0:0:
182,192,169870,128,8,170093:0:0:0:0:
402,192,169870,1,8,0:0:0:0:
475,192,169982,1,0,0:0:0:0:
109,192,170093,128,0,170315:0:0:0:0:
36,192,170093,1,0,0:0:0:0:
256,192,170204,1,0,0:0:0:0:
402,192,170315,1,0,0:0:0:0:
36,192,170315,128,0,170537:0:0:0:0:
182,192,170426,1,0,0:0:0:0:
256,192,170537,1,0,0:0:0:0:
475,192,170537,1,0,0:0:0:0:
109,192,170648,1,0,0:0:0:0:
402,192,170648,1,0,0:0:0:0:
329,192,170759,1,2,0:0:0:0:
182,192,170759,1,2,0:0:0:0:
475,192,170759,1,2,0:0:0:0:
109,192,170870,1,2,0:0:0:0:
402,192,170870,1,2,0:0:0:0:
475,192,170982,1,2,0:0:0:0:
256,192,170982,1,2,0:0:0:0:
36,192,170982,1,2,0:0:0:0:
402,192,171093,1,2,0:0:0:0:
109,192,171093,1,2,0:0:0:0:
329,192,171204,1,2,0:0:0:0:
36,192,171204,1,2,0:0:0:0:
182,192,171204,1,2,0:0:0:0:
256,192,171426,1,2,0:0:0:0:
36,192,171426,1,2,0:0:0:0:
182,192,171648,1,8,0:0:0:0:
475,192,171648,1,8,0:0:0:0:
329,192,171648,1,8,0:0:0:0:
109,192,171870,1,0,0:0:0:0:
402,192,171870,1,0,0:0:0:0:
182,192,172093,1,0,0:0:0:0:
329,192,172093,1,0,0:0:0:0:
36,192,172093,1,0,0:0:0:0:
256,192,172315,1,0,0:0:0:0:
475,192,172315,1,0,0:0:0:0:
329,192,172537,1,2,0:0:0:0:
182,192,172537,1,2,0:0:0:0:
36,192,172537,1,2,0:0:0:0:
109,192,172759,1,0,0:0:0:0:
402,192,172759,1,0,0:0:0:0:
475,192,172982,1,2,0:0:0:0:
182,192,172982,1,2,0:0:0:0:
329,192,172982,1,2,0:0:0:0:
256,192,173204,1,0,0:0:0:0:
36,192,173204,1,0,0:0:0:0:
329,192,173426,1,8,0:0:0:0:
475,192,173426,1,8,0:0:0:0:
36,192,173426,128,8,173648:0:0:0:0:
109,192,173648,1,0,0:0:0:0:
182,192,173648,1,0,0:0:0:0:
402,192,173870,1,0,0:0:0:0:
475,192,173870,128,0,174093:0:0:0:0:
256,192,174093,1,0,0:0:0:0:
182,192,174093,1,0,0:0:0:0:
329,192,174315,128,0,174982:0:0:0:0:
256,192,174759,128,0,174982:0:0:0:0:
36,192,174982,128,0,175426:0:0:0:0:
256,192,175204,128,8,175426:0:0:0:0:
329,192,175204,128,8,175426:0:0:0:0:
182,192,175537,1,0,0:0:0:0:
256,192,175648,1,0,0:0:0:0:
109,192,175648,128,0,176093:0:0:0:0:
402,192,175870,128,0,176093:0:0:0:0:
475,192,175870,128,0,176093:0:0:0:0:
182,192,176093,1,2,0:0:0:0:
256,192,176093,1,2,0:0:0:0:
329,192,176204,1,0,0:0:0:0:
256,192,176315,128,0,176982:0:0:0:0:
329,192,176537,1,0,0:0:0:0:
402,192,176759,128,0,176982:0:0:0:0:
329,192,176982,128,0,177870:0:0:0:0:
109,192,177204,128,0,177426:0:0:0:0:
402,192,177204,128,0,177426:0:0:0:0:
475,192,177426,128,0,177870:0:0:0:0:
182,192,177426,128,0,177870:0:0:0:0:
109,192,177870,1,2,0:0:0:0:
256,192,177870,1,2,0:0:0:0:
36,192,177870,1,2,0:0:0:0:
36,192,178093,1,0,0:0:0:0:
109,192,178315,1,0,0:0:0:0:
36,192,178537,1,0,0:0:0:0:
256,192,178759,1,8,0:0:0:0:
329,192,178759,1,8,0:0:0:0:
475,192,178759,1,8,0:0:0:0:
182,192,178982,1,0,0:0:0:0:
36,192,179204,1,2,0:0:0:0:
109,192,179204,1,2,0:0:0:0:
256,192,179204,1,2,0:0:0:0:
182,192,179426,1,0,0:0:0:0:
256,192,179648,1,2,0:0:0:0:
36,192,179648,1,2,0:0:0:0:
109,192,179648,1,2,0:0:0:0:
182,192,179870,1,0,0:0:0:0:
329,192,180093,1,0,0:0:0:0:
182,192,180315,1,0,0:0:0:0:
109,192,180537,1,8,0:0:0:0:
256,192,180537,1,8,0:0:0:0:
475,192,180537,1,8,0:0:0:0:
402,192,180759,1,0,0:0:0:0:
329,192,180982,1,0,0:0:0:0:
402,192,181204,1,0,0:0:0:0:
36,192,181426,1,2,0:0:0:0:
109,192,181426,1,2,0:0:0:0:
256,192,181426,1,2,0:0:0:0:
329,192,181648,1,0,0:0:0:0:
182,192,181870,1,0,0:0:0:0:
36,192,182093,1,0,0:0:0:0:
329,192,182315,1,8,0:0:0:0:
256,192,182315,1,8,0:0:0:0:
475,192,182315,1,8,0:0:0:0:
402,192,182537,1,0,0:0:0:0:
256,192,182759,1,0,0:0:0:0:
109,192,182982,1,0,0:0:0:0:
329,192,183204,1,2,0:0:0:0:
182,192,183204,1,2,0:0:0:0:
475,192,183204,1,2,0:0:0:0:
109,192,183426,1,0,0:0:0:0:
36,192,183537,1,2,0:0:0:0:
182,192,183537,1,2,0:0:0:0:
329,192,183537,1,2,0:0:0:0:
109,192,183648,1,0,0:0:0:0:
402,192,183870,1,2,0:0:0:0:
182,192,183870,1,2,0:0:0:0:
36,192,183870,128,2,184093:0:0:0:0:
256,192,184093,1,8,0:0:0:0:
329,192,184093,1,8,0:0:0:0:
402,192,184093,1,0,0:0:0:0:
182,192,184093,1,8,0:0:0:0:
329,192,184315,1,0,0:0:0:0:
182,192,184315,1,0,0:0:0:0:
256,192,184537,1,2,0:0:0:0:
475,192,184537,1,2,0:0:0:0:
109,192,184537,1,2,0:0:0:0:
329,192,184759,1,0,0:0:0:0:
109,192,184982,1,2,0:0:0:0:
256,192,184982,1,2,0:0:0:0:
402,192,184982,1,2,0:0:0:0:
36,192,185204,1,0,0:0:0:0:
402,192,185426,1,0,0:0:0:0:
36,192,185648,1,0,0:0:0:0:
256,192,185870,1,8,0:0:0:0:
475,192,185870,1,8,0:0:0:0:
182,192,185870,1,8,0:0:0:0:
329,192,186093,1,0,0:0:0:0:
36,192,186315,1,2,0:0:0:0:
256,192,186315,1,2,0:0:0:0:
402,192,186315,1,2,0:0:0:0:
329,192,186537,1,0,0:0:0:0:
402,192,186759,1,2,0:0:0:0:
256,192,186759,1,2,0:0:0:0:
36,192,186759,1,2,0:0:0:0:
329,192,186982,1,0,0:0:0:0:
182,192,187204,1,0,0:0:0:0:
329,192,187426,1,0,0:0:0:0:
256,192,187648,1,8,0:0:0:0:
402,192,187648,1,8,0:0:0:0:
475,192,187648,1,8,0:0:0:0:
109,192,187870,1,0,0:0:0:0:
182,192,188093,1,0,0:0:0:0:
109,192,188315,1,0,0:0:0:0:
402,192,188537,1,2,0:0:0:0:
36,192,188537,1,2,0:0:0:0:
256,192,188537,1,2,0:0:0:0:
182,192,188759,1,0,0:0:0:0:
329,192,188982,1,0,0:0:0:0:
36,192,189204,1,0,0:0:0:0:
475,192,189426,1,8,0:0:0:0:
182,192,189426,1,8,0:0:0:0:
256,192,189426,1,8,0:0:0:0:
109,192,189648,1,0,0:0:0:0:
256,192,189870,1,0,0:0:0:0:
402,192,190093,1,0,0:0:0:0:
182,192,190315,1,2,0:0:0:0:
329,192,190315,1,2,0:0:0:0:
475,192,190315,1,2,0:0:0:0:
402,192,190537,1,0,0:0:0:0:
36,192,190648,1,2,0:0:0:0:
182,192,190648,1,2,0:0:0:0:
329,192,190648,1,2,0:0:0:0:
402,192,190759,1,0,0:0:0:0:
36,192,190982,1,2,0:0:0:0:
256,192,190982,1,2,0:0:0:0:
475,192,190982,128,2,191204:0:0:0:0:
36,192,191204,1,8,0:0:0:0:
109,192,191204,1,8,0:0:0:0:
182,192,191204,1,8,0:0:0:0:
256,192,191204,1,0,0:0:0:0:
182,192,191426,1,0,0:0:0:0:
329,192,191426,1,0,0:0:0:0:
475,192,191648,1,2,0:0:0:0:
256,192,191648,1,2,0:0:0:0:
402,192,191648,1,2,0:0:0:0:
182,192,191870,1,0,0:0:0:0:
402,192,192093,1,2,0:0:0:0:
256,192,192093,1,2,0:0:0:0:
109,192,192093,1,2,0:0:0:0:
475,192,192315,1,0,0:0:0:0:
329,192,192537,1,0,0:0:0:0:
475,192,192759,1,0,0:0:0:0:
402,192,192982,1,8,0:0:0:0:
109,192,192982,1,8,0:0:0:0:
182,192,192982,1,8,0:0:0:0:
256,192,193204,1,0,0:0:0:0:
182,192,193426,1,2,0:0:0:0:
329,192,193426,1,2,0:0:0:0:
475,192,193426,1,2,0:0:0:0:
256,192,193648,1,0,0:0:0:0:
182,192,193870,1,2,0:0:0:0:
329,192,193870,1,2,0:0:0:0:
475,192,193870,1,2,0:0:0:0:
256,192,194093,1,0,0:0:0:0:
109,192,194315,1,0,0:0:0:0:
256,192,194537,1,0,0:0:0:0:
329,192,194759,1,8,0:0:0:0:
402,192,194759,1,8,0:0:0:0:
182,192,194759,1,8,0:0:0:0:
36,192,194982,1,0,0:0:0:0:
109,192,195204,1,0,0:0:0:0:
36,192,195426,1,0,0:0:0:0:
329,192,195648,1,2,0:0:0:0:
182,192,195648,1,2,0:0:0:0:
475,192,195648,1,2,0:0:0:0:
109,192,195870,1,0,0:0:0:0:
256,192,196093,1,0,0:0:0:0:
475,192,196315,1,0,0:0:0:0:
182,192,196537,1,8,0:0:0:0:
402,192,196537,1,8,0:0:0:0:
109,192,196537,1,8,0:0:0:0:
36,192,196759,1,0,0:0:0:0:
182,192,196982,1,0,0:0:0:0:
329,192,197204,1,0,0:0:0:0:
256,192,197426,1,2,0:0:0:0:
402,192,197426,1,2,0:0:0:0:
109,192,197426,1,2,0:0:0:0:
329,192,197648,1,0,0:0:0:0:
109,192,197759,1,2,0:0:0:0:
256,192,197759,1,2,0:0:0:0:
475,192,197759,1,2,0:0:0:0:
329,192,197870,1,0,0:0:0:0:
182,192,198093,128,2,198315:0:0:0:0:
329,192,198093,1,2,0:0:0:0:
36,192,198093,1,2,0:0:0:0:
402,192,198315,1,8,0:0:0:0:
36,192,198315,1,0,0:0:0:0:
329,192,198315,1,8,0:0:0:0:
475,192,198315,1,8,0:0:0:0:
256,192,198537,1,0,0:0:0:0:
109,192,198537,1,0,0:0:0:0:
182,192,198759,1,2,0:0:0:0:
329,192,198759,1,2,0:0:0:0:
402,192,198759,1,2,0:0:0:0:
109,192,198982,1,0,0:0:0:0:
402,192,199204,1,2,0:0:0:0:
109,192,199204,1,2,0:0:0:0:
256,192,199204,1,2,0:0:0:0:
329,192,199426,1,0,0:0:0:0:
182,192,199648,1,0,0:0:0:0:
329,192,199870,1,0,0:0:0:0:
475,192,200093,1,8,0:0:0:0:
36,192,200093,1,8,0:0:0:0:
256,192,200093,1,8,0:0:0:0:
109,192,200315,1,0,0:0:0:0:
36,192,200537,1,2,0:0:0:0:
329,192,200537,1,2,0:0:0:0:
182,192,200537,1,2,0:0:0:0:
109,192,200759,1,0,0:0:0:0:
36,192,200982,1,2,0:0:0:0:
329,192,200982,1,2,0:0:0:0:
182,192,200982,1,2,0:0:0:0:
109,192,201204,1,0,0:0:0:0:
475,192,201426,1,0,0:0:0:0:
109,192,201648,1,0,0:0:0:0:
256,192,201870,1,8,0:0:0:0:
182,192,201870,1,8,0:0:0:0:
475,192,201870,1,8,0:0:0:0:
402,192,202093,1,0,0:0:0:0:
475,192,202315,1,0,0:0:0:0:
402,192,202537,1,0,0:0:0:0:
329,192,202759,1,2,0:0:0:0:
36,192,202759,1,2,0:0:0:0:
182,192,202759,1,2,0:0:0:0:
475,192,202982,1,0,0:0:0:0:
109,192,203204,1,0,0:0:0:0:
329,192,203426,1,0,0:0:0:0:
475,192,203648,1,8,0:0:0:0:
256,192,203648,1,8,0:0:0:0:
36,192,203648,1,8,0:0:0:0:
402,192,203870,1,0,0:0:0:0:
36,192,204093,1,0,0:0:0:0:
182,192,204315,1,0,0:0:0:0:
475,192,204537,1,2,0:0:0:0:
256,192,204537,1,2,0:0:0:0:
109,192,204537,1,2,0:0:0:0:
182,192,204759,1,0,0:0:0:0:
475,192,204870,1,2,0:0:0:0:
109,192,204870,1,2,0:0:0:0:
329,192,204870,1,2,0:0:0:0:
182,192,204982,1,0,0:0:0:0:
475,192,205204,1,2,0:0:0:0:
36,192,205204,1,2,0:0:0:0:
109,192,205204,128,2,205426:0:0:0:0:
475,192,205426,1,8,0:0:0:0:
329,192,205426,1,8,0:0:0:0:
36,192,205426,1,0,0:0:0:0:
402,192,205426,1,8,0:0:0:0:
475,192,205648,1,0,0:0:0:0:
109,192,205648,1,0,0:0:0:0:
256,192,205870,1,2,0:0:0:0:
36,192,205870,1,2,0:0:0:0:
182,192,205870,1,2,0:0:0:0:
475,192,206093,1,0,0:0:0:0:
256,192,206315,1,2,0:0:0:0:
109,192,206315,1,2,0:0:0:0:
402,192,206315,128,2,207648:0:0:0:0:
36,192,206537,1,0,0:0:0:0:
109,192,206759,1,0,0:0:0:0:
36,192,206982,1,0,0:0:0:0:
475,192,207204,1,8,0:0:0:0:
256,192,207204,1,8,0:0:0:0:
329,192,207204,1,8,0:0:0:0:
182,192,207426,1,0,0:0:0:0:
475,192,207648,128,2,208093:0:0:0:0:
256,192,207648,1,2,0:0:0:0:
36,192,207648,1,2,0:0:0:0:
182,192,207870,1,0,0:0:0:0:
109,192,208093,1,2,0:0:0:0:
256,192,208093,1,2,0:0:0:0:
36,192,208093,128,2,209870:0:0:0:0:
182,192,208315,1,0,0:0:0:0:
329,192,208537,1,0,0:0:0:0:
182,192,208759,1,0,0:0:0:0:
475,192,208982,1,8,0:0:0:0:
109,192,208982,1,8,0:0:0:0:
256,192,208982,1,8,0:0:0:0:
402,192,209204,1,0,0:0:0:0:
329,192,209426,1,0,0:0:0:0:
402,192,209648,1,0,0:0:0:0:
475,192,209870,1,2,0:0:0:0:
329,192,209870,128,2,211648:0:0:0:0:
256,192,209870,1,2,0:0:0:0:
402,192,210093,1,0,0:0:0:0:
182,192,210315,1,0,0:0:0:0:
36,192,210537,1,0,0:0:0:0:
109,192,210759,1,8,0:0:0:0:
256,192,210759,1,8,0:0:0:0:
475,192,210759,1,8,0:0:0:0:
402,192,210982,1,0,0:0:0:0:
256,192,211204,1,0,0:0:0:0:
109,192,211426,1,0,0:0:0:0:
402,192,211648,1,2,0:0:0:0:
475,192,211648,1,2,0:0:0:0:
182,192,211648,1,2,0:0:0:0:
475,192,211870,128,0,212537:0:0:0:0:
109,192,211870,1,0,0:0:0:0:
329,192,211982,1,2,0:0:0:0:
182,192,211982,1,2,0:0:0:0:
36,192,211982,1,2,0:0:0:0:
109,192,212093,1,0,0:0:0:0:
109,192,212315,1,2,0:0:0:0:
256,192,212315,128,2,212537:0:0:0:0:
402,192,212315,1,2,0:0:0:0:
36,192,212537,1,8,0:0:0:0:
402,192,212537,1,8,0:0:0:0:
109,192,212537,1,8,0:0:0:0:
36,192,212759,128,0,213426:0:0:0:0:
329,192,212759,1,0,0:0:0:0:
182,192,212759,1,0,0:0:0:0:
109,192,212982,1,2,0:0:0:0:
256,192,212982,1,2,0:0:0:0:
402,192,212982,1,2,0:0:0:0:
329,192,213204,1,0,0:0:0:0:
109,192,213426,128,2,214759:0:0:0:0:
402,192,213426,1,2,0:0:0:0:
256,192,213426,1,2,0:0:0:0:
36,192,213648,1,0,0:0:0:0:
402,192,213870,1,0,0:0:0:0:
36,192,214093,1,0,0:0:0:0:
475,192,214315,1,8,0:0:0:0:
182,192,214315,1,8,0:0:0:0:
256,192,214315,1,8,0:0:0:0:
329,192,214537,1,0,0:0:0:0:
475,192,214759,128,0,215204:0:0:0:0:
256,192,214759,1,2,0:0:0:0:
36,192,214759,1,2,0:0:0:0:
329,192,214982,1,0,0:0:0:0:
182,192,215204,128,0,216982:0:0:0:0:
256,192,215204,1,2,0:0:0:0:
402,192,215204,1,2,0:0:0:0:
329,192,215426,1,0,0:0:0:0:
256,192,215648,1,0,0:0:0:0:
329,192,215870,1,0,0:0:0:0:
402,192,216093,1,8,0:0:0:0:
475,192,216093,1,8,0:0:0:0:
256,192,216093,1,8,0:0:0:0:
109,192,216315,1,0,0:0:0:0:
256,192,216537,1,0,0:0:0:0:
109,192,216759,1,0,0:0:0:0:
475,192,216982,128,2,218759:0:1:0:0:
36,192,216982,1,2,0:1:0:0:
256,192,216982,1,2,0:1:0:0:
182,192,217204,1,0,0:0:0:0:
329,192,217426,1,0,0:0:0:0:
36,192,217648,1,0,0:0:0:0:
402,192,217870,1,8,0:0:0:0:
182,192,217870,1,8,0:0:0:0:
256,192,217870,1,8,0:0:0:0:
109,192,218093,1,0,0:0:0:0:
256,192,218315,1,0,0:0:0:0:
329,192,218537,1,0,0:0:0:0:
402,192,218759,1,2,0:0:0:0:
182,192,218759,1,2,0:0:0:0:
329,192,218759,1,2,0:0:0:0:
109,192,218982,128,0,219648:0:0:0:0:
402,192,218982,1,0,0:0:0:0:
329,192,219093,1,2,0:0:0:0:
182,192,219093,1,2,0:0:0:0:
36,192,219093,1,2,0:0:0:0:
402,192,219204,1,0,0:0:0:0:
182,192,219426,1,2,0:0:0:0:
256,192,219426,128,2,219648:0:0:0:0:
36,192,219426,1,2,0:0:0:0:
329,192,219648,1,8,0:0:0:0:
402,192,219648,1,8,0:0:0:0:
475,192,219648,1,8,0:0:0:0:
182,192,219870,1,0,0:0:0:0:
329,192,219870,1,0,0:0:0:0:
36,192,220093,128,0,220537:0:0:0:0:
402,192,220093,1,2,0:0:0:0:
256,192,220093,1,2,0:0:0:0:
475,192,220093,1,2,0:0:0:0:
182,192,220315,1,0,0:0:0:0:
402,192,220537,128,2,222315:0:0:0:0:
256,192,220537,1,2,0:0:0:0:
109,192,220537,1,2,0:0:0:0:
475,192,220759,1,0,0:0:0:0:
329,192,220982,1,0,0:0:0:0:
475,192,221204,1,0,0:0:0:0:
36,192,221426,1,8,0:0:0:0:
182,192,221426,1,8,0:0:0:0:
109,192,221426,1,8,0:0:0:0:
256,192,221648,1,0,0:0:0:0:
109,192,221870,128,2,222315:0:0:0:0:
329,192,221870,1,2,0:0:0:0:
182,192,221870,1,2,0:0:0:0:
256,192,222093,1,0,0:0:0:0:
329,192,222315,1,2,0:0:0:0:
182,192,222315,1,2,0:0:0:0:
475,192,222315,128,2,224093:0:0:0:0:
256,192,222537,1,0,0:0:0:0:
109,192,222759,1,0,0:0:0:0:
256,192,222982,1,0,0:0:0:0:
402,192,223204,1,8,0:0:0:0:
182,192,223204,1,8,0:0:0:0:
329,192,223204,1,8,0:0:0:0:
36,192,223426,1,0,0:0:0:0:
109,192,223648,1,0,0:0:0:0:
36,192,223870,1,0,0:0:0:0:
182,192,224093,1,2,0:0:0:0:
402,192,224093,1,2,0:0:0:0:
329,192,224093,128,2,225870:0:0:0:0:
109,192,224315,1,0,0:0:0:0:
256,192,224537,1,0,0:0:0:0:
475,192,224759,1,0,0:0:0:0:
402,192,224982,1,8,0:0:0:0:
182,192,224982,1,8,0:0:0:0:
109,192,224982,128,8,225870:0:0:0:0:
36,192,225204,1,0,0:0:0:0:
182,192,225426,1,0,0:0:0:0:
475,192,225648,1,0,0:0:0:0:
36,192,225870,1,2,0:0:0:0:
256,192,225870,1,2,0:0:0:0:
402,192,225870,1,2,0:0:0:0:
329,192,226093,1,0,0:0:0:0:
402,192,226093,128,0,226759:0:0:0:0:
256,192,226204,1,2,0:0:0:0:
109,192,226204,1,2,0:0:0:0:
475,192,226204,1,2,0:0:0:0:
329,192,226315,1,0,0:0:0:0:
36,192,226537,1,2,0:0:0:0:
329,192,226537,1,2,0:0:0:0:
182,192,226537,128,2,226759:0:0:0:0:
329,192,226759,1,8,0:0:0:0:
36,192,226759,1,8,0:0:0:0:
475,192,226759,1,8,0:0:0:0:
109,192,226982,1,0,0:0:0:0:
256,192,226982,1,0,0:0:0:0:
36,192,226982,128,0,227648:0:0:0:0:
329,192,227204,1,2,0:0:0:0:
402,192,227204,1,2,0:0:0:0:
182,192,227204,1,2,0:0:0:0:
109,192,227426,1,0,0:0:0:0:
256,192,227648,1,2,0:0:0:0:
109,192,227648,1,2,0:0:0:0:
329,192,227648,128,2,228759:0:0:0:0:
475,192,227870,1,0,0:0:0:0:
182,192,228093,1,0,0:0:0:0:
475,192,228315,1,0,0:0:0:0:
36,192,228537,1,8,0:0:0:0:
256,192,228537,1,8,0:0:0:0:
475,192,228537,1,8,0:0:0:0:
109,192,228759,1,0,0:0:0:0:
475,192,228759,128,0,229426:0:0:0:0:
182,192,228982,1,2,0:0:0:0:
402,192,228982,1,2,0:0:0:0:
36,192,228982,1,2,0:0:0:0:
109,192,229204,1,0,0:0:0:0:
182,192,229426,1,2,0:0:0:0:
36,192,229426,1,2,0:0:0:0:
256,192,229426,128,2,231204:0:0:0:0:
109,192,229648,1,0,0:0:0:0:
475,192,229870,1,0,0:0:0:0:
109,192,230093,1,0,0:0:0:0:
182,192,230315,1,8,0:0:0:0:
36,192,230315,1,8,0:0:0:0:
475,192,230315,1,8,0:0:0:0:
402,192,230537,1,0,0:0:0:0:
475,192,230759,1,0,0:0:0:0:
402,192,230982,1,0,0:0:0:0:
36,192,231204,1,2,0:0:0:0:
182,192,231204,1,2,0:0:0:0:
329,192,231204,1,2,0:0:0:0:
475,192,231426,1,0,0:0:0:0:
109,192,231648,1,0,0:0:0:0:
329,192,231870,1,0,0:0:0:0:
256,192,232093,1,8,0:0:0:0:
36,192,232093,1,8,0:0:0:0:
475,192,232093,1,8,0:0:0:0:
402,192,232315,1,0,0:0:0:0:
36,192,232537,1,0,0:0:0:0:
182,192,232759,1,0,0:0:0:0:
109,192,232982,1,2,0:0:0:0:
475,192,232982,1,2,0:0:0:0:
256,192,232982,1,2,0:0:0:0:
182,192,233204,1,0,0:0:0:0:
329,192,233315,1,2,0:0:0:0:
109,192,233315,1,2,0:0:0:0:
475,192,233315,1,2,0:0:0:0:
182,192,233426,1,0,0:0:0:0:
402,192,233648,1,2,0:0:0:0:
36,192,233648,128,2,233870:0:0:0:0:
182,192,233648,1,2,0:0:0:0:
402,192,233870,1,8,0:0:0:0:
182,192,233870,1,0,0:0:0:0:
329,192,233870,1,8,0:0:0:0:
256,192,233870,1,8,0:0:0:0:
109,192,234093,1,0,0:0:0:0:
475,192,234093,1,0,0:0:0:0:
36,192,234315,1,2,0:0:0:0:
182,192,234315,1,2,0:0:0:0:
256,192,234315,1,2,0:0:0:0:
475,192,234537,1,0,0:0:0:0:
109,192,234759,1,2,0:0:0:0:
402,192,234759,1,2,0:0:0:0:
329,192,234759,128,2,234982:0:0:0:0:
36,192,234982,128,0,235204:0:0:0:0:
329,192,235204,128,0,235426:0:0:0:0:
36,192,235426,128,0,235648:0:0:0:0:
109,192,235648,1,2,0:0:0:0:
402,192,235648,1,2,0:0:0:0:
329,192,235648,128,2,235871:0:0:0:0:
36,192,235871,128,0,236093:0:0:0:0:
329,192,236093,128,0,236315:0:0:0:0:
36,192,236315,128,0,236537:0:0:0:0:
256,192,236537,128,2,236759:0:0:0:0:
402,192,236537,1,2,0:0:0:0:
109,192,236537,1,2,0:0:0:0:
329,192,236537,128,2,236759:0:0:0:0:
402,192,236759,128,0,236982:0:0:0:0:
36,192,236760,128,0,236982:0:0:0:0:
329,192,236982,128,0,237204:0:0:0:0:
256,192,236982,128,0,237870:0:0:0:0:
36,192,237204,128,0,237426:0:0:0:0:
109,192,237426,1,2,0:0:0:0:
402,192,237426,1,2,0:0:0:0:
329,192,237426,128,2,237649:0:0:0:0:
36,192,237649,128,0,237871:0:0:0:0:
329,192,237871,128,0,238093:0:0:0:0:
36,192,238093,128,0,238315:0:0:0:0:
475,192,238315,128,2,238537:0:0:0:0:
402,192,238315,1,2,0:0:0:0:
109,192,238315,1,2,0:0:0:0:
182,192,238537,128,0,238759:0:0:0:0:
475,192,238759,128,0,238982:0:0:0:0:
182,192,238982,128,0,239204:0:0:0:0:
475,192,239204,128,2,239426:0:0:0:0:
402,192,239204,1,2,0:0:0:0:
109,192,239204,1,2,0:0:0:0:
182,192,239426,128,0,239648:0:0:0:0:
475,192,239648,128,0,239871:0:0:0:0:
182,192,239871,128,0,240093:0:0:0:0:
109,192,240093,1,2,0:0:0:0:
402,192,240093,1,2,0:0:0:0:
475,192,240093,128,2,240315:0:0:0:0:
256,192,240093,128,0,240315:0:0:0:0:
182,192,240315,128,0,240537:0:0:0:0:
329,192,240315,128,0,240537:0:0:0:0:
475,192,240537,128,0,240760:0:0:0:0:
36,192,240537,128,0,240982:0:0:0:0:
182,192,240760,128,0,240982:0:0:0:0:
475,192,240982,128,2,241204:0:1:0:0:
402,192,240982,1,2,0:1:0:0:
109,192,240982,1,2,0:1:0:0:
182,192,241204,128,0,241426:0:0:0:0:
256,192,241204,1,0,0:0:0:0:
475,192,241426,128,0,241649:0:0:0:0:
256,192,241648,128,0,242093:0:0:0:0:
182,192,241649,128,0,241871:0:0:0:0:
36,192,241870,1,2,0:0:0:0:
475,192,241870,1,2,0:0:0:0:
402,192,241870,128,2,242093:0:0:0:0:
109,192,242093,128,0,242315:0:0:0:0:
329,192,242093,128,0,242537:0:0:0:0:
402,192,242315,128,0,242537:0:0:0:0:
109,192,242537,128,0,242759:0:0:0:0:
256,192,242537,128,0,242982:0:0:0:0:
402,192,242759,128,2,242982:0:0:0:0:
475,192,242759,1,2,0:0:0:0:
36,192,242759,1,2,0:0:0:0:
109,192,242982,128,0,243204:0:0:0:0:
182,192,242982,128,0,243426:0:0:0:0:
402,192,243204,128,0,243426:0:0:0:0:
109,192,243426,128,0,243648:0:0:0:0:
256,192,243426,128,0,243871:0:0:0:0:
36,192,243648,1,2,0:0:0:0:
475,192,243648,1,2,0:0:0:0:
402,192,243648,128,2,243871:0:0:0:0:
329,192,243870,128,0,244315:0:0:0:0:
109,192,243871,128,0,244093:0:0:0:0:
402,192,244093,128,0,244315:0:0:0:0:
109,192,244315,128,0,244537:0:0:0:0:
256,192,244315,128,0,244760:0:0:0:0:
402,192,244537,128,2,244760:0:0:0:0:
475,192,244537,1,2,0:0:0:0:
36,192,244537,1,2,0:0:0:0:
182,192,244759,128,0,245204:0:0:0:0:
109,192,244760,128,0,244982:0:0:0:0:
402,192,244982,128,0,245204:0:0:0:0:
109,192,245204,128,0,246093:0:0:0:0:
36,192,245426,1,2,0:0:0:0:
475,192,245426,1,2,0:0:0:0:
329,192,245426,128,2,245648:0:0:0:0:
182,192,245648,128,0,245870:0:0:0:0:
329,192,245870,128,0,246093:0:0:0:0:
182,192,246093,128,0,246315:0:0:0:0:
36,192,246315,1,2,0:0:0:0:
329,192,246315,128,2,246537:0:0:0:0:
475,192,246315,1,2,0:0:0:0:
182,192,246537,128,0,246759:0:0:0:0:
329,192,246759,128,0,246982:0:0:0:0:
182,192,246982,128,0,247204:0:0:0:0:
475,192,247204,1,2,0:0:0:0:
329,192,247204,128,2,247426:0:0:0:0:
36,192,247204,1,2,0:0:0:0:
475,192,247426,128,0,247648:0:0:0:0:
109,192,247426,128,0,247648:0:0:0:0:
329,192,247648,128,0,247871:0:0:0:0:
475,192,247870,128,0,248093:0:0:0:0:
109,192,247870,128,0,248093:0:0:0:0:
329,192,248093,1,2,0:0:0:0:
182,192,248093,128,2,248315:0:0:0:0:
36,192,248093,1,2,0:0:0:0:
36,192,248315,128,0,248537:0:0:0:0:
402,192,248315,128,0,248537:0:0:0:0:
182,192,248537,128,0,248759:0:0:0:0:
36,192,248759,128,0,248982:0:0:0:0:
256,192,248759,128,0,248982:0:0:0:0:
329,192,248982,1,2,0:0:0:0:
475,192,248982,1,2,0:0:0:0:
402,192,248982,128,2,249426:0:0:0:0:
256,192,249204,128,0,249426:0:0:0:0:
109,192,249426,128,2,249870:0:0:0:0:
182,192,249426,1,2,0:0:0:0:
36,192,249426,1,2,0:0:0:0:
256,192,249648,128,0,249870:0:0:0:0:
402,192,249870,128,2,250314:0:0:0:0:
329,192,249870,1,2,0:0:0:0:
475,192,249870,1,2,0:0:0:0:
256,192,250093,128,0,250315:0:0:0:0:
182,192,250314,1,2,0:0:0:0:
109,192,250314,128,2,250758:0:0:0:0:
36,192,250314,1,2,0:0:0:0:
256,192,250537,128,0,250759:0:0:0:0:
329,192,250759,1,2,0:0:0:0:
475,192,250759,1,2,0:0:0:0:
402,192,250759,128,2,251203:0:0:0:0:
256,192,250981,128,0,251203:0:0:0:0:
36,192,251203,1,2,0:0:0:0:
182,192,251203,1,2,0:0:0:0:
329,192,251204,128,2,251648:0:0:0:0:
475,192,251426,128,0,251648:0:0:0:0:
36,192,251647,1,2,0:0:0:0:
182,192,251647,1,2,0:0:0:0:
402,192,251648,128,2,252093:0:0:0:0:
256,192,251870,128,0,252093:0:0:0:0:
36,192,252093,1,2,0:0:0:0:
182,192,252093,1,2,0:0:0:0:
109,192,252093,128,2,252537:0:0:0:0:
36,192,252315,128,0,252537:0:0:0:0:
402,192,252537,1,2,0:0:0:0:
475,192,252537,1,2,0:0:0:0:
329,192,252537,128,2,252982:0:0:0:0:
256,192,252759,128,0,252981:0:0:0:0:
36,192,252981,1,2,0:0:0:0:
182,192,252982,128,2,253426:0:0:0:0:
109,192,252982,1,2,0:0:0:0:
256,192,253203,128,0,253425:0:0:0:0:
475,192,253425,1,2,0:0:0:0:
329,192,253426,128,2,253870:0:0:0:0:
402,192,253426,1,2,0:0:0:0:
256,192,253648,128,0,253870:0:0:0:0:
36,192,253869,1,2,0:0:0:0:
182,192,253870,128,2,254315:0:0:0:0:
109,192,253870,1,2,0:0:0:0:
256,192,254092,128,0,254314:0:0:0:0:
329,192,254315,128,2,254760:0:0:0:0:
475,192,254315,1,2,0:0:0:0:
402,192,254315,1,2,0:0:0:0:
256,192,254537,128,0,254759:0:0:0:0:
36,192,254759,1,2,0:0:0:0:
182,192,254760,128,2,255204:0:0:0:0:
109,192,254760,1,2,0:0:0:0:
256,192,254981,128,0,255203:0:0:0:0:
475,192,255203,1,2,0:0:0:0:
402,192,255204,1,2,0:0:0:0:
329,192,255204,128,2,255648:0:0:0:0:
256,192,255426,128,0,255648:0:0:0:0:
36,192,255647,1,2,0:0:0:0:
109,192,255648,1,2,0:0:0:0:
182,192,255648,128,2,256093:0:0:0:0:
256,192,255870,128,0,256092:0:0:0:0:
475,192,256093,128,2,256315:0:0:0:0:
402,192,256093,1,2,0:0:0:0:
109,192,256093,1,2,0:0:0:0:
329,192,256315,128,2,256537:0:0:0:0:
256,192,256315,1,2,0:0:0:0:
36,192,256315,1,2,0:0:0:0:
109,192,256537,1,2,0:0:0:0:
475,192,256537,128,2,256759:0:0:0:0:
402,192,256537,1,2,0:0:0:0:
36,192,256759,1,2,0:0:0:0:
256,192,256759,1,2,0:0:0:0:
329,192,256759,128,2,256981:0:0:0:0:
402,192,256982,1,2,0:0:0:0:
475,192,256982,128,2,257204:0:0:0:0:
109,192,256982,1,2,0:0:0:0:
329,192,257204,128,2,257426:0:0:0:0:
256,192,257204,1,2,0:0:0:0:
36,192,257204,1,2,0:0:0:0:
109,192,257426,1,2,0:0:0:0:
475,192,257426,128,2,257648:0:0:0:0:
402,192,257426,1,2,0:0:0:0:
36,192,257648,1,2,0:0:0:0:
256,192,257648,1,2,0:0:0:0:
329,192,257648,128,2,257870:0:0:0:0:
402,192,257870,1,2,0:0:0:0:
475,192,257870,128,2,258093:0:0:0:0:
182,192,257870,1,2,0:0:0:0:
256,192,258092,1,2,0:0:0:0:
36,192,258092,1,2,0:0:0:0:
109,192,258093,128,2,258315:0:0:0:0:
402,192,258314,1,2,0:0:0:0:
475,192,258314,128,2,258536:0:0:0:0:
329,192,258315,1,2,0:0:0:0:
256,192,258536,1,2,0:0:0:0:
36,192,258536,1,2,0:0:0:0:
109,192,258537,128,2,258759:0:0:0:0:
329,192,258759,1,2,0:0:0:0:
402,192,258759,1,2,0:0:0:0:
475,192,258759,128,2,258981:0:0:0:0:
36,192,258981,1,2,0:0:0:0:
256,192,258981,1,2,0:0:0:0:
109,192,258982,128,2,259204:0:0:0:0:
402,192,259203,1,2,0:0:0:0:
475,192,259204,128,2,259648:0:0:0:0:
329,192,259204,1,2,0:0:0:0:
256,192,259204,128,2,259648:0:0:0:0:
329,192,259648,1,0,0:0:0:0:
402,192,259648,1,0,0:0:0:0:
109,192,259648,128,0,259982:0:0:0:0:
182,192,260093,128,0,260426:0:0:0:0:
109,192,260537,128,0,260871:0:0:0:0:
36,192,260981,128,0,261315:0:0:0:0:
402,192,261426,128,0,261759:0:0:0:0:
475,192,261870,128,0,262204:0:0:0:0:
402,192,262315,128,0,262648:0:0:0:0:
329,192,262759,128,0,263093:0:0:0:0:
256,192,263204,1,2,0:0:0:0:
109,192,263204,1,2,0:0:0:0:
182,192,263204,1,2,0:0:0:0:
475,192,263426,128,0,263870:0:0:0:0:
329,192,263648,1,2,0:0:0:0:
256,192,263648,1,2,0:0:0:0:
402,192,263648,1,2,0:0:0:0:
36,192,263870,128,0,264315:0:0:0:0:
182,192,264093,1,2,0:0:0:0:
109,192,264093,1,2,0:0:0:0:
256,192,264093,1,2,0:0:0:0:
475,192,264315,128,0,264759:0:0:0:0:
329,192,264537,1,2,0:0:0:0:
256,192,264537,1,2,0:0:0:0:
402,192,264537,1,2,0:0:0:0:
36,192,264759,128,0,265204:0:0:0:0:
256,192,264982,1,2,0:0:0:0:
109,192,264982,1,2,0:0:0:0:
182,192,264982,1,2,0:0:0:0:
475,192,265204,128,0,265648:0:0:0:0:
402,192,265426,1,2,0:0:0:0:
256,192,265426,1,2,0:0:0:0:
329,192,265426,1,2,0:0:0:0:
36,192,265648,128,0,266093:0:0:0:0:
182,192,265870,1,2,0:0:0:0:
109,192,265870,1,2,0:0:0:0:
256,192,265870,1,2,0:0:0:0:
475,192,266093,128,0,266537:0:0:0:0:
329,192,266314,1,2,0:0:0:0:
256,192,266314,1,2,0:0:0:0:
402,192,266314,1,2,0:0:0:0:
36,192,266537,128,0,266759:0:0:0:0:
182,192,266759,1,2,0:0:0:0:
475,192,266759,1,2,0:0:0:0:
329,192,266759,1,2,0:0:0:0:
109,192,266870,1,0,0:0:0:0:
256,192,266982,1,2,0:0:0:0:
402,192,266982,1,2,0:0:0:0:
36,192,266982,1,2,0:0:0:0:
109,192,267093,1,0,0:0:0:0:
182,192,267204,1,2,0:0:0:0:
475,192,267204,1,2,0:0:0:0:
329,192,267204,1,2,0:0:0:0:
109,192,267315,1,0,0:0:0:0:
402,192,267427,1,2,0:0:0:0:
256,192,267427,1,2,0:0:0:0:
36,192,267427,1,2,0:0:0:0:
109,192,267538,1,0,0:0:0:0:
182,192,267648,1,2,0:0:0:0:
475,192,267648,1,2,0:0:0:0:
329,192,267648,1,2,0:0:0:0:
109,192,267759,1,0,0:0:0:0:
402,192,267871,1,2,0:0:0:0:
256,192,267871,1,2,0:0:0:0:
36,192,267871,1,2,0:0:0:0:
109,192,267982,1,0,0:0:0:0:
329,192,268093,1,2,0:0:0:0:
475,192,268093,1,2,0:0:0:0:
182,192,268093,1,2,0:0:0:0:
109,192,268204,1,2,0:0:0:0:
402,192,268204,1,2,0:0:0:0:
182,192,268315,1,2,0:0:0:0:
329,192,268315,1,2,0:0:0:0:
36,192,268316,1,2,0:0:0:0:
402,192,268426,1,2,0:0:0:0:
109,192,268427,1,2,0:0:0:0:
475,192,268537,128,0,269870:0:0:0:0:
182,192,269870,5,2,0:0:0:0:
402,192,269870,5,2,0:0:0:0:
36,192,269870,1,2,0:0:0:0:
329,192,269870,1,2,0:0:0:0:
182,192,270315,1,2,0:0:0:0:
256,192,270315,128,2,271204:0:0:0:0:
402,192,270315,1,2,0:0:0:0:
109,192,270759,1,2,0:0:0:0:
329,192,270759,1,2,0:0:0:0:
475,192,270759,128,2,271204:0:0:0:0:
329,192,271204,1,8,0:0:0:0:
109,192,271204,1,8,0:0:0:0:
402,192,271204,1,8,0:0:0:0:
36,192,271352,1,0,0:0:0:0:
182,192,271500,1,0,0:0:0:0:
402,192,271648,1,0,0:0:0:0:
109,192,271796,1,0,0:0:0:0:
256,192,271945,1,0,0:0:0:0:
402,192,272093,1,2,0:0:0:0:
475,192,272093,1,2,0:0:0:0:
329,192,272093,1,2,0:0:0:0:
256,192,272241,1,0,0:0:0:0:
36,192,272389,1,0,0:0:0:0:
402,192,272537,1,0,0:0:0:0:
182,192,272685,1,0,0:0:0:0:
475,192,272833,1,0,0:0:0:0:
109,192,272982,1,8,0:0:0:0:
182,192,272982,1,8,0:0:0:0:
256,192,272982,1,8,0:0:0:0:
475,192,273130,1,0,0:0:0:0:
109,192,273278,1,0,0:0:0:0:
402,192,273426,1,0,0:0:0:0:
182,192,273574,1,0,0:0:0:0:
329,192,273722,1,0,0:0:0:0:
256,192,273870,128,2,274759:0:0:0:0:
182,192,273870,1,2,0:0:0:0:
402,192,273870,1,2,0:0:0:0:
109,192,274315,1,2,0:0:0:0:
475,192,274315,128,2,274759:0:0:0:0:
329,192,274315,1,2,0:0:0:0:
329,192,274759,1,8,0:0:0:0:
109,192,274759,1,8,0:0:0:0:
36,192,274759,1,8,0:0:0:0:
402,192,274908,1,0,0:0:0:0:
256,192,275056,1,0,0:0:0:0:
36,192,275204,1,0,0:0:0:0:
329,192,275352,1,0,0:0:0:0:
182,192,275500,1,0,0:0:0:0:
402,192,275648,1,2,0:0:0:0:
475,192,275648,1,2,0:0:0:0:
329,192,275648,1,2,0:0:0:0:
256,192,275796,1,0,0:0:0:0:
475,192,275945,1,0,0:0:0:0:
109,192,276093,1,0,0:0:0:0:
329,192,276241,1,0,0:0:0:0:
36,192,276389,1,0,0:0:0:0:
182,192,276537,1,8,0:0:0:0:
256,192,276537,1,8,0:0:0:0:
109,192,276537,1,8,0:0:0:0:
475,192,276685,1,0,0:0:0:0:
402,192,276833,1,0,0:0:0:0:
109,192,276982,1,0,0:0:0:0:
329,192,277130,1,0,0:0:0:0:
182,192,277278,1,0,0:0:0:0:
36,192,277426,1,2,0:0:0:0:
182,192,277426,1,2,0:0:0:0:
256,192,277426,128,2,278315:0:0:0:0:
402,192,277426,1,2,0:0:0:0:
109,192,277870,1,2,0:0:0:0:
329,192,277870,1,2,0:0:0:0:
36,192,277870,128,2,278315:0:0:0:0:
109,192,278093,128,2,278315:0:0:0:0:
475,192,278093,128,2,278315:0:0:0:0:
329,192,278315,1,8,0:0:0:0:
182,192,278315,1,8,0:0:0:0:
402,192,278315,1,8,0:0:0:0:
36,192,278463,1,0,0:0:0:0:
182,192,278611,1,0,0:0:0:0:
402,192,278759,1,0,0:0:0:0:
109,192,278908,1,0,0:0:0:0:
256,192,279056,1,0,0:0:0:0:
256,192,279204,128,2,280093:0:0:0:0:
182,192,279204,1,2,0:0:0:0:
402,192,279204,1,2,0:0:0:0:
475,192,279204,1,2,0:0:0:0:
109,192,279648,1,2,0:0:0:0:
329,192,279648,1,2,0:0:0:0:
402,192,279648,128,2,280093:0:0:0:0:
109,192,279870,128,2,280093:0:0:0:0:
475,192,279870,128,2,280093:0:0:0:0:
329,192,280093,1,8,0:0:0:0:
36,192,280093,1,8,0:0:0:0:
182,192,280093,1,8,0:0:0:0:
329,192,280241,1,0,0:0:0:0:
182,192,280389,1,0,0:0:0:0:
402,192,280537,1,0,0:0:0:0:
109,192,280685,1,0,0:0:0:0:
475,192,280833,1,0,0:0:0:0:
256,192,280982,1,2,0:0:0:0:
182,192,280982,128,2,281426:0:0:0:0:
402,192,280982,128,2,281426:0:0:0:0:
329,192,280982,1,2,0:0:0:0:
36,192,281204,1,0,0:0:0:0:
475,192,281426,1,0,0:0:0:0:
36,192,281574,1,0,0:0:0:0:
475,192,281722,1,0,0:0:0:0:
182,192,281870,1,8,0:0:0:0:
256,192,281870,128,8,282315:0:0:0:0:
329,192,281870,128,8,282315:0:0:0:0:
402,192,281870,1,8,0:0:0:0:
36,192,282093,1,0,0:0:0:0:
182,192,282315,1,0,0:0:0:0:
109,192,282463,1,0,0:0:0:0:
36,192,282611,1,0,0:0:0:0:
256,192,282759,1,2,0:0:0:0:
182,192,282759,128,2,283204:0:0:0:0:
475,192,282759,1,2,0:0:0:0:
402,192,282759,128,2,283204:0:0:0:0:
36,192,282982,1,0,0:0:0:0:
109,192,283204,1,0,0:0:0:0:
475,192,283204,1,2,0:0:0:0:
256,192,283204,1,2,0:0:0:0:
36,192,283352,1,0,0:0:0:0:
475,192,283500,1,0,0:0:0:0:
109,192,283648,1,8,0:0:0:0:
256,192,283648,128,8,284093:0:0:0:0:
329,192,283648,128,8,284093:0:0:0:0:
182,192,283648,1,8,0:0:0:0:
36,192,283870,1,0,0:0:0:0:
182,192,284093,1,2,0:0:0:0:
475,192,284093,1,2,0:0:0:0:
402,192,284093,1,2,0:0:0:0:
109,192,284241,1,0,0:0:0:0:
36,192,284389,1,2,0:0:0:0:
475,192,284389,1,2,0:0:0:0:
402,192,284389,1,2,0:0:0:0:
256,192,284537,128,2,285426:0:1:0:0:
182,192,284537,1,2,0:0:0:0:
329,192,284537,1,2,0:0:0:0:
109,192,284982,1,2,0:1:0:0:
36,192,284982,128,2,285426:0:1:0:0:
329,192,284982,1,2,0:1:0:0:
329,192,285426,1,10,0:1:0:0:
475,192,285426,1,8,0:0:0:0:
402,192,285426,1,8,0:0:0:0:
36,192,285574,1,0,0:0:0:0:
329,192,285722,1,0,0:0:0:0:
109,192,285870,1,0,0:0:0:0:
402,192,286019,1,0,0:0:0:0:
256,192,286167,1,0,0:0:0:0:
182,192,286315,1,2,0:0:0:0:
109,192,286315,1,2,0:0:0:0:
475,192,286315,1,2,0:0:0:0:
256,192,286463,1,0,0:0:0:0:
36,192,286611,1,0,0:0:0:0:
109,192,286759,1,0,0:0:0:0:
329,192,286908,1,0,0:0:0:0:
475,192,287056,1,0,0:0:0:0:
182,192,287204,1,8,0:0:0:0:
402,192,287204,1,8,0:0:0:0:
329,192,287204,1,8,0:0:0:0:
475,192,287352,1,0,0:0:0:0:
402,192,287500,1,0,0:0:0:0:
109,192,287648,1,0,0:0:0:0:
329,192,287796,1,0,0:0:0:0:
182,192,287945,1,0,0:0:0:0:
182,192,288093,1,2,0:0:0:0:
256,192,288093,128,2,288982:0:0:0:0:
402,192,288093,1,2,0:0:0:0:
109,192,288537,1,2,0:0:0:0:
475,192,288537,128,2,288982:0:0:0:0:
329,192,288537,1,2,0:0:0:0:
402,192,288982,1,8,0:0:0:0:
182,192,288982,1,8,0:0:0:0:
329,192,288982,1,8,0:0:0:0:
36,192,289130,1,0,0:0:0:0:
402,192,289278,1,0,0:0:0:0:
182,192,289426,1,0,0:0:0:0:
475,192,289574,1,0,0:0:0:0:
329,192,289722,1,0,0:0:0:0:
182,192,289870,1,2,0:0:0:0:
256,192,289870,1,2,0:0:0:0:
109,192,289870,1,2,0:0:0:0:
329,192,290019,1,0,0:0:0:0:
36,192,290167,1,0,0:0:0:0:
182,192,290315,1,0,0:0:0:0:
402,192,290463,1,0,0:0:0:0:
109,192,290611,1,0,0:0:0:0:
329,192,290759,1,8,0:0:0:0:
475,192,290759,1,8,0:0:0:0:
402,192,290759,1,8,0:0:0:0:
475,192,290908,1,0,0:0:0:0:
109,192,291056,1,0,0:0:0:0:
402,192,291204,1,0,0:0:0:0:
182,192,291352,1,0,0:0:0:0:
329,192,291500,1,0,0:0:0:0:
256,192,291648,128,2,292537:0:0:0:0:
182,192,291648,1,2,0:0:0:0:
475,192,291648,1,2,0:0:0:0:
402,192,291648,1,2,0:0:0:0:
109,192,292093,1,2,0:0:0:0:
329,192,292093,1,2,0:0:0:0:
182,192,292093,128,2,292537:0:0:0:0:
109,192,292315,128,2,292537:0:0:0:0:
475,192,292315,128,2,292537:0:0:0:0:
329,192,292537,1,8,0:0:0:0:
36,192,292537,1,8,0:0:0:0:
402,192,292537,1,8,0:0:0:0:
256,192,292685,1,0,0:0:0:0:
402,192,292833,1,0,0:0:0:0:
109,192,292982,1,0,0:0:0:0:
329,192,293130,1,0,0:0:0:0:
475,192,293278,1,0,0:0:0:0:
182,192,293426,1,2,0:0:0:0:
402,192,293426,1,2,0:0:0:0:
475,192,293426,128,2,294315:0:0:0:0:
109,192,293426,1,2,0:0:0:0:
329,192,293870,1,2,0:0:0:0:
36,192,293870,1,2,0:0:0:0:
109,192,293870,128,2,294315:0:0:0:0:
329,192,294093,128,2,294315:0:0:0:0:
182,192,294093,128,2,294315:0:0:0:0:
36,192,294315,1,8,0:0:0:0:
256,192,294315,1,8,0:0:0:0:
402,192,294315,1,8,0:0:0:0:
182,192,294463,1,0,0:0:0:0:
329,192,294611,1,0,0:0:0:0:
109,192,294759,1,0,0:0:0:0:
402,192,294908,1,0,0:0:0:0:
36,192,295056,1,0,0:0:0:0:
182,192,295204,1,2,0:0:0:0:
475,192,295204,1,2,0:0:0:0:
109,192,295204,128,2,295648:0:0:0:0:
402,192,295204,128,2,296093:0:0:0:0:
256,192,295426,1,0,0:0:0:0:
329,192,295648,1,0,0:0:0:0:
256,192,295796,1,0,0:0:0:0:
182,192,295945,1,0,0:0:0:0:
329,192,296093,1,8,0:0:0:0:
36,192,296093,128,8,296982:0:0:0:0:
109,192,296093,1,8,0:0:0:0:
475,192,296093,128,8,296537:0:0:0:0:
256,192,296315,1,0,0:0:0:0:
402,192,296537,1,0,0:0:0:0:
329,192,296685,1,0,0:0:0:0:
256,192,296833,1,0,0:0:0:0:
475,192,296982,1,2,0:0:0:0:
182,192,296982,1,2,0:0:0:0:
402,192,296982,128,2,297870:0:0:0:0:
109,192,296982,128,2,297426:0:0:0:0:
256,192,297204,1,0,0:0:0:0:
329,192,297426,1,2,0:0:0:0:
36,192,297426,1,2,0:0:0:0:
475,192,297426,1,2,0:0:0:0:
256,192,297574,1,0,0:0:0:0:
182,192,297722,1,0,0:0:0:0:
109,192,297870,1,8,0:0:0:0:
36,192,297870,128,8,298759:0:0:0:0:
475,192,297870,128,8,298315:0:0:0:0:
329,192,297870,1,8,0:0:0:0:
256,192,298093,1,0,0:0:0:0:
402,192,298315,1,2,0:0:0:0:
182,192,298315,1,2,0:0:0:0:
109,192,298315,1,2,0:0:0:0:
329,192,298463,1,2,0:0:0:0:
256,192,298611,1,2,0:0:0:0:
475,192,298611,1,2,0:0:0:0:
402,192,298611,1,2,0:0:0:0:
329,192,298759,128,2,298982:0:0:0:0:
109,192,298759,1,2,0:0:0:0:
182,192,298759,1,2,0:0:0:0:
36,192,298982,128,0,299204:0:0:0:0:
256,192,299204,128,8,299648:0:0:0:0:
36,192,299648,1,8,0:0:0:0:
402,192,299648,1,8,0:0:0:0:
475,192,299648,1,8,0:0:0:0:
182,192,299796,1,0,0:0:0:0:
402,192,299945,1,0,0:0:0:0:
109,192,300093,1,2,0:0:0:0:
36,192,300093,1,2,0:0:0:0:
182,192,300093,1,2,0:0:0:0:
256,192,300315,1,0,0:0:0:0:
329,192,300537,1,2,0:0:0:0:
182,192,300537,1,2,0:0:0:0:
109,192,300537,128,2,300982:0:0:0:0:
402,192,300537,128,2,300982:0:0:0:0:
329,192,300982,1,2,0:0:0:0:
182,192,300982,1,2,0:0:0:0:
36,192,300982,128,2,301426:0:0:0:0:
475,192,300982,128,2,301426:0:0:0:0:
402,192,301426,1,8,0:0:0:0:
109,192,301426,1,8,0:0:0:0:
256,192,301426,1,8,0:0:0:0:
182,192,301574,1,0,0:0:0:0:
329,192,301722,1,0,0:0:0:0:
109,192,301870,1,0,0:0:0:0:
402,192,302019,1,0,0:0:0:0:
36,192,302167,1,0,0:0:0:0:
402,192,302315,128,2,302537:0:0:0:0:
182,192,302315,1,2,0:0:0:0:
109,192,302315,1,2,0:0:0:0:
475,192,302537,128,0,302759:0:0:0:0:
256,192,302759,128,0,303204:0:0:0:0:
475,192,303204,1,8,0:0:0:0:
402,192,303204,1,8,0:0:0:0:
109,192,303204,1,8,0:0:0:0:
182,192,303352,1,0,0:0:0:0:
402,192,303500,1,0,0:0:0:0:
182,192,303648,1,2,0:0:0:0:
402,192,303648,1,2,0:0:0:0:
475,192,303648,128,2,304093:0:0:0:0:
109,192,303648,128,2,304093:0:0:0:0:
256,192,304093,1,2,0:0:0:0:
329,192,304093,1,2,0:0:0:0:
182,192,304093,128,2,304537:0:0:0:0:
402,192,304093,128,2,304537:0:0:0:0:
475,192,304537,1,2,0:0:0:0:
109,192,304537,1,2,0:0:0:0:
329,192,304537,128,2,304982:0:0:0:0:
256,192,304537,128,2,304982:0:0:0:0:
36,192,304982,1,8,0:0:0:0:
182,192,304982,1,8,0:0:0:0:
109,192,304982,1,8,0:0:0:0:
182,192,305130,1,0,0:0:0:0:
329,192,305278,1,0,0:0:0:0:
36,192,305426,1,0,0:0:0:0:
402,192,305574,1,0,0:0:0:0:
109,192,305722,1,0,0:0:0:0:
182,192,305870,1,2,0:0:0:0:
36,192,305870,1,2,0:0:0:0:
402,192,305870,1,2,0:0:0:0:
475,192,305870,128,2,306759:0:0:0:0:
329,192,306315,1,2,0:0:0:0:
109,192,306315,1,2,0:0:0:0:
402,192,306315,128,2,306759:0:0:0:0:
329,192,306537,128,2,306759:0:0:0:0:
182,192,306537,128,2,306759:0:0:0:0:
109,192,306759,1,8,0:0:0:0:
256,192,306759,1,8,0:0:0:0:
36,192,306759,1,8,0:0:0:0:
256,192,306908,1,0,0:0:0:0:
402,192,307056,1,0,0:0:0:0:
36,192,307204,1,0,0:0:0:0:
329,192,307352,1,0,0:0:0:0:
475,192,307500,1,0,0:0:0:0:
329,192,307648,1,2,0:0:0:0:
36,192,307648,1,2,0:0:0:0:
109,192,307648,1,2,0:0:0:0:
256,192,307648,128,2,308537:0:0:0:0:
402,192,308093,1,2,0:0:0:0:
182,192,308093,1,2,0:0:0:0:
475,192,308093,128,2,308537:0:0:0:0:
329,192,308315,128,2,308537:0:0:0:0:
109,192,308315,128,2,308537:0:0:0:0:
402,192,308537,1,8,0:0:0:0:
182,192,308537,1,8,0:0:0:0:
36,192,308537,1,8,0:0:0:0:
182,192,308685,1,0,0:0:0:0:
329,192,308833,1,0,0:0:0:0:
36,192,308982,1,0,0:0:0:0:
402,192,309130,1,0,0:0:0:0:
109,192,309278,1,0,0:0:0:0:
475,192,309426,1,2,0:0:0:0:
182,192,309426,1,2,0:0:0:0:
402,192,309426,128,2,309870:0:0:0:0:
36,192,309426,128,2,309870:0:0:0:0:
256,192,309648,1,0,0:0:0:0:
329,192,309870,1,0,0:0:0:0:
256,192,310019,1,0,0:0:0:0:
182,192,310167,1,0,0:0:0:0:
402,192,310315,1,8,0:0:0:0:
475,192,310315,128,8,310759:0:0:0:0:
36,192,310315,1,8,0:0:0:0:
109,192,310315,128,8,310759:0:0:0:0:
256,192,310537,1,0,0:0:0:0:
402,192,310759,1,0,0:0:0:0:
329,192,310908,1,0,0:0:0:0:
256,192,311056,1,0,0:0:0:0:
182,192,311204,1,2,0:0:0:0:
475,192,311204,1,2,0:0:0:0:
36,192,311204,128,2,311648:0:0:0:0:
402,192,311204,128,4,311648:0:0:0:0:
256,192,311426,1,0,0:0:0:0:
109,192,311648,1,2,0:0:0:0:
329,192,311648,1,2,0:0:0:0:
475,192,311648,1,2,0:0:0:0:
256,192,311796,1,0,0:0:0:0:
182,192,311945,1,0,0:0:0:0:
475,192,312093,128,8,312537:0:0:0:0:
109,192,312093,128,8,312537:0:0:0:0:
36,192,312093,1,8,0:0:0:0:
256,192,312315,1,0,0:0:0:0:
402,192,312537,1,0,0:0:0:0:
182,192,312537,1,0,0:0:0:0:
36,192,312537,1,0,0:0:0:0:
329,192,312685,1,0,0:0:0:0:
256,192,312833,1,0,0:0:0:0:
402,192,312982,128,2,313870:0:0:0:0:
182,192,312982,1,2,0:0:0:0:
36,192,312982,1,2,0:0:0:0:
36,192,313204,128,0,313870:0:0:0:0:
256,192,313426,128,0,313870:0:0:0:0:
329,192,313870,1,8,0:0:0:0:
475,192,313870,1,8,0:0:0:0:
109,192,313870,1,8,0:0:0:0:
109,192,314019,1,0,0:0:0:0:
109,192,314167,1,0,0:0:0:0:
36,192,314315,1,2,0:0:0:0:
182,192,314315,1,2,0:0:0:0:
256,192,314315,128,2,314759:0:0:0:0:
475,192,314315,128,2,314759:0:0:0:0:
329,192,314759,1,2,0:0:0:0:
182,192,314759,1,2,0:0:0:0:
109,192,314759,128,2,315204:0:0:0:0:
402,192,314759,128,2,315204:0:0:0:0:
329,192,315204,1,2,0:0:0:0:
475,192,315204,1,2,0:0:0:0:
36,192,315204,128,2,315648:0:0:0:0:
256,192,315204,128,2,315648:0:0:0:0:
329,192,315648,1,8,0:0:0:0:
402,192,315648,1,8,0:0:0:0:
475,192,315648,1,8,0:0:0:0:
182,192,315796,1,0,0:0:0:0:
182,192,315945,1,0,0:0:0:0:
182,192,316093,1,0,0:0:0:0:
182,192,316241,1,0,0:0:0:0:
182,192,316389,1,0,0:0:0:0:
109,192,316537,128,0,317426:0:0:0:0:
475,192,316759,128,0,317426:0:0:0:0:
256,192,316982,128,0,317426:0:0:0:0:
36,192,317426,1,0,0:0:0:0:
329,192,317426,1,0,0:0:0:0:
182,192,317426,1,0,0:0:0:0:
402,192,317574,1,0,0:0:0:0:
402,192,317722,1,0,0:0:0:0:
402,192,317870,1,2,0:0:0:0:
329,192,317870,1,2,0:0:0:0:
182,192,317870,128,2,318315:0:0:0:0:
475,192,317870,128,2,318315:0:0:0:0:
109,192,318315,128,2,318759:0:0:0:0:
256,192,318315,128,2,318759:0:0:0:0:
402,192,318315,1,2,0:0:0:0:
329,192,318315,1,2,0:0:0:0:
402,192,318759,1,2,0:0:0:0:
475,192,318759,128,2,319204:0:0:0:0:
182,192,318759,128,2,319204:0:0:0:0:
329,192,318759,1,2,0:0:0:0:
109,192,319204,1,8,0:0:0:0:
402,192,319204,1,8,0:0:0:0:
36,192,319204,1,8,0:0:0:0:
109,192,319352,1,2,0:0:0:0:
109,192,319500,1,2,0:0:0:0:
475,192,319648,1,8,0:0:0:0:
36,192,319648,1,8,0:0:0:0:
256,192,319648,1,8,0:0:0:0:
402,192,319796,1,0,0:0:0:0:
402,192,319945,1,0,0:0:0:0:
182,192,320093,1,2,0:0:0:0:
402,192,320093,1,2,0:0:0:0:
475,192,320093,128,2,320315:0:0:0:0:
36,192,320315,128,0,320537:0:0:0:0:
109,192,320537,1,2,0:0:0:0:
329,192,320537,1,2,0:0:0:0:
402,192,320537,128,2,320759:0:0:0:0:
182,192,320759,128,0,320982:0:0:0:0:
109,192,320982,1,8,0:0:0:0:
475,192,320982,128,8,321204:0:0:0:0:
329,192,320982,1,8,0:0:0:0:
256,192,321204,1,0,0:0:0:0:
109,192,321204,128,0,321426:0:0:0:0:
36,192,321426,1,0,0:0:0:0:
402,192,321426,128,0,321648:0:0:0:0:
109,192,321648,1,0,0:0:0:0:
329,192,321648,128,0,321870:0:0:0:0:
475,192,321870,128,2,322093:0:0:0:0:
182,192,321870,1,2,0:0:0:0:
402,192,321870,1,2,0:0:0:0:
36,192,322093,128,0,322315:0:0:0:0:
402,192,322315,128,2,322537:0:1:0:0:
329,192,322315,1,2,0:1:0:0:
109,192,322315,1,2,0:1:0:0:
182,192,322537,128,0,322759:0:0:0:0:
475,192,322759,128,8,322982:0:0:0:0:
36,192,322759,1,8,0:0:0:0:
329,192,322759,1,8,0:0:0:0:
182,192,322982,1,0,0:0:0:0:
36,192,322982,128,0,323204:0:0:0:0:
109,192,323204,1,0,0:0:0:0:
329,192,323204,128,0,323426:0:0:0:0:
256,192,323426,128,0,323648:0:0:0:0:
402,192,323648,128,0,323870:0:0:0:0:
109,192,323648,128,0,323870:0:0:0:0:
256,192,323870,1,0,0:0:0:0:
109,192,324093,128,0,324315:0:0:0:0:
402,192,324093,128,0,324315:0:0:0:0:
256,192,324315,1,0,0:0:0:0:
36,192,324537,128,8,324759:0:0:0:0:
475,192,324537,128,8,324759:0:0:0:0:
182,192,324537,1,8,0:0:0:0:
329,192,324537,1,8,0:0:0:0:
256,192,324759,1,0,0:0:0:0:
402,192,324982,128,0,325204:0:0:0:0:
109,192,324982,128,0,325204:0:0:0:0:
256,192,325204,1,0,0:0:0:0:
182,192,325426,128,2,325648:0:0:0:0:
329,192,325426,1,2,0:0:0:0:
256,192,325426,1,2,0:0:0:0:
475,192,325648,128,0,325870:0:0:0:0:
182,192,325870,128,0,326093:0:0:0:0:
475,192,326093,128,0,326315:0:0:0:0:
329,192,326315,128,0,326537:0:0:0:0:
36,192,326537,128,2,326759:0:0:0:0:
256,192,326537,128,2,326759:0:0:0:0:
109,192,326537,1,2,0:0:0:0:
475,192,326759,128,8,326982:0:0:0:0:
329,192,326759,1,8,0:0:0:0:
182,192,326759,128,8,326981:0:0:0:0:
109,192,326981,128,2,327204:0:0:0:0:
402,192,326982,1,2,0:0:0:0:
256,192,326982,128,0,327204:0:0:0:0:
329,192,327204,1,2,0:1:0:0:
402,192,327204,1,2,0:1:0:0:
36,192,327204,1,2,0:1:0:0:
475,192,327315,1,0,0:0:0:0:
182,192,327426,1,0,0:0:0:0:
475,192,327537,1,0,0:0:0:0:
109,192,327648,1,2,0:0:0:0:
402,192,327648,1,2,0:0:0:0:
256,192,327648,128,2,327870:0:0:0:0:
475,192,327759,1,0,0:0:0:0:
182,192,327870,128,0,328093:0:0:0:0:
402,192,327982,1,0,0:0:0:0:
256,192,328093,1,8,0:0:0:0:
475,192,328093,1,8,0:0:0:0:
36,192,328093,1,8,0:0:0:0:
109,192,328204,1,0,0:0:0:0:
329,192,328315,1,0,0:0:0:0:
36,192,328426,1,0,0:0:0:0:
182,192,328537,128,0,328759:0:0:0:0:
109,192,328648,1,0,0:0:0:0:
329,192,328759,128,0,328982:0:0:0:0:
36,192,328870,1,0,0:0:0:0:
402,192,328982,1,2,0:0:0:0:
475,192,328982,1,2,0:0:0:0:
109,192,328982,1,2,0:0:0:0:
182,192,329093,1,0,0:0:0:0:
402,192,329204,1,0,0:0:0:0:
475,192,329204,128,0,329426:0:0:0:0:
109,192,329315,1,0,0:0:0:0:
329,192,329426,1,0,0:0:0:0:
182,192,329537,1,0,0:0:0:0:
402,192,329648,1,0,0:0:0:0:
109,192,329759,1,0,0:0:0:0:
402,192,329870,1,8,0:0:0:0:
36,192,329870,1,8,0:0:0:0:
256,192,329870,128,8,330093:0:0:0:0:
475,192,329982,1,0,0:0:0:0:
182,192,330093,1,0,0:0:0:0:
402,192,330093,128,0,330315:0:0:0:0:
475,192,330204,1,0,0:0:0:0:
109,192,330315,1,0,0:0:0:0:
329,192,330315,128,0,330759:0:0:0:0:
182,192,330426,1,0,0:0:0:0:
109,192,330537,1,0,0:0:0:0:
475,192,330648,1,0,0:0:0:0:
402,192,330759,1,2,0:0:0:0:
256,192,330759,1,2,0:0:0:0:
36,192,330759,1,2,0:0:0:0:
329,192,330870,1,0,0:0:0:0:
182,192,330870,1,0,0:0:0:0:
109,192,330982,1,0,0:0:0:0:
256,192,330982,1,0,0:0:0:0:
329,192,331093,1,0,0:0:0:0:
475,192,331204,1,2,0:0:0:0:
36,192,331204,1,2,0:0:0:0:
109,192,331204,1,2,0:0:0:0:
182,192,331315,1,0,0:0:0:0:
329,192,331426,1,0,0:0:0:0:
475,192,331537,1,0,0:0:0:0:
36,192,331648,1,8,0:0:0:0:
256,192,331648,1,8,0:0:0:0:
182,192,331648,128,8,331870:0:0:0:0:
402,192,331759,1,0,0:0:0:0:
109,192,331870,128,0,332093:0:0:0:0:
475,192,331982,1,0,0:0:0:0:
36,192,332093,128,0,332315:0:0:0:0:
402,192,332204,1,0,0:0:0:0:
182,192,332315,128,0,332537:0:0:0:0:
475,192,332426,1,0,0:0:0:0:
329,192,332537,1,2,0:0:0:0:
402,192,332537,1,2,0:0:0:0:
109,192,332537,1,2,0:0:0:0:
256,192,332648,1,0,0:0:0:0:
256,192,332759,1,0,0:0:0:0:
256,192,332870,1,0,0:0:0:0:
475,192,332982,1,0,0:0:0:0:
256,192,333093,1,0,0:0:0:0:
182,192,333148,1,0,0:0:0:0:
109,192,333204,1,0,0:0:0:0:
36,192,333315,1,0,0:0:0:0:
182,192,333426,1,8,0:0:0:0:
256,192,333426,1,8,0:0:0:0:
402,192,333426,128,8,333648:0:0:0:0:
109,192,333537,1,0,0:0:0:0:
475,192,333648,128,0,333870:0:0:0:0:
36,192,333648,1,0,0:0:0:0:
329,192,333759,1,0,0:0:0:0:
36,192,333870,128,0,334093:0:0:0:0:
182,192,333870,1,0,0:0:0:0:
402,192,333982,1,0,0:0:0:0:
329,192,334093,1,0,0:0:0:0:
109,192,334093,1,0,0:0:0:0:
256,192,334204,1,0,0:0:0:0:
182,192,334204,1,0,0:0:0:0:
402,192,334315,1,2,0:0:0:0:
109,192,334315,1,2,0:0:0:0:
36,192,334315,1,2,0:0:0:0:
329,192,334315,1,2,0:0:0:0:
475,192,334315,128,2,334537:0:0:0:0:
182,192,334426,1,0,0:0:0:0:
402,192,334537,1,0,0:0:0:0:
109,192,334537,1,0,0:0:0:0:
329,192,334648,1,0,0:0:0:0:
475,192,334759,1,2,0:0:0:0:
182,192,334759,1,2,0:0:0:0:
402,192,334759,1,2,0:0:0:0:
109,192,334759,1,2,0:0:0:0:
256,192,334870,1,0,0:0:0:0:
36,192,334982,1,0,0:0:0:0:
329,192,334982,1,0,0:0:0:0:
475,192,334982,128,0,335204:0:0:0:0:
182,192,335093,1,0,0:0:0:0:
256,192,335204,1,8,0:0:0:0:
402,192,335204,1,8,0:0:0:0:
109,192,335204,1,8,0:0:0:0:
36,192,335204,1,8,0:0:0:0:
329,192,335315,1,0,0:0:0:0:
182,192,335426,1,0,0:0:0:0:
475,192,335426,1,0,0:0:0:0:
109,192,335537,1,0,0:0:0:0:
36,192,335648,1,0,0:0:0:0:
402,192,335648,1,0,0:0:0:0:
182,192,335648,128,0,335870:0:0:0:0:
475,192,335759,1,0,0:0:0:0:
329,192,335870,1,0,0:0:0:0:
109,192,335870,1,0,0:0:0:0:
475,192,335982,1,0,0:0:0:0:
36,192,336093,1,2,0:0:0:0:
182,192,336093,1,2,0:0:0:0:
402,192,336093,1,2,0:0:0:0:
256,192,336093,1,2,0:0:0:0:
109,192,336204,1,0,0:0:0:0:
182,192,336315,1,0,0:0:0:0:
475,192,336315,1,0,0:0:0:0:
329,192,336315,128,0,336537:0:0:0:0:
36,192,336426,1,0,0:0:0:0:
402,192,336537,1,2,0:0:0:0:
109,192,336537,1,2,0:0:0:0:
256,192,336537,1,2,0:0:0:0:
475,192,336537,1,2,0:0:0:0:
182,192,336648,1,0,0:0:0:0:
329,192,336759,1,0,0:0:0:0:
36,192,336759,1,0,0:0:0:0:
182,192,336870,1,0,0:0:0:0:
256,192,336982,1,8,0:0:0:0:
109,192,336982,1,8,0:0:0:0:
36,192,336982,128,8,337426:0:0:0:0:
475,192,336982,1,8,0:0:0:0:
329,192,337093,1,0,0:0:0:0:
475,192,337204,1,0,0:0:0:0:
402,192,337204,1,0,0:0:0:0:
256,192,337315,1,0,0:0:0:0:
109,192,337426,1,0,0:0:0:0:
182,192,337426,128,0,337870:0:0:0:0:
475,192,337537,1,0,0:0:0:0:
402,192,337648,1,0,0:0:0:0:
329,192,337648,1,0,0:0:0:0:
475,192,337759,1,0,0:0:0:0:
109,192,337870,1,2,0:0:0:0:
36,192,337870,1,2,0:0:0:0:
256,192,337870,128,2,338537:0:0:0:0:
402,192,337870,1,2,0:0:0:0:
329,192,337982,1,0,0:0:0:0:
402,192,338093,1,0,0:0:0:0:
36,192,338204,1,0,0:0:0:0:
329,192,338315,128,0,338537:0:0:0:0:
475,192,338315,1,0,0:0:0:0:
182,192,338426,1,0,0:0:0:0:
109,192,338537,1,0,0:0:0:0:
36,192,338537,128,0,338982:0:0:0:0:
402,192,338648,1,0,0:0:0:0:
475,192,338759,1,8,0:0:0:0:
256,192,338759,128,8,338982:0:0:0:0:
329,192,338759,128,8,338982:0:0:0:0:
109,192,338759,1,8,0:0:0:0:
182,192,338870,1,0,0:0:0:0:
402,192,339093,1,0,0:0:0:0:
182,192,339093,1,0,0:0:0:0:
329,192,339204,1,0,0:0:0:0:
475,192,339204,128,0,339648:0:0:0:0:
256,192,339315,1,0,0:0:0:0:
109,192,339426,128,0,339648:0:0:0:0:
182,192,339426,128,0,339648:0:0:0:0:
36,192,339537,1,0,0:0:0:0:
256,192,339648,1,2,0:0:0:0:
329,192,339648,1,2,0:0:0:0:
402,192,339648,1,2,0:0:0:0:
36,192,339759,1,0,0:0:0:0:
109,192,339870,1,0,0:0:0:0:
329,192,339870,128,0,340537:0:0:0:0:
182,192,339982,1,0,0:0:0:0:
402,192,340093,1,0,0:0:0:0:
256,192,340093,1,0,0:0:0:0:
475,192,340093,128,0,340315:0:0:0:0:
36,192,340204,1,0,0:0:0:0:
182,192,340315,128,0,340537:0:0:0:0:
402,192,340426,1,0,0:0:0:0:
256,192,340537,128,0,340982:0:0:0:0:
109,192,340537,1,0,0:0:0:0:
36,192,340537,1,0,0:0:0:0:
475,192,340537,1,0,0:0:0:0:
402,192,340648,1,0,0:0:0:0:
36,192,340759,128,0,341426:0:0:0:0:
329,192,340870,1,0,0:0:0:0:
475,192,340982,128,0,341426:0:0:0:0:
182,192,341093,1,0,0:0:0:0:
329,192,341204,1,0,0:0:0:0:
109,192,341315,1,0,0:0:0:0:
402,192,341426,1,2,0:0:0:0:
182,192,341426,1,2,0:0:0:0:
329,192,341426,1,2,0:0:0:0:
256,192,341426,1,2,0:0:0:0:
109,192,341537,1,0,0:0:0:0:
402,192,341648,1,0,0:0:0:0:
36,192,341648,128,0,341870:0:0:0:0:
182,192,341759,1,0,0:0:0:0:
329,192,341870,1,2,0:0:0:0:
256,192,341870,1,2,0:0:0:0:
475,192,341870,128,2,342093:0:0:0:0:
109,192,341870,1,2,0:0:0:0:
402,192,341982,1,0,0:0:0:0:
109,192,342093,128,0,342315:0:0:0:0:
329,192,342204,1,0,0:0:0:0:
402,192,342315,1,8,0:0:0:0:
182,192,342315,1,8,0:0:0:0:
475,192,342315,1,8,0:0:0:0:
256,192,342315,1,8,0:0:0:0:
36,192,342426,1,0,0:0:0:0:
256,192,342537,1,0,0:0:0:0:
475,192,342648,1,0,0:0:0:0:
329,192,342759,128,0,342982:0:0:0:0:
36,192,342870,1,0,0:0:0:0:
256,192,342982,128,0,343204:0:0:0:0:
475,192,343093,1,0,0:0:0:0:
36,192,343204,1,2,0:0:0:0:
329,192,343204,1,2,0:0:0:0:
402,192,343204,1,2,0:0:0:0:
182,192,343204,1,2,0:0:0:0:
109,192,343315,1,0,0:0:0:0:
402,192,343426,128,0,343648:0:0:0:0:
329,192,343426,1,0,0:0:0:0:
36,192,343537,1,0,0:0:0:0:
256,192,343648,1,0,0:0:0:0:
109,192,343759,1,0,0:0:0:0:
329,192,343870,1,0,0:0:0:0:
36,192,343982,1,0,0:0:0:0:
329,192,344093,1,8,0:0:0:0:
182,192,344093,128,8,344315:0:0:0:0:
475,192,344093,1,8,0:0:0:0:
256,192,344093,1,8,0:0:0:0:
402,192,344204,1,0,0:0:0:0:
109,192,344315,1,0,0:0:0:0:
475,192,344315,128,0,344537:0:0:0:0:
402,192,344426,1,0,0:0:0:0:
36,192,344537,1,0,0:0:0:0:
256,192,344537,128,0,344982:0:0:0:0:
329,192,344648,1,0,0:0:0:0:
36,192,344759,1,0,0:0:0:0:
329,192,344870,1,0,0:0:0:0:
402,192,344982,1,2,0:0:0:0:
182,192,344982,1,2,0:0:0:0:
475,192,344982,1,2,0:0:0:0:
36,192,344982,1,2,0:0:0:0:
329,192,345093,1,0,0:0:0:0:
109,192,345093,1,0,0:0:0:0:
36,192,345204,1,0,0:0:0:0:
256,192,345204,1,0,0:0:0:0:
329,192,345315,1,0,0:0:0:0:
402,192,345426,1,2,0:0:0:0:
36,192,345426,1,2,0:0:0:0:
475,192,345426,1,2,0:0:0:0:
182,192,345426,1,2,0:0:0:0:
109,192,345537,1,0,0:0:0:0:
256,192,345648,1,0,0:0:0:0:
402,192,345759,1,0,0:0:0:0:
182,192,345870,1,8,0:0:0:0:
109,192,345870,128,8,346093:0:0:0:0:
475,192,345870,1,8,0:0:0:0:
256,192,345870,1,8,0:0:0:0:
329,192,345982,1,0,0:0:0:0:
36,192,346093,128,0,346315:0:0:0:0:
402,192,346204,1,0,0:0:0:0:
475,192,346315,128,0,346537:0:0:0:0:
329,192,346426,1,0,0:0:0:0:
109,192,346537,128,0,346759:0:0:0:0:
402,192,346648,1,0,0:0:0:0:
329,192,346759,1,2,0:0:0:0:
256,192,346759,1,2,0:0:0:0:
36,192,346759,1,2,0:0:0:0:
475,192,346759,1,2,0:0:0:0:
182,192,346870,1,0,0:0:0:0:
182,192,346982,1,0,0:0:0:0:
182,192,347093,1,0,0:0:0:0:
402,192,347204,1,0,0:0:0:0:
182,192,347315,1,0,0:0:0:0:
109,192,347370,1,0,0:0:0:0:
36,192,347426,1,0,0:0:0:0:
475,192,347537,1,0,0:0:0:0:
182,192,347648,1,8,0:0:0:0:
329,192,347648,128,8,347870:0:0:0:0:
109,192,347648,1,8,0:0:0:0:
256,192,347648,1,8,0:0:0:0:
36,192,347759,1,0,0:0:0:0:
402,192,347870,128,0,348093:0:0:0:0:
475,192,347870,1,0,0:0:0:0:
256,192,347982,1,0,0:0:0:0:
109,192,348093,1,0,0:0:0:0:
475,192,348093,128,0,348315:0:0:0:0:
329,192,348204,1,0,0:0:0:0:
256,192,348315,1,0,0:0:0:0:
36,192,348315,1,0,0:0:0:0:
402,192,348426,1,0,0:0:0:0:
109,192,348426,1,0,0:0:0:0:
256,192,348537,1,2,0:0:0:0:
329,192,348537,1,2,0:0:0:0:
475,192,348537,1,2,0:0:0:0:
36,192,348537,128,2,348759:0:0:0:0:
109,192,348648,1,0,0:0:0:0:
256,192,348759,1,2,0:0:0:0:
475,192,348759,1,2,0:0:0:0:
182,192,348870,1,0,0:0:0:0:
109,192,348982,1,2,0:0:0:0:
402,192,348982,1,2,0:0:0:0:
329,192,348982,1,2,0:0:0:0:
475,192,348982,1,2,0:0:0:0:
182,192,349093,1,0,0:0:0:0:
256,192,349204,1,0,0:0:0:0:
475,192,349204,1,0,0:0:0:0:
109,192,349204,128,0,349426:0:0:0:0:
402,192,349315,1,0,0:0:0:0:
329,192,349426,1,8,0:0:0:0:
36,192,349426,1,8,0:0:0:0:
182,192,349426,1,8,0:0:0:0:
475,192,349426,1,8,0:0:0:0:
256,192,349537,1,0,0:0:0:0:
402,192,349648,1,0,0:0:0:0:
109,192,349648,1,0,0:0:0:0:
256,192,349759,1,0,0:0:0:0:
329,192,349870,1,0,0:0:0:0:
109,192,349870,1,0,0:0:0:0:
475,192,349870,128,0,350093:0:0:0:0:
402,192,349982,1,0,0:0:0:0:
256,192,350093,1,0,0:0:0:0:
36,192,350093,1,0,0:0:0:0:
402,192,350204,1,0,0:0:0:0:
109,192,350315,1,2,0:0:0:0:
329,192,350315,1,2,0:0:0:0:
182,192,350315,1,2,0:0:0:0:
475,192,350315,1,2,0:0:0:0:
256,192,350426,1,0,0:0:0:0:
402,192,350537,1,0,0:0:0:0:
109,192,350537,1,0,0:0:0:0:
182,192,350537,128,0,350759:0:0:0:0:
256,192,350648,1,0,0:0:0:0:
402,192,350759,1,0,0:0:0:0:
36,192,350759,1,0,0:0:0:0:
329,192,350759,1,0,0:0:0:0:
475,192,350759,1,0,0:0:0:0:
109,192,350870,1,0,0:0:0:0:
256,192,350982,1,0,0:0:0:0:
475,192,350982,1,0,0:0:0:0:
109,192,351093,1,0,0:0:0:0:
182,192,351204,1,8,0:0:0:0:
36,192,351204,1,8,0:0:0:0:
475,192,351204,128,8,351648:0:0:0:0:
329,192,351204,1,8,0:0:0:0:
256,192,351315,1,0,0:0:0:0:
402,192,351426,1,0,0:0:0:0:
329,192,351426,1,0,0:0:0:0:
182,192,351537,1,0,0:0:0:0:
109,192,351648,1,0,0:0:0:0:
36,192,351648,128,0,352093:0:0:0:0:
402,192,351759,1,0,0:0:0:0:
256,192,351870,1,0,0:0:0:0:
329,192,351870,1,0,0:0:0:0:
109,192,351982,1,0,0:0:0:0:
182,192,352093,128,2,352759:0:0:0:0:
402,192,352093,1,2,0:0:0:0:
256,192,352093,1,2,0:0:0:0:
329,192,352093,1,2,0:0:0:0:
475,192,352204,1,0,0:0:0:0:
36,192,352315,1,0,0:0:0:0:
475,192,352426,1,0,0:0:0:0:
256,192,352537,128,0,352759:0:0:0:0:
109,192,352537,1,0,0:0:0:0:
402,192,352648,1,0,0:0:0:0:
109,192,352759,1,0,0:0:0:0:
475,192,352759,128,0,353204:0:0:0:0:
329,192,352870,1,0,0:0:0:0:
256,192,352982,128,8,353204:0:0:0:0:
182,192,352982,128,8,353204:0:0:0:0:
36,192,352982,1,8,0:0:0:0:
402,192,352982,1,8,0:0:0:0:
109,192,353093,1,0,0:0:0:0:
36,192,353204,1,0,0:0:0:0:
329,192,353315,1,0,0:0:0:0:
109,192,353315,1,0,0:0:0:0:
256,192,353426,1,0,0:0:0:0:
402,192,353426,128,0,353870:0:0:0:0:
475,192,353537,1,0,0:0:0:0:
109,192,353648,128,0,353870:0:0:0:0:
36,192,353648,128,0,353870:0:0:0:0:
256,192,353648,1,0,0:0:0:0:
475,192,353759,1,0,0:0:0:0:
256,192,353870,1,2,0:0:0:0:
329,192,353870,1,2,0:0:0:0:
182,192,353870,1,2,0:0:0:0:
475,192,353982,1,0,0:0:0:0:
256,192,354093,128,0,354759:0:0:0:0:
182,192,354315,1,0,0:0:0:0:
109,192,354537,128,0,354759:0:0:0:0:
182,192,354759,128,0,355648:0:0:0:0:
402,192,354982,128,0,355204:0:0:0:0:
109,192,354982,128,0,355204:0:0:0:0:
475,192,355204,128,0,355648:0:0:0:0:
329,192,355204,128,0,355648:0:0:0:0:
256,192,355648,128,0,356537:0:0:0:0:
402,192,355870,128,0,356093:0:0:0:0:
475,192,356093,128,0,356537:0:0:0:0:
402,192,356537,1,0,0:0:0:0:
36,192,356982,1,0,0:0:0:0:
475,192,357426,1,0,0:0:0:0:
182,192,357870,1,0,0:0:0:0:
402,192,358315,1,0,0:0:0:0:
256,192,358759,1,0,0:0:0:0:
109,192,359204,1,0,0:0:0:0:
329,192,359648,1,0,0:0:0:0:
475,192,360093,1,0,0:0:0:0:
36,192,360537,1,0,0:0:0:0:
475,192,360982,1,0,0:0:0:0:
182,192,361426,1,0,0:0:0:0:
402,192,361871,1,0,0:0:0:0:
256,192,362315,1,0,0:0:0:0:
109,192,362760,1,0,0:0:0:0:
329,192,363204,1,0,0:0:0:0:
402,192,363426,1,0,0:0:0:0:
475,192,363649,1,0,0:0:0:0:
36,192,364093,1,0,0:0:0:0:
475,192,364537,1,0,0:0:0:0:
182,192,364981,1,0,0:0:0:0:
402,192,365426,1,0,0:0:0:0:
256,192,365870,1,0,0:0:0:0:
109,192,366315,1,0,0:0:0:0:
329,192,366759,1,0,0:0:0:0:
475,192,367204,1,0,0:0:0:0:
402,192,367204,128,0,368093:0:0:0:0:
36,192,367648,1,0,0:0:0:0:
475,192,368093,1,0,0:0:0:0:
109,192,368093,128,0,369426:0:0:0:0:
182,192,368537,1,0,0:0:0:0:
402,192,368982,1,0,0:0:0:0:
256,192,369426,1,0,0:0:0:0:
109,192,369871,1,0,0:0:0:0:
329,192,370315,1,0,0:0:0:0:
475,192,370760,1,0,0:0:0:0:
36,192,371204,1,0,0:0:0:0:
475,192,371648,1,0,0:0:0:0:
182,192,372092,1,0,0:0:0:0:
402,192,372537,1,0,0:0:0:0:
256,192,372981,1,0,0:0:0:0:
109,192,373426,1,0,0:0:0:0:
329,192,373870,1,0,0:0:0:0:
475,192,374315,1,0,0:0:0:0:
36,192,374759,1,0,0:0:0:0:
475,192,375204,1,0,0:0:0:0:
182,192,375648,1,0,0:0:0:0:
402,192,376093,1,0,0:0:0:0:
256,192,376537,1,0,0:0:0:0:
109,192,376982,1,0,0:0:0:0:
329,192,377426,1,0,0:0:0:0:
402,192,377648,1,0,0:0:0:0:
475,192,377871,1,0,0:0:0:0:
36,192,378315,1,0,0:0:0:0:
475,192,378759,1,0,0:0:0:0:
182,192,379203,1,0,0:0:0:0:
329,192,379426,1,0,0:0:0:0:
402,192,379648,1,0,0:0:0:0:
256,192,380092,1,0,0:0:0:0:
109,192,380537,1,0,0:0:0:0:
329,192,380981,1,0,0:0:0:0:
182,192,381204,1,0,0:0:0:0:
475,192,381426,1,0,0:0:0:0:
36,192,381870,1,0,0:0:0:0:
475,192,382315,1,0,0:0:0:0:
182,192,382759,1,0,0:0:0:0:
402,192,383204,1,0,0:0:0:0:
256,192,383648,1,0,0:0:0:0:
109,192,384093,1,0,0:0:0:0:
329,192,384537,1,0,0:0:0:0:
402,192,384759,1,0,0:0:0:0:
475,192,384982,1,0,0:0:0:0:
36,192,385426,1,0,0:0:0:0:
256,192,385870,128,0,396537:0:0:0:0:
