osu file format v7

[General]
AudioFilename: you wa shock.mp3
AudioLeadIn: 0
PreviewTime: 6699
Countdown: 0
SampleSet: Normal
StackLeniency: 0.7
Mode: 0
LetterboxInBreaks: 1

[Editor]
Bookmarks: 6290,18470,42606,80491
DistanceSpacing: 0.800000011920929
BeatDivisor: 4
GridSize: 8

[Metadata]
Title:Ai o Torimodose (You wa Shock!)
Artist:Crystal King
Creator:kingcobra52
Version:Easy
Source:Fist of the North Star
Tags:Hokuto no Ken Kenshiro Kenshirou Ai o wo Torimodose Tori Modose

[Difficulty]
HPDrainRate:3
CircleSize:3
OverallDifficulty:3
SliderMultiplier:1.2
SliderTickRate:2

[Events]
//Background and Video events
Video,-400,"Fist_of_the_North_Star_-_Japanese_Opening.avi"
0,0,"post-396241-1243539564.jpg"
//Break Periods
//Storyboard Layer 0 (Background)
//Storyboard Layer 1 (Fail)
//Storyboard Layer 2 (Pass)
//Storyboard Layer 3 (Foreground)
//Storyboard Sound Samples
//Background Colour Transformations
3,100,163,162,255

[TimingPoints]
6887,375.93984962406,4,1,0,70,1,0
42982,378.728104781442,4,1,0,70,1,0
81249,384.615384615385,4,1,0,70,1,0
82787,389.61038961039,4,1,0,70,1,0
85903,392.156862745098,4,1,0,70,1,0

[HitObjects]
312,152,6887,1,4
264,152,7074,2,4,L|216:120|160:168,1,120
392,344,8578,6,0,B|256:344,1,120
176,344,9330,2,0,B|40:344,1,120
56,200,10270,5,0
56,104,10646,1,0
199,104,11210,2,4,C|243:170|299:90|339:170|392:102|424:168,1,420
416,248,12902,5,4
376,279,13090,2,4,L|328:312|280:264,1,120
56,88,14593,5,0
152,88,14969,1,0
248,88,15345,1,0
344,88,15721,1,0
344,232,16285,5,0
344,328,16661,1,0
199,328,17225,2,4,B|126:336|72:304|40:216|54:128|80:80|152:56|224:80,1,420
328,80,18917,5,0
400,136,19293,1,8
472,192,19668,1,0
376,304,20232,2,0,L|296:264|208:304,1,180
120,304,21172,1,0
120,120,21924,6,4,B|152:40|224:32|288:104|304:176|376:192|424:112,1,360
480,192,23428,1,4
471,335,23992,2,4,B|435:299|411:395|363:339,1,120,4|0
224,344,24932,5,0
128,344,25308,1,8
32,344,25683,1,0
32,152,26435,2,0,B|32:32,1,120,0|8
128,32,27187,2,4,B|272:32,2,120,4|4|4
256,288,29067,5,0
255,288,29443,2,4,B|408:280|424:136,2,240
208,288,31135,6,4,L|160:256|104:296,1,120
176,8,32638,6,0,B|40:72,1,120
72,200,33578,1,0
264,200,34330,5,0
264,104,34706,1,0
408,104,35270,2,4,L|456:128|416:144|456:176|416:192|456:224|416:240|456:264|416:288|456:304,1,420
376,360,36962,5,4
328,360,37150,2,4,L|280:328|224:368,1,120
72,120,38653,5,0
168,120,39029,1,0
120,256,39593,1,0
304,192,40345,5,0
400,192,40721,1,0
352,55,41285,2,4,B|306:26|274:10|226:10|170:10|122:10|88:56|72:104|80:160|144:216,1,420
216,240,42982,5,0
312,256,43360,1,8
408,240,43739,1,0
408,96,44307,2,0,L|328:56|248:104,1,180
176,160,45254,1,0
39,295,46011,6,4,B|70:219|142:211|206:283|222:355|294:371|334:302,1,360
384,224,47526,1,4
439,95,48094,2,4,B|403:59|379:155|331:99,1,120,4|0
192,104,49041,5,0
192,200,49420,1,8
96,200,49799,1,0
288,200,50556,6,0,B|424:200,1,120,0|8
360,280,51314,2,4,B|504:280,2,120
256,192,53207,5,4
256,192,53586,12,4,56426
256,192,56994,5,0
160,192,57373,1,0
64,192,57752,1,0
64,288,58131,2,2,B|144:288,3,60
312,288,59456,6,0,B|496:288,1,180
496,192,60403,2,4,B|384:192,2,90
496,96,61350,2,0,B|432:40|320:32|248:56|208:104,1,300
216,192,62675,6,0,L|400:192,2,180
216,288,64190,2,0,L|416:288,2,180
120,288,65705,5,6
48,216,66084,1,2
120,152,66463,1,6
239,71,67031,2,6,B|251:53|339:37|451:61|499:109|512:224|424:288,1,420
336,312,68735,5,0
240,312,69114,1,8
144,312,69492,1,0
48,312,69871,1,8
48,216,70250,2,0,B|48:32,1,180,0|4
239,71,71575,6,0,L|280:142|320:48,1,180
416,48,72522,1,2
472,128,72901,1,2
472,224,73280,2,2,B|336:352|120:296,1,360
256,192,74795,12,4,76120
208,192,76688,5,0
304,192,77067,1,0
256,192,77824,12,4,81249
432,40,82787,6,4,B|56:40,1,360
72,136,84345,2,4,B|448:136,1,360,4|8
432,232,85903,5,0
336,232,86295,1,8
240,232,86687,1,0
144,232,87079,1,12
144,328,87471,6,4,B|288:328,1,120
408,328,88452,2,4,L|456:288|408:256|456:208,1,180
