osu file format v12

[General]
AudioFilename: 11 - Ai Wo Torimodose!!!.mp3
AudioLeadIn: 0
PreviewTime: 13302
Countdown: 0
SampleSet: Normal
StackLeniency: 0.7
Mode: 0
LetterboxInBreaks: 0
EpilepsyWarning: 1
WidescreenStoryboard: 1

[Editor]
Bookmarks: 12668,24742,36912,49176,62522,74768,99832,111974,125732,138248,150572,157209
DistanceSpacing: 0.8
BeatDivisor: 4
GridSize: 4
TimelineZoom: 1

[Metadata]
Title:Ai Wo Torimodose
TitleUnicode:Ai Wo Torimodose
Artist:Crystal King
ArtistUnicode:Crystal King
Creator:kingcobra52
Version:Hard
Source:Fist of the North Star
Tags:Hokuto no Ken You wa Shock opening
BeatmapID:382692
BeatmapSetID:156150

[Difficulty]
HPDrainRate:6
CircleSize:6
OverallDifficulty:7
ApproachRate:8
SliderMultiplier:1.8
SliderTickRate:2

[Events]
//Background and Video events
0,0,"post-396241-1243539564.jpg",0,0
Video,912,"Ai Wo Torimodose.avi"
//Break Periods
2,88139,99815
2,151687,157000
//Storyboard Layer 0 (Background)
//Storyboard Layer 1 (Fail)
//Storyboard Layer 2 (Pass)
//Storyboard Layer 3 (Foreground)
//Storyboard Sound Samples
//Background Colour Transformations
3,100,163,162,255

[TimingPoints]
452,380.952380952381,4,1,0,70,1,0
1213,383.386581469649,4,1,0,70,1,0
2746,376.175548589342,4,1,0,70,1,0
4250,383.386581469649,4,1,0,70,1,0
5783,375,4,1,0,70,1,0
7658,387.096774193548,4,1,0,70,1,0
8819,378.548895899054,4,1,0,70,1,0
10333,389.61038961039,4,1,0,70,1,0
13449,384.615384615385,4,1,0,70,1,0
14987,377.477194086191,4,1,0,70,1,0
31595,378.548895899054,4,1,0,70,1,0
37651,377.358490566038,4,1,0,70,1,0
48217,379.746835443038,4,1,0,70,1,0
52773,380.348652931854,4,1,0,70,1,0
58858,382.165605095541,4,1,0,70,1,0
61915,379.746835443038,4,1,0,70,1,0
63433,379.746835443038,4,1,0,70,1,0
74065,382.165605095541,4,1,0,70,1,0
75597,379.746835443038,4,1,0,70,1,0
81672,383.386581469649,4,1,0,70,1,0
84739,400,4,1,0,70,1,0
91139,392.156862745098,4,1,0,70,1,0
93491,402.684563758389,4,1,0,70,1,0
94296,400,4,1,0,70,1,0
95096,397.350993377483,4,1,0,70,1,0
95890,389.61038961039,4,1,0,70,1,0
100565,-100,4,1,0,70,0,1
102123,387.096774193548,4,1,0,70,1,1
103671,382.348255536084,4,1,0,70,1,1
112847,-100,4,1,0,70,0,0
115906,382.775119617225,4,1,0,70,1,0
132748,384.615384615385,4,1,0,70,1,0
138901,382.165605095541,4,1,0,70,1,0
140429,384.615384615385,4,1,0,70,1,0
143505,381.558028616852,4,1,0,70,1,0
148083,425.531914893617,4,1,0,70,1,0
151487,389.61038961039,4,1,0,70,1,0
153045,392.156862745098,4,1,0,70,1,0
159319,387.096774193548,4,1,0,70,1,0
162415,384.615384615385,4,1,0,70,1,0
163953,389.61038961039,4,1,0,70,1,0
165511,384.615384615385,4,1,0,70,1,0
167049,400,4,1,0,70,1,0
168572,409.556313993174,4,1,0,70,1,0

[Colours]
Combo1 : 255,255,0
Combo2 : 0,0,255
Combo3 : 212,212,212
Combo4 : 131,131,131
Combo5 : 64,128,128
Combo6 : 255,128,64
Combo7 : 255,0,0

[HitObjects]
256,304,642,6,0,L|256:356,2,45,0|0|8,0:0|0:0|0:0,0:0:0:0:
256,160,1213,5,8,0:0:0:0:
184,160,1404,1,0,0:0:0:0:
112,160,1596,1,8,0:0:0:0:
328,160,2171,1,6,0:0:0:0:
328,304,2554,1,0,0:0:0:0:
400,304,2746,1,8,0:0:0:0:
328,304,2934,1,0,0:0:0:0:
400,304,3122,1,8,0:0:0:0:
400,232,3310,2,0,L|400:40,1,180
400,52,3874,1,8,0:0:0:0:
328,52,4062,1,0,0:0:0:0:
256,52,4250,6,0,L|84:0,1,180,2|0,0:0|0:0,0:0:0:0:
64,68,4825,2,0,L|64:67|324:144,1,270,2|0,0:0|0:0,0:0:0:0:
316,216,5591,2,0,L|52:140,1,270,2|0,0:0|0:0,0:0:0:0:
48,208,6345,1,0,0:0:0:0:
60,240,6439,1,0,0:0:0:0:
52,276,6533,1,8,0:0:0:0:
124,332,6720,1,0,0:0:0:0:
152,352,6814,1,0,0:0:0:0:
184,332,6908,1,8,0:0:0:0:
256,280,7095,1,0,0:0:0:0:
288,264,7189,1,0,0:0:0:0:
316,284,7283,5,8,0:0:0:0:
388,284,7470,1,0,0:0:0:0:
316,284,7658,1,8,0:0:0:0:
316,68,8238,1,6,0:0:0:0:
172,72,8625,1,0,0:0:0:0:
172,0,8819,1,8,0:0:0:0:
172,72,9008,1,0,0:0:0:0:
100,76,9197,1,8,0:0:0:0:
28,80,9386,2,0,P|-20:152|28:224,1,180
96,224,9954,1,8,0:0:0:0:
168,224,10143,1,0,0:0:0:0:
240,224,10333,6,0,L|384:96,1,180,2|0,0:0|0:0,0:0:0:0:
372,176,10917,2,0,L|156:-8,1,270,2|0,0:0|0:0,0:0:0:0:
256,192,11696,12,6,12670,0:0:0:0:
256,192,13060,5,6,0:0:0:0:
128,104,13449,5,4,0:0:0:0:
128,104,13641,1,0,0:0:0:0:
272,104,14025,2,0,B|208:168|208:168|280:224|280:224|208:288|208:288,1,270,4|0,0:0|0:0,0:0:0:0:
40,312,15175,1,8,0:0:0:0:
72,248,15364,1,0,0:0:0:0:
48,184,15553,1,8,0:0:0:0:
160,96,15930,1,8,0:0:0:0:
216,144,16119,1,0,0:0:0:0:
288,144,16308,1,8,0:0:0:0:
192,336,16874,5,2,0:0:0:0:
264,320,17063,1,0,0:0:0:0:
320,280,17251,1,2,0:0:0:0:
360,216,17440,1,2,0:0:0:0:
256,120,17818,2,0,P|312:32|416:40,3,180,2|2|2|2,0:0|0:0|0:0|0:0,0:0:0:0:
380,24,19139,1,2,0:0:0:0:
128,280,19516,5,4,0:0:0:0:
128,280,19705,1,0,0:0:0:0:
272,280,20082,2,0,B|208:216|208:216|280:160|280:160|208:96|208:96,1,270,4|0,0:0|0:0,0:0:0:0:
40,72,21215,1,8,0:0:0:0:
96,32,21404,1,0,0:0:0:0:
152,72,21592,1,8,0:0:0:0:
152,216,21970,1,8,0:0:0:0:
96,256,22159,1,0,0:0:0:0:
40,216,22347,1,8,0:0:0:0:
256,192,22914,5,8,0:0:0:0:
256,120,23102,1,0,0:0:0:0:
256,192,23291,1,8,0:0:0:0:
256,264,23480,1,8,0:0:0:0:
400,264,23857,2,0,B|440:344|440:344|480:256,3,180,2|2|2|2,0:0|0:0|0:0|0:0,0:0:0:0:
477,261,25178,1,2,0:0:0:0:
480,120,25556,6,0,L|416:56,1,90,0|8,0:0|0:0,0:0:0:0:
448,120,25933,2,0,L|384:56,1,90,0|8,0:0|0:0,0:0:0:0:
312,64,26311,2,8,L|376:128,1,90
375,127,26688,1,0,0:0:0:0:
376,200,26877,6,0,B|352:248|312:264|272:264|224:232,1,180,0|0,0:0|0:0,0:0:0:0:
160,184,27443,1,0,0:0:0:0:
104,136,27632,1,0,0:0:0:0:
48,184,27821,1,8,0:0:0:0:
104,232,28009,1,0,0:0:0:0:
160,280,28198,1,8,0:0:0:0:
104,328,28387,1,0,0:0:0:0:
48,280,28576,6,2,P|64:92|220:40,1,360
280,36,29519,2,0,P|328:44|376:68,2,90
280,108,30086,2,0,L|464:108,1,180,4|0,0:0|0:0,0:0:0:0:
460,180,30652,2,0,L|276:180,1,180,4|0,0:0|0:0,0:0:0:0:
480,264,31595,6,0,P|472:312|432:320,1,90,0|8,0:0|0:0,0:0:0:0:
372,260,31973,2,0,P|380:212|420:204,1,90,0|8,0:0|0:0,0:0:0:0:
288,320,32352,2,0,B|248:344|160:336|128:264,1,180,8|0,0:0|0:0,0:0:0:0:
96,208,32919,1,0,0:0:0:0:
168,208,33109,1,8,0:0:0:0:
136,144,33298,1,0,0:0:0:0:
208,144,33487,1,8,0:0:0:0:
168,80,33677,1,0,0:0:0:0:
240,80,33866,2,4,P|280:40|336:80,2,135,4|0|0,0:0|0:0|0:0,0:0:0:0:
280,144,34623,6,0,B|376:216|376:216|280:280|280:280|376:360|376:360,1,360,4|0,0:0|0:0,0:0:0:0:
448,360,35569,2,8,L|448:264,1,90
448,128,36137,2,4,L|80:128,2,360
448,128,37839,1,0,0:0:0:0:
272,104,38217,6,0,B|208:168|208:168|280:224|280:224|208:288|208:288,1,270,4|0,0:0|0:0,0:0:0:0:
96,104,39349,1,8,0:0:0:0:
24,104,39537,1,0,0:0:0:0:
96,104,39726,1,8,0:0:0:0:
24,232,40103,1,8,0:0:0:0:
96,232,40292,1,8,0:0:0:0:
384,232,41047,5,8,0:0:0:0:
312,232,41235,1,0,0:0:0:0:
312,304,41424,1,8,0:0:0:0:
384,304,41613,1,8,0:0:0:0:
240,304,41990,2,2,L|240:112,3,180
240,124,43311,1,2,0:0:0:0:
344,88,43688,5,0,0:0:0:0:
344,88,43877,1,0,0:0:0:0:
256,200,44254,2,0,B|192:136|192:136|264:80|264:80|192:16|192:16,1,270,4|0,0:0|0:0,0:0:0:0:
80,208,45386,1,8,0:0:0:0:
128,264,45575,1,0,0:0:0:0:
176,320,45764,1,8,0:0:0:0:
80,208,46141,1,8,0:0:0:0:
128,264,46330,1,8,0:0:0:0:
408,192,47084,5,8,0:0:0:0:
320,192,47273,1,0,0:0:0:0:
408,168,47462,1,8,0:0:0:0:
320,168,47651,1,8,0:0:0:0:
136,168,48028,2,2,B|72:104|72:104|0:160,3,180
1,158,49356,1,2,0:0:0:0:
64,352,49735,6,0,L|128:288,1,90,0|8,0:0|0:0,0:0:0:0:
200,288,50115,2,0,L|264:352,1,90,0|8,0:0|0:0,0:0:0:0:
336,352,50495,2,0,L|400:288,1,90,0|8,0:0|0:0,0:0:0:0:
399,288,50875,1,0,0:0:0:0:
400,216,51065,2,0,B|376:168|336:152|296:152|248:184,1,180
176,184,51634,1,0,0:0:0:0:
104,168,51824,1,0,0:0:0:0:
48,120,52014,1,8,0:0:0:0:
56,48,52204,1,0,0:0:0:0:
112,8,52394,1,8,0:0:0:0:
184,0,52584,1,8,0:0:0:0:
240,40,52773,6,0,B|304:16|368:96|264:160|312:232|452:216|472:112,1,360,4|0,0:0|0:0,0:0:0:0:
472,48,53723,2,0,P|430:29|386:22,2,90,0|8|8,0:0|0:0|0:0,0:0:0:0:
472,120,54294,2,0,P|512:200|464:272,1,180,4|0,0:0|0:0,0:0:0:0:
392,272,54864,2,0,P|352:192|400:120,1,180,4|0,0:0|0:0,0:0:0:0:
192,192,55815,6,0,P|232:177|235:134,1,90,0|8,0:0|0:0,0:0:0:0:
268,32,56196,2,0,P|228:60|194:37,1,90,0|8,0:0|0:0,0:0:0:0:
88,40,56576,2,0,B|41:92|71:175|110:201,1,180,8|0,0:0|0:0,0:0:0:0:
112,272,57147,1,0,0:0:0:0:
80,336,57337,1,8,0:0:0:0:
80,336,57527,1,0,0:0:0:0:
152,336,57717,1,8,0:0:0:0:
152,336,57907,1,0,0:0:0:0:
224,336,58097,2,4,L|285:216,2,135,4|0|0,0:0|0:0|0:0,0:0:0:0:
296,336,58858,6,0,B|416:336|416:336|376:232|376:232|504:232|504:232,1,360,4|0,0:0|0:0,0:0:0:0:
504,160,59813,2,0,L|504:64,2,90,0|0|0,0:0|0:0|0:0,0:0:0:0:
256,192,60386,12,0,63252,0:0:0:0:
256,192,63622,5,0,0:0:0:0:
256,120,63812,2,0,L|352:120,1,90,0|8,0:0|0:0,0:0:0:0:
280,88,64192,2,0,L|184:88,1,90,0|8,0:0|0:0,0:0:0:0:
256,56,64572,2,0,L|352:56,1,90,0|8,0:0|0:0,0:0:0:0:
416,56,64951,2,0,L|512:56,2,90,4|8|0,0:0|0:0|0:0,0:0:0:0:
416,128,65521,2,0,B|408:224|352:280|256:320|144:304,1,360,4|0,0:0|0:0,0:0:0:0:
144,160,66660,6,0,P|152:112|120:96,2,90,0|8|0,0:0|0:0|0:0,0:0:0:0:
228,92,67230,2,0,P|228:28|292:36,2,135,2|2|2,0:0|0:0|0:0,0:0:0:0:
228,92,68179,2,2,B|228:180|228:180|316:148|316:148|316:236|316:236|404:204|404:204|404:292|404:292,1,450,0|2,0:0|0:0,0:0:0:0:
456,232,69508,6,0,L|456:40,2,180,0|8|0,0:0|0:0|0:0,0:0:0:0:
456,232,70648,1,8,0:0:0:0:
456,232,70838,2,4,B|416:344|344:384|240:392|152:376|56:320|0:216|48:120,1,630,4|4,0:0|0:0,0:0:0:0:
152,32,72546,6,0,L|248:32,1,90,2|0,0:0|0:0,0:0:0:0:
240,104,72926,2,0,L|336:104,1,90,2|0,0:0|0:0,0:0:0:0:
336,176,73306,2,2,L|440:176,2,90
288,232,73876,2,0,L|96:232,4,180,2|2|2|2|2,0:0|0:0|0:0|0:0|0:0,0:0:0:0:
256,88,75786,5,0,0:0:0:0:
256,160,75976,1,0,0:0:0:0:
256,160,76166,1,8,0:0:0:0:
192,128,76356,1,0,0:0:0:0:
192,128,76546,1,8,0:0:0:0:
256,88,76736,1,0,0:0:0:0:
256,88,76926,1,8,0:0:0:0:
320,48,77115,2,0,L|416:48,2,90,4|0|0,0:0|0:0|0:0,0:0:0:0:
320,120,77685,2,0,B|352:192|320:304|230:375|104:336,1,360,4|0,0:0|0:0,0:0:0:0:
128,200,78824,6,0,P|174:184|184:144,2,90,0|8|0,0:0|0:0|0:0,0:0:0:0:
128,92,79394,2,2,P|185:33|248:86,1,180
248,86,80153,2,0,B|236:77|328:118|328:118|256:142|256:142|328:182|328:182|256:206|256:206|328:246|328:246|256:270|256:270|320:310|320:310,1,540,2|2,0:0|0:0,0:0:0:0:
440,280,81672,6,0,L|64:280,1,360,4|0,0:0|0:0,0:0:0:0:
80,280,82822,1,0,0:0:0:0:
80,280,83013,2,0,B|96:152|256:280|280:144,1,270,4|8,0:0|0:0,0:0:0:0:
296,80,83780,1,0,0:0:0:0:
360,56,83972,1,8,0:0:0:0:
432,72,84164,1,8,0:0:0:0:
256,192,84739,12,4,87939,0:0:0:0:
256,64,100565,5,4,0:0:0:0:
184,64,100760,1,0,0:0:0:0:
328,64,101149,1,4,0:0:0:0:
472,64,101539,2,4,B|496:112|496:112|456:136|456:136|480:176|480:176,2,135
400,64,102316,1,8,0:0:0:0:
400,136,102510,1,0,0:0:0:0:
400,208,102703,1,8,0:0:0:0:
312,320,103090,1,8,0:0:0:0:
312,248,103284,1,0,0:0:0:0:
312,176,103477,1,8,0:0:0:0:
152,320,104053,5,8,0:0:0:0:
80,320,104244,1,0,0:0:0:0:
80,248,104435,1,8,0:0:0:0:
8,248,104626,1,8,0:0:0:0:
152,248,105009,2,2,P|208:160|312:168,2,180
152,104,106156,1,2,0:0:0:0:
224,104,106347,1,2,0:0:0:0:
224,104,106538,1,2,0:0:0:0:
224,176,106729,5,4,0:0:0:0:
152,176,106920,1,0,0:0:0:0:
296,176,107303,2,0,B|350:103|350:103|415:167|415:167|469:87|469:87,1,270,4|0,0:0|0:0,0:0:0:0:
464,312,108450,1,8,0:0:0:0:
408,352,108641,1,0,0:0:0:0:
352,312,108832,1,8,0:0:0:0:
208,312,109215,1,8,0:0:0:0:
152,352,109406,1,0,0:0:0:0:
96,312,109597,1,8,0:0:0:0:
256,168,110170,5,8,0:0:0:0:
216,104,110362,1,0,0:0:0:0:
296,104,110553,1,8,0:0:0:0:
256,40,110744,1,8,0:0:0:0:
256,216,111126,2,2,B|256:312|256:312|316:232,2,180
400,216,112273,1,2,0:0:0:0:
400,288,112465,1,2,0:0:0:0:
452,240,112656,1,2,0:0:0:0:
432,156,112847,6,0,L|368:92,1,90,0|8,0:0|0:0,0:0:0:0:
424,112,113229,2,0,L|360:48,1,90,0|8,0:0|0:0,0:0:0:0:
416,12,113612,2,0,L|256:108,1,180,8|0,0:0|0:0,0:0:0:0:
261,104,114185,1,0,0:0:0:0:
188,104,114376,1,8,0:0:0:0:
188,176,114567,1,0,0:0:0:0:
260,176,114759,1,8,0:0:0:0:
224,240,114950,1,8,0:0:0:0:
368,240,115332,1,0,0:0:0:0:
408,300,115523,1,8,0:0:0:0:
336,300,115714,1,8,0:0:0:0:
264,304,115906,5,4,0:0:0:0:
264,304,116097,2,0,P|148:352|48:248,1,270,4|0,0:0|0:0,0:0:0:0:
120,244,116862,2,0,P|148:276|200:284,2,90
120,172,117437,2,0,L|304:172,1,180,2|2,0:0|0:0,0:0:0:0:
300,100,118011,2,0,L|116:100,1,180,2|2,0:0|0:0,0:0:0:0:
128,240,118776,6,0,P|211:250|247:174,1,180,4|0,0:0|0:0,0:0:0:0:
144,140,119350,2,0,P|103:125|100:82,1,90,8|0,0:0|0:0,0:0:0:0:
208,80,119733,2,0,B|231:39|312:3|375:51,1,180,8|0,0:0|0:0,0:0:0:0:
428,84,120307,1,0,0:0:0:0:
380,140,120499,1,8,0:0:0:0:
332,192,120690,1,0,0:0:0:0:
380,248,120882,1,8,0:0:0:0:
428,300,121073,1,8,0:0:0:0:
332,192,121456,1,0,0:0:0:0:
260,192,121647,1,8,0:0:0:0:
188,192,121839,1,8,0:0:0:0:
260,192,122030,5,4,0:0:0:0:
260,192,122221,2,0,B|260:104|260:104|164:104|164:104|164:8|164:8,1,270,4|0,0:0|0:0,0:0:0:0:
88,20,122987,1,0,0:0:0:0:
88,92,123178,1,4,0:0:0:0:
88,20,123370,1,4,0:0:0:0:
256,192,123561,12,4,126432,0:0:0:0:
256,192,126815,5,0,0:0:0:0:
256,264,127006,2,0,L|352:264,1,90,0|8,0:0|0:0,0:0:0:0:
280,296,127389,2,0,L|184:296,1,90,0|8,0:0|0:0,0:0:0:0:
256,328,127772,2,0,L|352:328,1,90,0|8,0:0|0:0,0:0:0:0:
416,328,128154,2,0,L|512:328,2,90,4|8|0,0:0|0:0|0:0,0:0:0:0:
416,256,128728,2,0,B|408:160|352:104|256:64|144:80,1,360,4|0,0:0|0:0,0:0:0:0:
280,192,129877,6,0,P|314:168|303:127,2,90
172,192,130451,2,2,P|111:188|108:249,2,135
172,192,131408,2,2,B|182:104|182:104|266:147|266:147|276:59|276:59|360:102|360:102|371:14|371:14,1,450
456,152,132748,6,0,L|456:344,2,180,0|8|0,0:0|0:0|0:0,0:0:0:0:
456,152,133901,1,8,0:0:0:0:
456,152,134094,2,4,B|416:40|344:0|240:-8|152:8|56:64|0:168|48:264,1,630
152,352,135824,6,0,L|248:352,1,90,2|0,0:0|0:0,0:0:0:0:
240,280,136209,2,0,L|336:280,1,90,2|0,0:0|0:0,0:0:0:0:
336,208,136594,2,2,L|440:208,2,90
288,152,137171,2,0,L|96:152,4,180,2|2|2|2|2,0:0|0:0|0:0|0:0|0:0,0:0:0:0:
256,296,139092,5,0,0:0:0:0:
216,232,139283,1,0,0:0:0:0:
216,232,139474,1,8,0:0:0:0:
296,232,139665,1,0,0:0:0:0:
296,232,139856,1,8,0:0:0:0:
256,176,140047,1,0,0:0:0:0:
256,176,140238,1,8,0:0:0:0:
256,104,140429,2,0,L|256:8,2,90,4|0|0,0:0|0:0|0:0,0:0:0:0:
256,104,141005,2,0,B|352:64|464:96|512:216|450:325,1,360,4|0,0:0|0:0,0:0:0:0:
320,288,142159,6,0,P|366:304|376:344,2,90
212,288,142736,2,2,P|162:222|223:168,1,180
376,80,143505,2,2,B|368:8|368:8|480:16|480:16|467:84|467:84|395:100|395:100|392:160|392:160|416:216|416:216|480:288|480:288,1,540
344,352,145031,6,0,L|144:352,2,180,0|8|0,0:0|0:0|0:0,0:0:0:0:
344,208,146175,1,8,0:0:0:0:
344,208,146366,2,0,B|320:74|160:202|144:74,1,270,4|8,0:0|0:0,0:0:0:0:
176,16,147129,1,0,0:0:0:0:
248,8,147320,1,8,0:0:0:0:
312,32,147511,1,8,0:0:0:0:
256,192,148083,12,4,151487,0:0:0:0:
256,160,157750,5,8,0:0:0:0:
328,160,157946,1,0,0:0:0:0:
400,160,158143,1,8,0:0:0:0:
184,160,158731,1,6,0:0:0:0:
184,304,159123,1,0,0:0:0:0:
112,304,159319,1,8,0:0:0:0:
184,304,159512,1,0,0:0:0:0:
112,304,159706,1,8,0:0:0:0:
112,232,159899,2,0,L|112:40,1,180,4|0,0:0|0:0,0:0:0:0:
112,52,160480,1,4,0:0:0:0:
184,52,160673,1,0,0:0:0:0:
256,52,160867,6,0,L|448:52,2,180,0|8|0,0:0|0:0|0:0,0:0:0:0:
256,200,162028,2,0,L|208:200,3,45,2|0|0|0,0:0|0:0|0:0|0:0,0:0:0:0:
208,248,162415,2,0,L|256:248,3,45,2|0|0|0,0:0|0:0|0:0|0:0,0:0:0:0:
256,296,162799,2,0,L|208:296,3,45,2|0|0|0,0:0|0:0|0:0|0:0,0:0:0:0:
208,344,163184,2,0,L|256:344,3,45,2|0|0|0,0:0|0:0|0:0|0:0,0:0:0:0:
253,344,163568,1,2,0:0:0:0:
432,344,163953,5,8,0:0:0:0:
432,344,164147,1,0,0:0:0:0:
432,256,164342,2,0,L|208:64,1,270,8|4,0:0|0:0,0:0:0:0:
88,192,165316,1,0,0:0:0:0:
88,264,165511,1,8,0:0:0:0:
88,192,165703,1,0,0:0:0:0:
88,120,165895,1,8,0:0:0:0:
88,48,166087,2,0,L|272:48,1,180,4|0,0:0|0:0,0:0:0:0:
344,48,166664,1,8,0:0:0:0:
344,48,166857,1,0,0:0:0:0:
344,120,167049,6,0,L|512:232,1,180,4|0,0:0|0:0,0:0:0:0:
496,152,167649,2,0,L|280:336,1,270,4|0,0:0|0:0,0:0:0:0:
256,192,168449,12,4,171643,0:0:0:0:
