osu file format v14

[General]
AudioFilename: violent dreams.mp3
AudioLeadIn: 0
PreviewTime: 67368
Countdown: 0
SampleSet: Soft
StackLeniency: 0.7
Mode: 0
LetterboxInBreaks: 0
WidescreenStoryboard: 0

[Editor]
DistanceSpacing: 1
BeatDivisor: 8
GridSize: 4
TimelineZoom: 1

[Metadata]
Title:Violent Dreams [Sidewalks And Skeletons REMIX]
TitleUnicode:Violent Dreams [Sidewalks And Skeletons REMIX]
Artist:Crystal Castles
ArtistUnicode:Crystal Castles
Creator:Auxent
Version:Dark
Source:
Tags:alice glass ethan kath experimental goth witch house witchhouse telegram publishing records
BeatmapID:833127
BeatmapSetID:380779

[Difficulty]
HPDrainRate:5
CircleSize:4.5
OverallDifficulty:5
ApproachRate:7
SliderMultiplier:1.6
SliderTickRate:1

[Events]
//Background and Video events
0,0,"xKcHwD0.jpg",0,0
//Break Periods
2,101295,113775
//Storyboard Layer 0 (Background)
//Storyboard Layer 1 (Fail)
//Storyboard Layer 2 (Pass)
//Storyboard Layer 3 (Foreground)
//Storyboard Sound Samples

[TimingPoints]
16885,526.315789473684,4,2,3,30,1,0
50592,526.315789473684,4,2,3,30,1,0
50592,-125,4,2,3,30,0,0
67411,526.315789473684,4,2,3,30,1,0
67411,-80,4,1,1,35,0,1
82147,-100,4,1,1,35,0,0
82411,-100,4,1,2,30,0,0
82674,-80,4,1,2,30,0,0
83200,-66.6666666666667,4,1,2,30,0,0
84253,-80,4,1,1,35,0,1
101095,-100,4,2,0,30,0,0
115832,-100,4,2,3,30,0,0
134647,-100,4,2,0,30,0,0
134911,-100,4,2,3,30,0,0
151621,-80,4,1,1,35,0,1
166358,-100,4,1,1,35,0,0
166621,-100,4,1,2,30,0,0
166884,-80,4,1,2,30,0,0
167411,-66.6666666666667,4,1,2,30,0,0
168463,-80,4,1,1,35,0,1
185305,-100,4,2,0,15,0,0

[Colours]
Combo1 : 56,112,112
Combo2 : 83,166,166
Combo3 : 95,74,174
Combo4 : 135,132,189
SliderBorder : 160,160,160
SliderTrackOverride : 80,80,80

[HitObjects]
109,277,16885,6,0,P|112:204|168:124,1,160,4|0,0:0|0:0,0:0:0:0:
264,251,17938,1,0,0:0:0:0:
377,137,18464,1,0,0:0:0:0:
328,289,18991,6,0,P|258:324|193:273,1,160,4|0,0:0|0:0,0:0:0:0:
194,122,20043,1,0,0:0:0:0:
112,259,20570,1,0,0:0:0:0:
259,197,21096,6,0,L|422:216,1,160,4|0,0:0|0:0,0:0:0:0:
318,341,22148,1,0,0:0:0:0:
177,264,22675,1,0,0:0:0:0:
198,105,23201,6,0,B|119:128|119:128|64:189,1,160,4|0,0:0|0:0,0:0:0:0:
142,327,24254,1,0,0:0:0:0:
294,280,24780,1,0,0:0:0:0:
294,119,25306,6,0,L|450:155,1,160,4|0,0:0|0:0,0:0:0:0:
296,200,26359,2,0,P|244:181|228:78,1,160
98,190,27412,6,0,L|149:342,1,160,4|0,0:0|0:0,0:0:0:0:
297,282,28464,2,0,P|368:296|452:251,1,160
351,143,29517,6,0,L|182:125,2,160,4|0|0,0:0|0:0|0:0,0:0:0:0:
489,223,31096,1,0,0:0:0:0:
352,306,31622,6,0,L|183:324,2,160,4|0|0,0:0|0:0|0:0,0:0:0:0:
424,162,33201,1,0,0:0:0:0:
272,111,33727,6,0,L|165:100,1,80,4|2,0:0|0:0,0:0:0:0:
128,150,34254,1,0,0:0:0:0:
110,227,34517,2,0,P|154:221|188:199,1,80,2|0,0:0|0:0,0:0:0:0:
262,219,35043,1,2,0:0:0:0:
326,267,35306,2,0,L|352:191,1,80,0|2,0:0|0:0,0:0:0:0:
466,155,35833,6,0,L|413:308,1,160,4|0,0:0|0:0,0:0:0:0:
297,334,36622,1,2,0:0:0:0:
241,276,36885,2,0,P|248:234|233:184,1,80,0|2,0:0|0:0,0:0:0:0:
169,236,37412,2,0,P|141:203|93:182,1,80,0|2,0:0|0:0,0:0:0:0:
66,298,37938,6,0,L|140:338,1,80,4|2,0:0|0:0,0:0:0:0:
208,302,38464,2,0,P|234:269|192:164,1,160
145,107,39254,1,2,0:0:0:0:
240,107,39517,2,0,L|331:117,1,80,0|2,0:0|0:0,0:0:0:0:
423,175,40043,6,0,L|437:257,2,80,4|2|0,0:0|0:0|0:0,0:0:0:0:
344,192,40833,1,2,0:0:0:0:
268,217,41096,2,0,P|229:206|187:209,1,80,0|2,0:0|0:0,0:0:0:0:
141,271,41622,2,0,P|180:282|222:279,1,80,0|2,0:0|0:0,0:0:0:0:
304,195,42148,6,0,P|374:203|407:288,1,160,4|0,0:0|0:0,0:0:0:0:
350,332,42938,1,2,0:0:0:0:
270,325,43201,2,0,L|246:244,1,80,0|2,0:0|0:0,0:0:0:0:
304,195,43727,2,0,L|328:114,1,80,0|2,0:0|0:0,0:0:0:0:
255,26,44254,5,4,0:0:0:0:
187,69,44517,1,2,0:0:0:0:
112,41,44780,2,0,P|105:80|118:117,1,80,0|2,0:0|0:0,0:0:0:0:
129,197,45306,2,0,L|200:238,1,80,0|2,0:0|0:0,0:0:0:0:
270,202,45833,1,0,0:0:0:0:
323,261,46096,1,2,0:0:0:0:
223,327,46359,6,0,L|197:243,2,80,4|2|0,0:0|0:0|0:0,0:0:0:0:
299,349,47148,1,2,0:0:0:0:
373,318,47412,2,0,P|395:280|396:237,1,80,0|2,0:0|0:0,0:0:0:0:
341,187,47938,2,0,P|319:225|318:268,1,80,0|2,0:0|0:0,0:0:0:0:
205,304,48464,6,0,L|116:294,2,80,4|2|0,0:0|0:0|0:0,0:0:0:0:
252,239,49254,1,2,0:0:0:0:
317,192,49517,1,0,0:0:0:0:
395,205,49780,2,0,L|452:283,1,80,2|0,0:0|0:0,0:0:0:0:
379,319,50306,1,2,0:0:0:0:
283,308,50592,6,0,B|226:300|184:349|184:349|160:350|111:283|172:209,1,256,4|0,0:0|0:0,0:0:0:0:
257,108,52171,1,0,0:0:0:0:
395,174,52698,1,0,0:0:0:0:
257,242,53224,2,0,L|255:374,2,128
169,115,54803,5,4,0:0:0:0:
36,188,55329,2,0,P|136:265|264:237,1,256
366,144,56908,1,4,0:0:0:0:
459,266,57434,2,0,L|326:342,1,128
194,329,58487,1,0,0:0:0:0:
128,189,59013,6,0,P|171:198|114:104,1,256,4|0,0:0|0:0,0:0:0:0:
14,197,60592,1,0,0:0:0:0:
152,263,61119,2,0,B|218:267|218:267|275:232,1,128,4|0,0:0|0:0,0:0:0:0:
363,111,62171,1,0,0:0:0:0:
425,251,62698,1,0,0:0:0:0:
283,310,63224,6,0,B|232:296|188:312|188:312|140:267|140:267|112:316|58:306,1,256,4|0,0:0|0:0,0:0:0:0:
72,232,64540,2,0,P|48:156|112:64,1,192,0|4,0:0|0:0,0:0:0:0:
241,139,65855,1,0,0:0:0:0:
335,260,66382,1,0,0:0:0:0:
438,146,66908,1,0,0:0:0:0:
296,71,67411,6,0,L|192:77,1,100,4|0,0:0|0:0,0:0:0:0:
123,145,67938,1,0,0:0:0:0:
166,234,68201,1,0,0:0:0:0:
106,314,68464,2,0,L|12:280,1,100
40,183,68990,1,0,0:0:0:0:
133,66,69253,1,8,0:0:0:0:
133,66,69385,1,8,0:0:0:0:
133,66,69517,6,0,P|197:56|270:167,1,200,8|0,0:0|0:0,0:0:0:0:
226,242,70306,1,0,0:0:0:0:
300,308,70569,2,0,P|352:330|394:324,1,100
362,229,71096,2,0,P|415:212|444:180,1,100,0|8,0:0|0:0,0:0:0:0:
357,130,71622,5,0,0:0:0:0:
262,96,71885,1,0,0:0:0:0:
176,148,72148,2,0,P|187:205|166:254,1,100
89,188,72674,2,0,P|106:88|191:53,1,200
272,177,73464,1,8,0:0:0:0:
272,177,73596,1,8,0:0:0:0:
272,177,73727,6,0,B|288:230|288:230|271:279,1,100,8|0,0:0|0:0,0:0:0:0:
352,210,74253,2,0,B|336:157|336:157|353:108,1,100
265,63,74780,1,0,0:0:0:0:
194,133,75043,1,0,0:0:0:0:
94,119,75306,1,0,0:0:0:0:
29,195,75569,1,8,0:0:0:0:
133,302,75832,6,0,L|244:306,1,100,4|0,0:0|0:0,0:0:0:0:
320,257,76359,2,0,P|377:252|425:274,2,100
237,199,77148,1,0,0:0:0:0:
162,132,77411,1,0,0:0:0:0:
296,66,77674,1,8,0:0:0:0:
296,66,77806,1,8,0:0:0:0:
296,66,77938,6,0,L|328:279,1,200,8|0,0:0|0:0,0:0:0:0:
255,335,78727,1,0,0:0:0:0:
164,291,78990,2,0,L|67:246,1,100
65,149,79517,2,0,L|162:194,1,100,0|8,0:0|0:0,0:0:0:0:
302,159,80043,6,0,P|355:175|403:166,1,100
449,254,80569,1,0,0:0:0:0:
372,318,80832,1,0,0:0:0:0:
274,294,81096,2,0,B|211:260|170:296|125:337|73:295,1,200
116,199,81885,1,0,0:0:0:0:
116,199,82017,1,8,0:0:0:0:
116,199,82148,5,8,0:0:0:0:
235,199,82411,6,2,L|320:210,1,80,0|8,0:0|0:0,0:0:0:0:
389,144,82938,6,2,L|280:132,1,100,0|10,0:0|0:0,0:0:0:0:
203,49,83464,6,2,L|337:64,1,120.000004577637,0|10,0:0|0:0,0:0:0:0:
390,143,83990,1,8,0:0:0:0:
328,221,84253,6,0,P|295:169|346:51,1,200,4|0,0:0|0:0,0:0:0:0:
445,85,85043,1,0,0:0:0:0:
442,185,85306,2,0,P|448:237|474:276,1,100
393,335,85832,1,0,0:0:0:0:
271,246,86096,1,8,0:0:0:0:
271,246,86227,1,8,0:0:0:0:
271,246,86359,6,0,P|282:199|265:139,2,100,8|0|0,0:0|0:0|0:0,0:0:0:0:
182,198,87148,1,0,0:0:0:0:
96,249,87411,2,0,L|138:345,1,100
182,198,87938,2,0,L|140:102,1,100,0|8,0:0|0:0,0:0:0:0:
241,106,88464,6,0,P|302:96|377:216,1,200
315,270,89253,1,0,0:0:0:0:
237,333,89517,2,0,P|182:344|131:324,1,100
74,257,90043,1,0,0:0:0:0:
147,125,90306,1,0,0:0:0:0:
147,125,90438,1,8,0:0:0:0:
147,125,90569,6,0,L|46:112,2,100,8|0|0,0:0|0:0|0:0,0:0:0:0:
220,193,91359,1,0,0:0:0:0:
308,146,91622,2,0,P|362:157|417:139,2,100
233,79,92411,1,8,0:0:0:0:
141,197,92674,6,0,P|192:264|295:221,1,200,4|0,0:0|0:0,0:0:0:0:
378,185,93464,1,0,0:0:0:0:
453,250,93727,2,0,P|474:208|473:154,2,100
307,284,94517,1,8,0:0:0:0:
307,284,94648,1,8,0:0:0:0:
307,284,94780,6,0,L|302:166,1,100,8|0,0:0|0:0,0:0:0:0:
243,102,95306,1,0,0:0:0:0:
158,155,95569,2,0,L|54:166,1,100
115,247,96096,2,0,L|30:308,1,100
128,338,96622,1,8,0:0:0:0:
258,263,96885,6,0,B|303:232|358:259|358:259|408:285|451:248,1,200
399,163,97674,1,0,0:0:0:0:
310,116,97938,2,0,B|255:104|255:104|204:108,1,100
151,187,98464,1,0,0:0:0:0:
48,76,98727,1,8,0:0:0:0:
48,76,98859,1,8,0:0:0:0:
48,76,98990,6,0,P|78:128|35:260,1,200,8|0,0:0|0:0,0:0:0:0:
114,323,99780,1,0,0:0:0:0:
201,275,100043,2,0,P|250:264|303:278,1,100
318,177,100569,2,0,P|362:200|394:244,1,100,0|8,0:0|0:0,0:0:0:0:
354,336,101095,5,4,0:0:0:0:
256,192,115832,12,4,117938,0:0:0:0:
110,303,118463,5,0,0:0:0:0:
144,230,118727,1,2,0:0:0:0:
83,181,118990,2,0,P|150:152|220:220,1,160
265,264,119780,1,2,0:0:0:0:
377,222,120043,6,0,P|394:187|391:130,1,80,4|2,0:0|0:0,0:0:0:0:
317,165,120569,2,0,P|300:130|303:73,1,80,0|2,0:0|0:0,0:0:0:0:
218,89,121095,2,0,P|180:79|138:40,1,80,0|2,0:0|0:0,0:0:0:0:
83,101,121622,2,0,L|75:193,1,80,0|2,0:0|0:0,0:0:0:0:
161,265,122148,6,0,L|344:285,1,160,4|0,0:0|0:0,0:0:0:0:
390,243,122938,1,2,0:0:0:0:
345,176,123201,1,0,0:0:0:0:
408,126,123464,1,2,0:0:0:0:
474,170,123727,2,0,L|469:265,1,80,0|2,0:0|0:0,0:0:0:0:
373,321,124253,5,4,0:0:0:0:
331,252,124517,1,2,0:0:0:0:
331,252,124780,2,0,P|347:200|303:107,1,160
228,82,125569,1,2,0:0:0:0:
156,108,125832,2,0,L|73:89,1,80,0|2,0:0|0:0,0:0:0:0:
146,188,126359,6,0,P|201:172|225:74,1,160,4|0,0:0|0:0,0:0:0:0:
303,53,127148,1,2,0:0:0:0:
330,128,127411,2,0,L|503:154,1,160
480,231,128201,1,2,0:0:0:0:
382,301,128464,6,0,P|372:257|382:215,1,80,4|2,0:0|0:0,0:0:0:0:
323,165,128990,2,0,P|333:121|323:79,1,80,0|2,0:0|0:0,0:0:0:0:
246,120,129517,2,0,P|193:125|117:53,1,160
54,105,130306,1,2,0:0:0:0:
94,218,130569,6,0,B|150:254|150:254|257:244,1,160,4|0,0:0|0:0,0:0:0:0:
309,201,131359,1,2,0:0:0:0:
373,154,131622,2,0,L|381:68,2,80,0|2|0,0:0|0:0|0:0,0:0:0:0:
447,184,132411,1,2,0:0:0:0:
358,264,132674,6,0,P|332:300|327:353,1,80,4|2,0:0|0:0,0:0:0:0:
263,284,133201,2,0,L|155:282,1,80,0|2,0:0|0:0,0:0:0:0:
118,235,133727,1,0,0:0:0:0:
151,162,133990,1,2,0:0:0:0:
265,124,134253,1,0,0:0:0:0:
232,197,134517,1,2,0:0:0:0:
323,274,134780,6,0,L|492:243,1,160,4|0,0:0|0:0,0:0:0:0:
439,175,135569,1,2,0:0:0:0:
362,151,135832,2,0,P|314:167|265:160,1,80,0|2,0:0|0:0,0:0:0:0:
200,250,136359,2,0,P|184:298|191:347,1,80,0|2,0:0|0:0,0:0:0:0:
259,302,136885,6,0,P|273:226|206:171,1,160,4|0,0:0|0:0,0:0:0:0:
138,196,137674,1,2,0:0:0:0:
138,196,137938,1,0,0:0:0:0:
100,116,138201,1,2,0:0:0:0:
100,116,138464,1,0,0:0:0:0:
156,59,138727,1,2,0:0:0:0:
229,89,138990,6,0,L|325:88,1,80,4|2,0:0|0:0,0:0:0:0:
418,137,139517,2,0,P|394:210|436:288,1,160
368,335,140306,1,2,0:0:0:0:
292,308,140569,2,0,L|200:301,1,80,0|2,0:0|0:0,0:0:0:0:
155,245,141095,6,0,P|128:173|173:97,1,160,4|0,0:0|0:0,0:0:0:0:
237,135,141885,1,2,0:0:0:0:
291,194,142148,2,0,B|330:204|330:204|369:193,1,80,0|2,0:0|0:0,0:0:0:0:
453,108,142674,2,0,B|414:98|414:98|375:109,1,80,0|2,0:0|0:0,0:0:0:0:
262,68,143201,6,0,P|189:82|172:157,1,160,4|0,0:0|0:0,0:0:0:0:
124,221,143990,1,2,0:0:0:0:
173,283,144253,2,0,L|251:311,1,80,0|2,0:0|0:0,0:0:0:0:
248,230,144780,2,0,L|326:258,1,80,0|2,0:0|0:0,0:0:0:0:
397,225,145306,5,4,0:0:0:0:
357,155,145569,1,2,0:0:0:0:
420,106,145832,2,0,P|436:148|462:177,1,80,0|2,0:0|0:0,0:0:0:0:
460,255,146359,2,0,P|431:284|392:292,1,80,0|2,0:0|0:0,0:0:0:0:
323,257,146885,1,0,0:0:0:0:
250,290,147148,1,2,0:0:0:0:
130,290,147411,5,4,0:0:0:0:
84,224,147674,1,2,0:0:0:0:
77,144,147938,2,0,P|31:136|-5:114,1,80,0|2,0:0|0:0,0:0:0:0:
61,65,148464,2,0,P|123:80|145:178,1,160
192,232,149253,1,2,0:0:0:0:
192,232,149517,5,4,0:0:0:0:
256,192,149780,12,0,151095,0:0:0:0:
103,276,151622,6,0,L|85:173,1,100,4|0,0:0|0:0,0:0:0:0:
147,98,152148,1,0,0:0:0:0:
233,148,152411,1,0,0:0:0:0:
326,111,152674,2,0,P|383:105|433:126,1,100
365,201,153201,1,0,0:0:0:0:
258,307,153464,1,8,0:0:0:0:
258,307,153595,1,8,0:0:0:0:
258,307,153727,6,0,P|212:293|160:299,1,100,8|0,0:0|0:0,0:0:0:0:
74,348,154253,2,0,P|60:291|79:244,1,100
140,179,154780,1,0,0:0:0:0:
236,204,155043,1,0,0:0:0:0:
327,161,155306,1,0,0:0:0:0:
400,228,155569,1,8,0:0:0:0:
400,228,155832,6,0,L|309:285,1,100
223,319,156359,1,0,0:0:0:0:
137,266,156622,1,0,0:0:0:0:
149,167,156885,2,0,B|160:116|160:116|138:63,1,100
56,124,157411,1,0,0:0:0:0:
29,271,157674,1,8,0:0:0:0:
29,271,157806,1,8,0:0:0:0:
29,271,157938,6,0,P|87:322|169:251,1,200,8|0,0:0|0:0,0:0:0:0:
239,184,158727,1,0,0:0:0:0:
315,247,158990,2,0,P|364:262|413:253,1,100
370,159,159517,1,0,0:0:0:0:
220,159,159780,1,8,0:0:0:0:
144,224,160043,6,0,L|91:133,1,100,4|0,0:0|0:0,0:0:0:0:
141,49,160569,1,0,0:0:0:0:
231,91,160832,1,0,0:0:0:0:
289,171,161095,2,0,P|299:221|280:269,1,100
201,207,161622,2,0,P|169:246|120:263,1,100,0|8,0:0|0:0,0:0:0:0:
74,259,162017,1,8,0:0:0:0:
27,239,162148,6,0,L|15:136,1,100,8|0,0:0|0:0,0:0:0:0:
82,65,162674,1,0,0:0:0:0:
177,94,162938,1,0,0:0:0:0:
269,134,163201,2,0,L|385:156,1,100
299,225,163727,2,0,L|183:203,1,100,0|8,0:0|0:0,0:0:0:0:
68,276,164253,5,0,0:0:0:0:
59,176,164517,1,0,0:0:0:0:
130,106,164780,2,0,P|179:127|205:167,1,100
288,110,165306,2,0,P|239:89|213:49,1,100
117,24,165832,1,0,0:0:0:0:
62,167,166095,1,8,0:0:0:0:
62,167,166227,1,8,0:0:0:0:
62,167,166359,5,8,0:0:0:0:
140,257,166622,6,2,P|186:265|220:253,1,80,0|8,0:0|0:0,0:0:0:0:
301,308,167148,6,2,P|346:316|403:295,1,100,0|8,0:0|0:0,0:0:0:0:
344,218,167674,6,2,P|375:160|366:93,1,120.000004577637,0|8,0:0|0:0,0:0:0:0:
283,145,168201,1,8,0:0:0:0:
153,69,168464,6,0,L|132:167,1,100,4|0,0:0|0:0,0:0:0:0:
60,237,168990,1,0,0:0:0:0:
60,237,169253,1,0,0:0:0:0:
142,292,169517,2,0,P|202:289|249:312,1,100
327,259,170043,1,0,0:0:0:0:
360,112,170306,1,8,0:0:0:0:
360,112,170438,1,8,0:0:0:0:
360,112,170569,6,0,P|303:107|252:132,1,100,8|0,0:0|0:0,0:0:0:0:
212,208,171095,2,0,L|160:109,1,100
83,62,171622,1,0,0:0:0:0:
12,132,171885,1,0,0:0:0:0:
82,202,172148,1,0,0:0:0:0:
152,272,172411,1,8,0:0:0:0:
299,243,172674,6,0,L|407:252,1,100
355,160,173201,2,0,P|317:123|264:122,1,100
190,178,173727,2,0,P|113:160|91:53,1,200
179,98,174517,1,8,0:0:0:0:
179,98,174648,1,8,0:0:0:0:
179,98,174780,6,0,L|380:111,1,200,8|0,0:0|0:0,0:0:0:0:
425,199,175569,1,0,0:0:0:0:
351,266,175832,2,0,B|301:279|301:279|245:262,1,100
162,302,176359,1,0,0:0:0:0:
86,172,176622,1,0,0:0:0:0:
86,172,176885,6,0,L|93:58,2,100,4|0|0,0:0|0:0|0:0,0:0:0:0:
136,258,177674,1,0,0:0:0:0:
230,223,177938,2,0,P|268:184|278:129,1,100
353,74,178464,1,0,0:0:0:0:
459,180,178727,1,8,0:0:0:0:
459,180,178859,1,8,0:0:0:0:
459,180,178990,6,0,P|470:232|460:285,2,100,8|0|0,0:0|0:0|0:0,0:0:0:0:
363,149,179780,1,0,0:0:0:0:
363,149,180043,1,0,0:0:0:0:
282,208,180306,1,0,0:0:0:0:
282,208,180569,1,0,0:0:0:0:
182,208,180832,1,8,0:0:0:0:
75,313,181095,6,0,L|179:344,1,100
250,281,181622,2,0,P|308:281|353:247,2,100
107,140,182674,1,0,0:0:0:0:
195,93,182938,1,8,0:0:0:0:
195,93,183069,1,8,0:0:0:0:
195,93,183201,6,0,P|208:148|186:200,1,100,8|0,0:0|0:0,0:0:0:0:
286,228,183727,2,0,P|273:173|295:121,1,100
376,176,184253,1,0,0:0:0:0:
366,275,184517,1,0,0:0:0:0:
270,304,184780,1,0,0:0:0:0:
194,238,185043,1,8,0:0:0:0:
97,238,185306,5,4,0:0:0:0:
256,192,185438,12,0,189517,0:0:0:0:
