osu file format v14

[General]
AudioFilename: zone1_3.mp3
AudioLeadIn: 0
PreviewTime: 27400
Countdown: 1
SampleSet: Soft
StackLeniency: 0.7
Mode: 0
LetterboxInBreaks: 1
WidescreenStoryboard: 0

[Editor]
DistanceSpacing: 1.3
BeatDivisor: 2
GridSize: 4
TimelineZoom: 1.600006

[Metadata]
Title:Zone1-3
TitleUnicode:Zone1-3
Artist:Crypt of the Necrodancer
ArtistUnicode:Crypt of the Necrodancer
Creator:gun33333
Version:Easy
Source:
Tags:
BeatmapID:748414
BeatmapSetID:338282

[Difficulty]
HPDrainRate:2
CircleSize:3
OverallDifficulty:2
ApproachRate:3
SliderMultiplier:1
SliderTickRate:1

[Events]
//Background and Video events
0,0,"Dance.jpg",0,0
//Break Periods
//Storyboard Layer 0 (Background)
//Storyboard Layer 1 (Fail)
//Storyboard Layer 2 (Pass)
//Storyboard Layer 3 (Foreground)
//Storyboard Sound Samples

[TimingPoints]
0,428.571428571429,4,2,0,40,1,0
400,428.571428571429,4,2,0,40,1,0
14114,-100,4,2,0,60,0,0
15828,-74.0740740740741,4,2,0,60,0,0
16257,-100,4,2,0,60,0,0
22685,-74.0740740740741,4,2,0,60,0,0
23114,-100,4,2,0,60,0,0
27400,-100,4,2,0,86,0,1
41114,-100,4,1,0,60,0,0
47971,-100,4,3,0,100,0,0
48828,-100,4,3,0,80,0,0
54828,-100,4,2,0,90,0,0
61685,-100,4,2,0,80,0,0
80078,-100,4,2,0,10,0,0
80485,-100,4,2,0,85,0,1
92542,-100,4,2,0,74,0,1
94685,-100,4,2,0,75,0,0

[HitObjects]
104,76,0,5,0,0:0:0:0:
232,112,400,1,0,0:0:0:0:
348,172,828,2,0,P|332:276|208:280,1,200
144,228,2114,1,0,0:0:0:0:
156,100,2542,2,0,P|248:52|304:76,2,100
268,168,3828,5,0,0:0:0:0:
228,292,4257,2,0,B|308:200|400:300|416:160,1,200
376,84,5542,1,0,0:0:0:0:
248,92,5971,2,0,B|172:84|172:84|108:116,2,100
364,152,7257,5,0,0:0:0:0:
320,276,7685,2,0,P|236:292|200:272,1,100
116,216,8542,1,0,0:0:0:0:
152,92,8971,1,0,0:0:0:0:
280,76,9400,2,0,P|384:92|396:140,1,100
396,208,10257,2,0,P|392:328|360:348,2,100
320,104,11542,1,0,0:0:0:0:
188,108,11971,2,0,P|93:136|24:207,2,200
316,104,14114,6,0,P|384:112|424:156,1,100
220,312,15400,1,0,0:0:0:0:
108,180,15828,2,0,B|100:104,1,67.500000257492
288,64,16685,1,0,0:0:0:0:
500,212,17542,2,0,P|416:264|376:264,1,100
260,56,18828,6,0,B|212:32|212:32|164:64,2,100
372,124,20114,1,0,0:0:0:0:
448,232,20542,2,0,P|392:344|360:352,1,100
160,328,21828,1,0,0:0:0:0:
92,216,22257,1,0,0:0:0:0:
140,96,22685,2,0,L|216:36,1,67.500000257492
388,48,23542,5,0,0:0:0:0:
408,176,23971,2,0,P|304:332|136:244,2,400,0|0|4,0:0|0:0|0:0,0:0:0:0:
316,84,27828,5,2,0:0:0:0:
188,56,28257,2,0,P|96:156|92:200,1,100,0|2,0:0|0:0,0:0:0:0:
128,248,29114,1,0,0:0:0:0:
252,284,29542,1,2,0:0:0:0:
380,256,29971,2,0,P|409:156|400:128,1,100,0|2,0:0|0:0,0:0:0:0:
324,68,30828,1,0,0:0:0:0:
196,64,31257,2,0,P|104:128|96:164,2,100,2|0|2,0:0|0:0|0:0,0:0:0:0:
200,196,32542,1,0,0:0:0:0:
212,324,32971,2,0,P|288:268|304:200,2,100,2|0|2,0:0|0:0|0:0,0:0:0:0:
172,196,34257,5,0,0:0:0:0:
192,68,34685,2,0,L|360:64,1,100,2|0,0:0|0:0,0:0:0:0:
392,152,35542,1,2,0:0:0:0:
328,264,35971,1,0,0:0:0:0:
200,260,36400,2,0,P|156:228|112:140,1,100,2|0,0:0|0:0,0:0:0:0:
156,64,37257,6,0,B|268:80|176:164|316:188,1,200,2|2,0:0|0:0,0:0:0:0:
412,252,38542,1,0,0:0:0:0:
300,320,38971,1,2,0:0:0:0:
176,288,39400,2,0,L|24:248,1,100,0|2,0:0|0:0,0:0:0:0:
108,136,40257,2,0,L|188:56,1,100,0|2,0:0|0:0,0:0:0:0:
308,64,41114,6,0,P|352:104|404:216,2,100
184,100,42400,1,0,0:0:0:0:
112,208,42828,2,0,P|176:288|212:308,1,100
304,276,43685,2,0,P|404:208|416:196,2,100
176,264,44971,1,0,0:0:0:0:
84,176,45400,2,0,P|180:92|204:88,1,100
276,68,46257,2,0,P|368:128|392:160,1,100
252,188,47114,2,0,L|144:188,1,100
68,88,47971,5,0,0:0:0:0:
196,88,48400,1,0,0:0:0:0:
324,116,48828,2,0,P|432:244|408:304,2,200
196,100,50971,1,0,0:0:0:0:
88,172,51400,2,0,P|80:300|88:312,2,100
200,108,52685,1,0,0:0:0:0:
328,136,53114,2,0,P|404:224|404:232,1,100
308,292,53971,2,12,L|192:292,1,100
112,208,54828,6,0,P|152:96|172:88,1,100,0|2,0:0|0:0,0:0:0:0:
228,196,55685,2,0,P|232:88|216:68,2,100,0|2|0,0:0|0:0|0:0,0:0:0:0:
308,300,56971,1,2,0:0:0:0:
428,252,57400,2,0,B|432:184|432:184|412:144,1,100,0|2,0:0|0:0,0:0:0:0:
308,84,58257,1,0,0:0:0:0:
176,84,58685,2,0,B|56:136|96:260,2,200,2|2|2,0:0|0:0|0:0,0:0:0:0:
304,76,60828,1,0,0:0:0:0:
404,160,61257,1,2,0:0:0:0:
328,264,61685,6,0,P|180:264|128:220,1,200
60,152,62971,1,0,0:0:0:0:
160,68,63400,2,0,P|268:64|288:80,2,100
124,192,64685,2,0,P|176:304|272:328,1,200
368,304,65971,1,0,0:0:0:0:
440,196,66400,2,0,P|328:64|280:64,2,200
348,288,68542,2,0,P|224:288|208:280,1,100
284,172,69400,2,0,P|160:172|144:180,1,100
96,260,70257,2,0,P|68:156|72:140,2,100
220,304,71542,5,0,0:0:0:0:
352,304,71971,2,0,P|428:176|420:128,1,200
300,84,73257,1,0,0:0:0:0:
168,88,73685,2,0,P|92:216|100:264,1,200
228,284,74971,1,0,0:0:0:0:
356,288,75400,2,0,P|432:160|424:112,2,200
228,260,77542,1,0,0:0:0:0:
140,164,77971,2,0,P|188:56|208:44,1,100
256,192,78828,12,0,80114,0:0:0:0:
180,184,80542,6,0,L|76:184,2,100,0|2|0,0:0|0:0|0:0,0:0:0:0:
284,264,81828,1,2,0:0:0:0:
404,312,82257,2,0,B|476:228|456:112|456:112|440:96,2,200
272,312,84400,2,0,P|164:300|148:292,1,100,2|0,0:0|0:0,0:0:0:0:
52,256,85257,2,0,P|92:160|120:140,1,100,2|0,0:0|0:0,0:0:0:0:
208,116,86114,2,0,P|308:184|312:200,2,100,2|0|2,0:0|0:0|0:0,0:0:0:0:
112,204,87400,5,4,0:0:0:0:
208,288,87828,2,0,P|328:320|340:320,1,100,2|0,0:0|0:0,0:0:0:0:
396,228,88685,1,2,0:0:0:0:
344,108,89114,2,0,B|260:84|260:84|212:96,2,100,0|2|0,0:0|0:0|0:0,0:0:0:0:
388,232,90400,1,2,0:0:0:0:
260,220,90828,1,0,0:0:0:0:
132,204,91257,6,0,P|176:92|280:48,1,200,2|2,0:0|0:0,0:0:0:0:
368,84,92542,2,2,P|400:204|396:216,1,100
276,152,93400,2,2,P|244:272|248:284,1,100
368,228,94257,2,2,P|400:348|396:360,1,100
276,300,95114,2,2,P|156:332|144:328,1,100
172,208,95971,2,2,P|140:88|144:76,2,100
268,120,97257,1,2,0:0:0:0:
388,68,97685,2,2,P|364:248|328:292,1,200
232,288,98971,6,2,P|124:276|100:260,1,100
