osu file format v5

[General]
AudioFilename: crush 40 -seven rings in hand.mp3
AudioLeadIn: 1500
PreviewTime: -1
Countdown: 1
SampleSet: Normal
StackLeniency: 0.7
Mode: 0
LetterboxInBreaks: 1
SkinPreference:Sonic

[Metadata]
Title:Seven Rings In Hand ~Crush 40 Version~
Artist:Crush 40
Creator:Zomba13
Version:Prologue
Source:Sonic and the Secret Rings
Tags:sonic crush 40 zomba13 secret rings hedgehog rock

[Difficulty]
HPDrainRate:7
CircleSize:5
OverallDifficulty:5
SliderMultiplier:1.4
SliderTickRate:2

[Events]
//Background and Video events
0,0,"461445791c356d9ba5c_2.jpg"
//Break Periods
2,13137,18300
2,23450,26925
2,61137,62925
//Storyboard Layer 0 (Background)
//Storyboard Layer 1 (Failing)
//Storyboard Layer 2 (Passing)
//Storyboard Layer 3 (Foreground)
//Storyboard Sound Samples
//Background Colour Transformations
3,100,163,162,255

[TimingPoints]
0,375,4,1,1,100,1,0

[Colours]
Combo1 : 206,19,206
Combo2 : 20,47,228
Combo3 : 251,194,26
Combo4 : 255,15,15
Combo5 : 16,224,43

[HitObjects]
64,64,1312,1,4
192,64,1687,1,0
192,64,1875,1,0
320,64,2250,1,0
320,64,2437,1,0
448,64,2812,1,4
224,256,3375,2,2,B|288:256|288:256|192:256|352:256,2,140
256,160,4312,5,0
192,96,4687,1,0
192,96,4875,1,0
320,96,5250,1,0
320,96,5437,1,0
64,320,5812,5,6
192,320,6187,1,6
320,320,6562,1,6
448,320,6937,1,6
448,96,7312,5,0
320,96,7687,1,0
320,96,7875,1,4
192,96,8250,1,0
192,96,8437,1,0
64,96,8812,1,0
256,224,9187,2,6,L|224:256|288:256|256:224,2,140
256,320,10312,5,0
128,160,10687,1,0
128,160,10875,1,0
384,160,11250,1,0
384,160,11437,1,0
448,64,11812,5,6
320,64,12187,1,6
192,64,12562,1,6
64,64,12937,1,6
256,192,19500,12,2,20250
256,192,21000,12,2,21750
256,192,22500,12,2,23250
96,64,28125,5,8
160,160,28500,1,8
256,64,28875,1,8
320,160,29250,1,8
416,64,29625,1,8
256,256,30000,1,0
256,256,30187,1,0
192,320,30562,1,4
320,320,30937,1,4
64,224,31500,5,8
160,96,31875,1,8
352,96,32250,1,8
448,224,32625,1,8
256,288,33187,1,8
256,64,34125,5,0
320,160,34500,2,2,B|384:160|384:160|288:160|448:160,1,140
192,160,35250,1,0
256,256,35625,1,0
256,256,35812,1,0
160,352,36187,1,0
256,352,36562,2,0,B|416:352,1,140
64,224,37500,5,8
160,96,37875,1,8
352,96,38250,1,8
448,224,38625,1,8
256,288,39187,1,8
96,64,40125,5,0
64,160,40500,2,0,B|224:160|64:160|-32:160,1,140
128,256,41250,1,0
192,320,41625,1,0
288,320,42000,1,0
320,320,42187,1,0
416,288,42562,1,0
416,256,42750,1,0
416,224,42937,1,0
64,224,43500,5,8
160,96,43875,1,8
352,96,44250,1,8
448,224,44625,1,8
256,288,45187,1,8
128,64,46125,5,0
256,64,46500,1,0
384,64,46875,1,0
192,192,47250,2,2,B|256:192|256:192|256:192|352:192,2,140
128,320,48187,1,4
224,320,48562,1,0
288,320,48750,1,0
384,320,48937,1,0
64,224,49500,5,8
160,96,49875,1,8
352,96,50250,1,8
448,224,50625,1,8
256,288,51187,1,8
448,352,52125,5,0
448,256,52500,1,0
448,160,52875,1,0
448,64,53250,1,0
352,160,53625,1,6
320,192,53812,1,6
288,224,54000,1,6
256,256,54187,1,6
96,352,55125,5,0
96,256,55500,1,0
96,160,55875,1,0
96,64,56250,1,0
192,128,56625,1,0
224,160,56812,1,0
256,192,57000,1,0
288,224,57187,1,0
384,320,57562,1,8
384,320,57937,1,8
256,160,59625,5,0
256,160,59812,1,0
256,160,60000,1,0
256,160,60187,1,0
192,256,60562,1,0
320,256,60937,1,0
128,96,64125,5,0
352,96,64500,1,0
352,256,64875,1,0
128,256,65250,1,0
128,192,65625,1,8
128,160,65812,1,8
128,128,66000,1,8
128,96,66187,1,8
192,96,67125,5,0
256,96,67500,1,0
320,96,67875,1,0
256,160,68250,2,0,L|96:160|96:192,1,140
320,160,68812,2,0,L|384:160|352:160|416:160,1,140
288,224,69562,1,0
384,224,69937,1,0
288,224,70500,5,0
192,192,70875,1,0
192,160,71062,1,0
192,128,71250,1,0
352,96,71437,1,0
352,96,71625,1,0
352,160,72000,1,0
352,224,72187,1,0
288,288,72562,2,0,L|222:288|300:288,2,140
192,160,73875,5,0
192,160,74062,1,0
192,160,74250,1,0
320,160,74625,1,0
320,160,74812,1,0
320,160,75000,1,0
320,160,75187,1,0
288,224,76125,5,10
224,224,76312,5,10
160,128,76687,5,10
256,64,77062,5,10
352,128,77437,5,10
160,192,78187,5,0
160,192,78562,1,0
160,128,78937,1,0
256,160,79500,1,0
352,128,79875,1,0
352,128,80062,1,0
352,192,80437,1,0
224,96,82125,5,10
288,96,82312,5,10
320,192,82687,5,10
256,256,83062,5,10
192,192,83437,5,10
224,128,84187,5,0
160,128,84562,1,0
160,192,84937,1,0
160,288,85500,1,0
224,288,85875,1,0
256,288,86062,1,0
256,224,86437,1,0
128,288,87375,5,0
416,288,87750,1,0
288,224,88125,5,10
224,224,88312,5,10
192,160,88687,5,10
256,96,89062,5,10
320,160,89437,5,10
160,160,90187,5,0
256,256,90562,1,0
352,160,90937,1,0
256,64,91500,1,0
256,160,91875,1,0
256,160,92062,1,0
224,256,92437,2,2,B|288:256|288:256|192:256|352:256,3,140
224,244,94125,5,0
288,244,94312,5,0
348,146,94687,5,0
259,81,95062,5,0
169,151,95437,5,0
256,32,96187,5,0
256,192,96562,1,0
256,352,96937,1,0
320,224,97500,1,0
192,224,97875,1,0
192,224,98062,1,0
50,184,98437,2,2,L|495:185,1,420
256,192,100500,12,2,102187
256,192,103125,12,2,105562
256,192,106312,12,2,108750
256,192,109500,12,2,111562
