osu file format v5

[General]
AudioFilename: crush 40 -seven rings in hand.mp3
AudioLeadIn: 1500
PreviewTime: -1
Countdown: 1
SampleSet: Normal
StackLeniency: 0.7
Mode: 0
LetterboxInBreaks: 1
SkinPreference:Sonic

[Metadata]
Title:Seven Rings In Hand ~Crush 40 Version~
Artist:Crush 40
Creator:Zomba13
Version:Extended Edition
Source:Sonic and the Secret Rings
Tags:sonic crush 40 zomba13 secret rings hedgehog rock

[Difficulty]
HPDrainRate:7
CircleSize:5
OverallDifficulty:5
SliderMultiplier:1.4
SliderTickRate:2

[Events]
//Background and Video events
0,0,"Sonic_and_the_Secret_Rings.jpg"
//Break Periods
2,13137,18300
2,61137,62925
2,111762,122925
2,127137,128550
2,145137,158925
//Storyboard Layer 0 (Background)
//Storyboard Layer 1 (Failing)
//Storyboard Layer 2 (Passing)
//Storyboard Layer 3 (Foreground)
//Storyboard Sound Samples
//Background Colour Transformations
3,100,163,162,255

[TimingPoints]
0,375,4,1,1,100,1,0

[Colours]
Combo1 : 206,19,206
Combo2 : 20,47,228
Combo3 : 251,194,26
Combo4 : 255,15,15
Combo5 : 16,224,43

[HitObjects]
128,96,1312,1,4
128,192,1687,1,0
160,192,1875,1,0
256,192,2250,1,0
288,192,2437,1,0
384,192,2812,1,4
448,192,3375,2,2,B|448:256|448:256|448:224|448:320,1,140
352,320,4312,5,0
256,320,4687,1,0
256,320,4875,1,0
160,320,5250,1,0
160,320,5437,1,0
64,224,5812,5,6
192,224,6187,1,6
320,224,6562,1,6
416,224,6937,1,6
416,96,7312,5,0
320,96,7687,1,0
320,96,7875,1,4
192,96,8250,1,0
192,96,8437,1,0
64,96,8812,1,0
256,224,9187,2,6,L|224:256|288:256|256:224,2,140
256,320,10312,5,0
320,288,10687,1,0
384,288,10875,1,0
448,224,11250,1,0
448,160,11437,1,0
448,64,11812,5,6
320,64,12187,1,6
192,64,12562,1,6
64,64,12937,1,6
256,192,19500,12,2,20250
256,192,21000,12,2,21750
256,192,22500,12,2,23250
128,160,25125,5,0
128,160,25340,1,0
256,160,25681,1,0
256,160,25884,1,0
384,160,26225,1,0
384,160,26419,1,0
96,64,28125,5,8
96,160,28500,1,8
96,256,28875,1,8
96,352,29250,1,8
192,352,29625,1,8
288,352,30000,1,0
320,352,30187,1,0
416,352,30562,1,4
416,256,30937,1,4
416,128,31500,5,8
320,64,31875,1,8
224,128,32250,1,8
128,64,32625,1,8
32,192,33187,1,8
128,256,34125,5,0
224,256,34500,2,2,B|288:256|288:256|192:256|352:256,1,140
384,256,35250,1,0
384,160,35625,1,0
384,160,35812,1,0
320,96,36187,1,0
224,96,36562,2,0,B|224:240,1,140
64,224,37500,5,8
160,96,37875,1,8
352,96,38250,1,8
448,224,38625,1,8
256,288,39187,1,8
96,64,40125,5,0
64,160,40500,2,0,B|224:160|64:160|-32:160,1,140
128,256,41250,1,0
192,320,41625,1,0
288,320,42000,1,0
320,320,42187,1,0
416,288,42562,1,0
416,256,42750,1,0
416,224,42937,1,0
416,128,43500,5,8
320,128,43875,1,8
224,128,44250,1,8
128,128,44625,1,8
0,128,45187,1,8
96,128,46125,5,0
160,128,46500,1,0
224,128,46875,1,0
320,128,47250,2,2,B|384:128|384:128|384:128|480:128,2,140
320,192,48187,1,4
320,288,48562,1,0
288,288,48750,1,0
256,288,48937,1,0
64,224,49500,5,8
160,96,49875,1,8
352,96,50250,1,8
448,224,50625,1,8
256,288,51187,1,8
448,352,52125,5,0
448,256,52500,1,0
448,160,52875,1,0
448,64,53250,1,0
352,160,53625,1,6
320,192,53812,1,6
288,224,54000,1,6
256,256,54187,1,6
96,352,55125,5,0
96,256,55500,1,0
96,160,55875,1,0
96,64,56250,1,0
192,128,56625,1,0
224,160,56812,1,0
256,192,57000,1,0
288,224,57187,1,0
384,320,57562,1,8
384,320,57937,1,8
256,64,59625,5,0
256,96,59812,1,0
256,128,60000,1,0
256,160,60187,1,0
224,256,60562,1,0
288,256,60937,1,0
128,160,64125,5,0
128,256,64500,1,0
224,256,64875,1,0
320,256,65250,1,0
320,160,65625,1,8
320,128,65812,1,8
320,96,66000,1,8
320,64,66187,1,8
192,64,67125,5,0
192,128,67500,1,0
192,192,67875,1,0
192,256,68250,2,0,L|32:256|32:288,1,140
64,320,68812,2,0,L|128:320|64:320|160:320,1,140
192,320,69562,1,0
288,320,69937,1,0
288,224,70500,5,0
192,224,70875,1,0
160,224,71062,1,0
128,224,71250,1,0
128,192,71437,1,0
128,160,71625,1,0
192,160,71852,1,0
288,160,72187,1,0
288,224,72562,2,0,L|222:224|300:224,2,140
288,160,73875,5,0
288,160,74062,1,0
288,160,74250,1,0
160,160,74625,1,0
160,160,74812,1,0
160,160,75000,1,0
160,160,75187,1,0
288,224,76125,5,10
224,224,76312,5,10
160,128,76687,5,10
256,64,77062,5,10
352,128,77437,5,10
352,256,78187,5,0
352,320,78562,1,0
288,320,78937,1,0
160,320,79500,1,0
96,320,79875,1,0
96,320,80062,1,0
96,256,80437,1,0
224,96,82125,5,10
288,96,82312,5,10
320,192,82687,5,10
256,256,83062,5,10
192,192,83437,5,10
192,64,84187,5,0
128,64,84562,1,0
128,128,84937,1,0
128,256,85500,1,0
128,320,85875,1,0
128,320,86062,1,0
192,320,86437,1,0
128,288,87375,5,0
416,288,87750,1,0
288,224,88125,5,10
224,224,88312,5,10
186,149,88687,5,10
256,82,89062,5,10
330,146,89437,5,10
448,160,90187,5,0
352,224,90562,1,0
256,160,90937,1,0
256,64,91500,1,0
256,160,91875,1,0
256,160,92062,1,0
224,256,92437,2,2,B|288:256|288:256|192:256|352:256,3,140
224,244,94125,5,0
288,244,94312,5,0
348,146,94687,5,0
259,81,95062,5,0
169,151,95437,5,0
160,256,96187,5,0
160,352,96562,1,0
256,352,96937,1,0
384,352,97500,1,0
384,256,97875,1,0
384,256,98062,1,0
480,192,98437,2,2,L|0:192,1,420
256,192,100500,12,2,102187
256,192,103125,12,2,105562
256,192,106312,12,2,108750
256,192,109500,12,2,111562
64,96,124125,5,0
160,96,124500,1,0
192,96,124687,1,0
224,96,124875,1,0
320,96,125250,1,0
352,96,125437,1,0
384,96,125625,1,0
416,96,125812,1,0
416,192,126187,1,0
416,288,126562,1,0
384,288,126750,1,0
352,288,126937,1,0
160,32,129750,5,0
320,96,130125,1,0
160,192,130500,1,0
320,288,130875,1,0
160,352,131062,1,0
160,352,131250,1,0
160,352,131437,1,0
160,352,131625,1,0
160,352,131812,1,0
128,192,132187,2,0,L|416:192,1,280
224,64,135750,5,0
256,96,135937,1,0
288,64,136125,1,0
352,192,136500,1,0
256,192,136875,1,0
160,192,137250,1,0
224,288,137625,1,0
288,288,137812,1,0
224,288,138000,1,0
288,288,138187,1,0
128,64,139125,5,0
192,128,139500,1,0
128,192,139875,1,0
192,256,140250,1,0
128,320,140625,1,0
128,320,140812,1,0
224,320,141000,1,0
224,320,141187,1,0
288,320,141562,1,0
352,320,141937,1,0
128,320,143625,1,0
128,320,143812,1,0
224,320,144000,1,0
224,320,144187,1,0
288,320,144562,1,0
352,320,144937,1,0
288,238,160125,5,10
224,238,160312,5,10
186,163,160687,5,10
256,96,161062,5,10
330,160,161437,5,10
448,174,162187,5,0
352,238,162562,1,0
256,174,162937,1,0
160,224,163500,1,0
64,160,163875,1,0
64,160,164062,1,0
224,270,164437,2,2,B|288:270|288:270|192:270|352:270,3,140
288,224,166125,5,10
224,224,166312,5,10
186,149,166687,5,10
256,82,167062,5,10
330,146,167437,5,10
384,288,168187,5,0
384,224,168562,1,0
384,160,168937,1,0
384,96,169500,1,0
288,96,169875,1,0
256,96,170062,1,0
128,96,170437,2,2,B|192:96|192:96|96:96|256:96,3,140
288,224,172125,5,10
224,224,172312,5,10
186,149,172687,5,10
256,82,173062,5,10
330,146,173437,5,10
224,320,174187,5,0
288,256,174562,1,0
224,192,174937,1,0
288,128,175500,1,0
224,64,175875,1,0
224,64,176062,1,0
320,64,176437,2,2,B|384:64|384:64|288:64|448:64,3,140
224,244,178125,5,0
288,244,178312,5,0
348,146,178687,5,0
259,81,179062,5,0
169,151,179437,5,0
160,256,180187,5,0
160,352,180562,1,0
256,352,180937,1,0
384,352,181500,1,0
384,256,181875,1,0
384,256,182062,1,0
480,192,182437,2,2,L|0:192,1,420
256,192,184500,12,0,186750
256,192,187312,12,0,189937
256,192,190312,12,0,192750
256,192,193312,12,0,195562
256,192,196125,12,0,198937
256,192,199312,12,0,201750
256,192,202500,12,0,205125
256,192,205875,12,0,207375
