osu file format v14

[General]
AudioFilename: Sonic Heroes Soundtrack [HQ] - Rail Canyon.mp3
AudioLeadIn: 0
PreviewTime: 46706
Countdown: 0
SampleSet: None
StackLeniency: 0.7
Mode: 0
LetterboxInBreaks: 1
WidescreenStoryboard: 1

[Editor]
Bookmarks: 64364
DistanceSpacing: 1.2
BeatDivisor: 2
GridSize: 32
TimelineZoom: 3.699999

[Metadata]
Title:Rail Canyon
TitleUnicode:Rail Canyon
Artist:Crush 40
ArtistUnicode:Crush 40
Creator:FiahRose
Version:Veteran
Source:Sonic Heroes 2003 Soundtrack
Tags:Rock Drums Sonic Heroes
BeatmapID:729103
BeatmapSetID:328323

[Difficulty]
HPDrainRate:4
CircleSize:3.5
OverallDifficulty:3
ApproachRate:3.5
SliderMultiplier:1.3
SliderTickRate:1

[Events]
//Background and Video events
0,0,"BG1.jpg",0,0
//Break Periods
2,71209,73807
//Storyboard Layer 0 (Background)
//Storyboard Layer 1 (Fail)
//Storyboard Layer 2 (Pass)
//Storyboard Layer 3 (Foreground)
//Storyboard Sound Samples

[TimingPoints]
1136.43635393736,379.746835443038,4,3,1,100,1,0
46706,-100,4,3,1,100,0,1
71009,-100,4,3,1,100,0,0
123414,-83.3333333333333,4,3,1,100,0,1
147718,-100,4,3,1,100,0,0

[Colours]
Combo1 : 242,225,13
Combo2 : 255,0,0
Combo3 : 18,124,255

[HitObjects]
416,192,1136,6,0,P|384:224|256:224,1,130,8|2,0:0|0:0,0:0:0:0:
231,210,1706,2,0,P|263:178|391:178,1,130,8|2,0:0|0:0,0:0:0:0:
403,109,2275,1,2,0:0:0:0:
331,77,2465,2,0,P|256:70|167:129,2,130,8|0|0,0:0|0:0|0:0,0:0:0:0:
403,109,3414,2,0,P|432:157|401:214,1,65,8|0,0:0|0:0,0:0:0:0:
384,224,3794,2,0,P|355:258|304:252,1,65,8|0,0:0|0:0,0:0:0:0:
258,272,4174,6,0,B|192:234|192:234|193:150,1,130,8|2,0:0|0:0,0:0:0:0:
201,102,4744,2,0,B|267:140|267:140|266:234,1,130,8|2,0:0|0:0,0:0:0:0:
310,258,5313,1,2,0:0:0:0:
376,299,5503,2,0,P|452:263|449:169,2,130,8|0|8,0:0|0:0|0:0,0:0:0:0:
299,315,6452,1,8,0:0:0:0:
224,291,6642,2,0,B|185:281|152:250,1,65,8|2,0:0|0:0,0:0:0:0:
126,194,7022,1,8,0:0:0:0:
106,118,7212,6,0,B|161:113|161:112|196:171|278:149,1,130,8|0,0:0|0:0,0:0:0:0:
289,103,7782,1,2,0:0:0:0:
365,113,7971,2,0,L|366:223,2,65,8|0|8,0:0|0:0|0:0,0:0:0:0:
367,34,8541,2,0,B|303:35|312:28|299:130|206:58,1,130
175,85,9111,2,0,B|150:161|252:174|251:174|246:229,2,130
331,80,10250,5,8,0:0:0:0:
342,157,10440,2,0,B|318:157|303:213|268:212,1,65
226,236,10819,2,0,B|203:231|187:180|152:181,1,65
135,136,11199,1,8,0:0:0:0:
135,136,11389,1,0,0:0:0:0:
135,136,11579,2,0,B|202:135|234:98|235:98|307:100,1,130,8|0,0:0|0:0,0:0:0:0:
337,105,12149,2,0,L|336:198,2,65
336,26,12718,2,0,L|248:26,1,65,8|8,0:0|0:0,0:0:0:0:
129,35,13288,6,0,B|132:117|212:158|149:189,1,130,8|0,0:0|0:0,0:0:0:0:
102,190,13857,2,0,P|129:237|173:250,1,65
174,310,14237,2,0,P|229:276|232:233,1,65
305,283,14617,2,0,B|338:246|258:205|270:154,1,130,8|0,0:0|0:0,0:0:0:0:
347,152,15187,2,0,P|321:75|234:77,2,130,8|0|8,0:0|0:0|0:0,0:0:0:0:
323,320,16326,6,0,P|229:345|167:301,1,130,8|2,0:0|0:0,0:0:0:0:
143,283,16895,2,0,P|100:208|145:130,1,130,8|2,0:0|0:0,0:0:0:0:
149,102,17465,1,0,0:0:0:0:
215,60,17655,2,0,P|291:55|365:123,1,130,8|8,0:0|0:0,0:0:0:0:
346,158,18225,2,0,P|373:213|361:251,1,65,8|0,0:0|0:0,0:0:0:0:
296,230,18604,2,0,P|252:281|214:281,1,65,2|2,0:0|0:0,0:0:0:0:
179,287,18984,1,8,0:0:0:0:
179,288,19364,6,0,B|143:212|167:192|148:107,2,130,8|0|0,0:0|0:0|0:0,0:0:0:0:
256,299,20313,2,0,P|293:316|329:297,1,65
391,295,20693,6,0,B|427:219|403:199|422:114,2,130,8|0|0,0:0|0:0|0:0,0:0:0:0:
315,303,21642,2,0,P|275:323|236:298,1,65
259,239,22022,2,0,P|222:221|160:250,1,65
136,174,22402,2,0,P|239:132|295:146,2,130,8|0|0,0:0|0:0|0:0,0:0:0:0:
86,113,23351,2,0,P|148:69|188:61,1,65
212,52,23731,2,0,B|320:62|354:79,1,130,8|0,0:0|0:0,0:0:0:0:
414,97,24300,2,0,P|424:148|375:181,1,65
341,164,24680,2,0,P|365:229|384:228,1,65,0|8,0:0|0:0,0:0:0:0:
426,230,25060,1,8,0:0:0:0:
366,85,25440,6,0,B|358:8|297:11|232:89,1,130,8|0,0:0|0:0,0:0:0:0:
209,90,26009,2,0,L|94:141,1,65
164,193,26389,2,0,L|249:236,1,65
296,247,26769,2,0,P|377:209|385:123,1,130,8|0,0:0|0:0,0:0:0:0:
410,100,27338,2,0,P|359:28|294:54,1,130
249,43,27908,1,0,0:0:0:0:
172,60,28098,2,0,P|128:99|171:209,1,130,8|8,0:0|0:0,0:0:0:0:
169,232,28668,2,0,P|192:266|252:280,1,65,0|8,0:0|0:0,0:0:0:0:
287,299,29047,2,0,P|386:258|412:189,2,130,8|0|8,0:0|0:0|0:0,0:0:0:0:
256,192,29997,12,12,31516,0:0:0:0:
356,139,31895,6,0,B|293:115|188:183|165:81,2,195,8|2|12,0:0|0:0|0:0,0:0:0:0:
438,160,33225,2,0,P|425:220|368:224,1,65
403,294,33604,2,0,P|340:317|299:286,1,65
270,340,33984,2,0,P|203:311|168:272,1,65,8|8,0:0|0:0,0:0:0:0:
116,190,34554,6,0,P|122:107|184:46,2,130,12|0|8,0:0|0:0|0:0,0:0:0:0:
189,153,35503,1,0,0:0:0:0:
266,140,35693,2,0,L|375:83,1,65,8|8,0:0|0:0,0:0:0:0:
315,31,36073,2,0,P|425:74|432:122,1,130,2|8,0:0|0:0,0:0:0:0:
436,150,36642,2,0,B|396:175|390:238|276:218,1,130,8|2,0:0|0:0,0:0:0:0:
259,248,37212,2,0,B|204:215|113:165,1,130,8|6,0:0|0:0,0:0:0:0:
249,60,37971,5,2,0:0:0:0:
249,60,38161,2,0,P|344:101|367:174,1,130,8|0,0:0|0:0,0:0:0:0:
431,141,38731,2,0,P|408:195|364:203,1,65,8|8,0:0|0:0,0:0:0:0:
350,253,39111,1,8,0:0:0:0:
326,111,39490,5,2,0:0:0:0:
326,111,39680,2,0,P|231:152|219:223,1,130,8|0,0:0|0:0,0:0:0:0:
151,203,40250,2,0,P|174:257|211:272,1,65,8|8,0:0|0:0,0:0:0:0:
245,297,40630,1,8,0:0:0:0:
320,312,40819,2,0,P|363:298|401:266,1,65,8|8,0:0|0:0,0:0:0:0:
426,223,41199,6,0,P|428:128|318:51,1,195,4|8,0:0|0:0,0:0:0:0:
284,43,41959,2,0,P|229:56|194:108,1,65,8|0,0:0|0:0,0:0:0:0:
151,91,42338,1,0,0:0:0:0:
121,163,42528,2,0,P|135:234|224:258,1,130,8|8,0:0|0:0,0:0:0:0:
256,192,43288,12,12,46706,0:0:0:0:
352,159,47085,5,0,0:0:0:0:
408,104,47275,2,0,P|312:59|253:100,1,130,8|8,0:0|0:0,0:0:0:0:
223,89,47845,2,2,P|153:167|182:216,1,130,2|14,0:0|0:0,0:0:0:0:
302,211,48604,5,8,0:0:0:0:
368,252,48794,2,0,P|272:297|222:261,1,130
186,257,49364,2,0,L|93:192,2,65,8|8|4,0:0|0:0|0:0,0:0:0:0:
272,127,50123,1,0,0:0:0:0:
341,161,50313,2,0,P|376:193|319:292,1,130,8|8,0:0|0:0,0:0:0:0:
300,311,50883,1,8,0:0:0:0:
224,298,51073,2,0,L|160:225,2,65,8|2|0,0:0|0:0|0:0,0:0:0:0:
324,229,51832,5,0,0:0:0:0:
324,229,52022,2,2,P|384:164|262:82,1,260,10|14,0:0|0:0,0:0:0:0:
135,137,53161,1,0,0:0:0:0:
135,137,53351,2,0,P|71:199|64:279,2,130,12|0|0,0:0|0:0|0:0,0:0:0:0:
178,201,54300,2,0,P|234:156|237:114,1,65,8|0,0:0|0:0,0:0:0:0:
258,95,54680,2,0,P|351:107|415:147,1,130,8|8,0:0|0:0,0:0:0:0:
403,277,55440,1,8,0:0:0:0:
236,312,55819,6,0,P|135:276|123:206,1,130,8|8,0:0|0:0,0:0:0:0:
117,185,56389,1,8,0:0:0:0:
185,145,56579,2,0,P|275:149|311:227,1,130
331,245,57149,2,0,P|417:203|418:102,1,195,8|8,0:0|0:0,0:0:0:0:
367,59,57908,2,2,P|269:29|136:83,1,195,8|8,0:0|0:0,0:0:0:0:
136,114,58668,2,0,L|134:236,1,65,8|12,0:0|0:0,0:0:0:0:
264,265,59237,5,0,0:0:0:0:
338,326,59427,2,0,P|371:280|344:186,1,130,8|0,0:0|0:0,0:0:0:0:
287,189,59997,2,0,P|261:124|293:51,1,130,0|12,0:0|0:0,0:0:0:0:
107,59,60756,5,0,0:0:0:0:
107,59,60946,2,0,P|149:135|116:223,1,130,8|2,0:0|0:0,0:0:0:0:
126,251,61516,2,0,L|218:253,1,65,8|0,0:0|0:0,0:0:0:0:
238,314,61895,2,0,P|315:294|380:228,1,130,12|0,0:0|0:0,0:0:0:0:
326,190,62465,2,0,P|374:118|380:51,1,130,8|8,0:0|0:0,0:0:0:0:
302,79,63035,2,0,P|291:45|239:27,1,65,8|0,0:0|0:0,0:0:0:0:
189,30,63414,2,0,P|145:65|139:112,1,65,8|0,0:0|0:0,0:0:0:0:
125,261,63984,5,8,0:0:0:0:
125,261,64174,2,2,B|232:264|179:169|319:167|309:264|401:262,1,260,8|12,0:0|0:0,0:0:0:0:
373,93,65313,1,0,0:0:0:0:
294,93,65503,2,0,B|207:91|158:35|133:39,2,130,12|0|0,0:0|0:0|0:0,0:0:0:0:
254,160,66452,2,0,P|290:172|335:169,1,65,8|0,0:0|0:0,0:0:0:0:
373,226,66832,2,0,P|276:251|196:230,1,130,8|0,0:0|0:0,0:0:0:0:
174,225,67402,2,0,P|144:202|126:155,1,65,8|8,0:0|0:0,0:0:0:0:
168,88,67782,6,0,P|292:75|379:144,1,195,8|8,0:0|0:0,0:0:0:0:
387,176,68541,2,0,P|344:217|294:227,1,65,8|4,0:0|0:0,0:0:0:0:
256,192,69111,12,4,71009,0:0:0:0:
110,118,75187,6,0,P|184:76|283:79,1,130,8|8,0:0|0:0,0:0:0:0:
382,84,75946,1,2,0:0:0:0:
430,263,76326,2,0,P|315:285|255:269,1,130,8|8,0:0|0:0,0:0:0:0:
148,272,77085,1,6,0:0:0:0:
127,117,77465,5,8,0:0:0:0:
169,51,77655,2,0,L|226:119,1,65,8|8,0:0|0:0,0:0:0:0:
249,168,78035,2,0,L|308:109,1,65,0|8,0:0|0:0,0:0:0:0:
336,56,78414,2,0,P|427:92|427:161,2,130,8|8|8,0:0|0:0|0:0,0:0:0:0:
257,58,79364,2,0,P|188:94|182:123,1,65,8|8,0:0|0:0,0:0:0:0:
129,116,79744,2,0,P|106:168|120:211,1,65,8|8,0:0|0:0,0:0:0:0:
134,244,80123,6,4,B|196:246|232:279|309:270,1,130,4|8,0:0|0:0,0:0:0:0:
335,246,80693,2,0,P|369:251|394:279,2,65,8|8|8,0:0|0:0|0:0,0:0:0:0:
284,185,81263,1,0,0:0:0:0:
237,122,81452,2,0,B|293:121|356:95|409:92,2,130,8|8|2,0:0|0:0|0:0,0:0:0:0:
159,133,82402,2,0,B|163:208|117:228|118:294,2,130,8|2|4,0:0|0:0|0:0,0:0:0:0:
316,124,83541,5,4,0:0:0:0:
392,140,83731,2,0,P|365:196|313:204,1,65,8|8,0:0|0:0,0:0:0:0:
407,261,84111,2,0,P|368:275|351:331,1,65,2|0,0:0|0:0,0:0:0:0:
283,324,84490,2,0,P|224:321|152:241,2,130,8|0|0,0:0|0:0|0:0,0:0:0:0:
270,246,85440,2,0,P|222:221|224:188,1,65,8|2,0:0|0:0,0:0:0:0:
210,137,85819,1,8,0:0:0:0:
357,46,86199,6,0,P|392:124|366:203,1,130,4|0,0:0|0:0,0:0:0:0:
314,197,86769,1,2,0:0:0:0:
237,209,86959,2,0,P|214:247|202:302,2,65,8|8|8,0:0|0:0|0:0,0:0:0:0:
237,129,87528,2,0,P|234:95|118:43,2,130,2|0|2,0:0|0:0|0:0,0:0:0:0:
152,119,88478,2,0,L|97:187,1,65,8|8,0:0|0:0,0:0:0:0:
164,226,88857,2,0,L|123:305,1,65,8|8,0:0|0:0,0:0:0:0:
191,337,89237,6,0,B|285:340|349:299|371:302,2,130,4|8|8,0:0|0:0|0:0,0:0:0:0:
163,263,90187,2,0,B|130:263|115:231|69:226,1,65,8|8,0:0|0:0,0:0:0:0:
59,172,90566,2,0,P|107:72|232:65,1,195,8|2,0:0|0:0,0:0:0:0:
256,43,91326,2,0,P|330:61|349:94,1,65,8|8,0:0|0:0,0:0:0:0:
378,101,91706,2,0,P|422:148|409:197,1,65,8|8,0:0|0:0,0:0:0:0:
437,221,92085,1,0,0:0:0:0:
384,278,92275,6,0,B|320:209|334:148|306:123,1,130,4|8,0:0|0:0,0:0:0:0:
252,135,92845,2,0,P|246:178|277:297,1,130,8|2,0:0|0:0,0:0:0:0:
195,306,93414,1,8,0:0:0:0:
137,253,93604,2,0,P|80:170|115:103,1,130,8|8,0:0|0:0,0:0:0:0:
138,92,94174,2,0,P|186:50|234:46,1,65,8|8,0:0|0:0,0:0:0:0:
262,32,94554,2,0,P|320:32|362:68,1,65,8|8,0:0|0:0,0:0:0:0:
384,84,94933,2,0,B|377:144|432:178|419:252,2,130,8|0|4,0:0|0:0|0:0,0:0:0:0:
