osu file format v14

[General]
AudioFilename: Sonic Heroes Soundtrack [HQ] - Rail Canyon.mp3
AudioLeadIn: 0
PreviewTime: 46706
Countdown: 0
SampleSet: None
StackLeniency: 0.7
Mode: 0
LetterboxInBreaks: 1
WidescreenStoryboard: 0

[Editor]
Bookmarks: 64364
DistanceSpacing: 1.4
BeatDivisor: 4
GridSize: 32
TimelineZoom: 3.699999

[Metadata]
Title:Rail Canyon
TitleUnicode:Rail Canyon
Artist:Crush 40
ArtistUnicode:Crush 40
Creator:FiahRose
Version:Hero
Source:Sonic Heroes 2003 Soundtrack
Tags:Rock Drums Sonic Heroes
BeatmapID:728247
BeatmapSetID:328323

[Difficulty]
HPDrainRate:7.5
CircleSize:4
OverallDifficulty:7.5
ApproachRate:7
SliderMultiplier:1.7
SliderTickRate:1

[Events]
//Background and Video events
0,0,"BG1.jpg",0,0
//Break Periods
2,71209,74287
//Storyboard Layer 0 (Background)
//Storyboard Layer 1 (Fail)
//Storyboard Layer 2 (Pass)
//Storyboard Layer 3 (Foreground)
//Storyboard Sound Samples

[TimingPoints]
1136.43635393736,379.746835443038,4,3,1,100,1,0
46706,-83.3333333333333,4,3,1,100,0,1
71009,-100,4,3,1,100,0,0
123414,-83.3333333333333,4,3,1,100,0,1
147718,-100,4,3,1,100,0,0

[Colours]
Combo1 : 242,225,13
Combo2 : 255,0,0
Combo3 : 18,124,255

[HitObjects]
99,86,1136,6,0,P|163:54|259:54,1,170,8|0,0:0|0:0,0:0:0:0:
273,70,1611,1,0,0:0:0:0:
285,87,1706,2,0,P|330:92|445:36,1,170,8|0,0:0|0:0,0:0:0:0:
453,58,2180,1,0,0:0:0:0:
461,77,2275,1,0,0:0:0:0:
464,97,2370,1,0,0:0:0:0:
469,119,2465,6,0,P|398:112|292:142,1,170,8|0,0:0|0:0,0:0:0:0:
213,56,3035,2,0,P|192:91|188:147,1,85,8|0,0:0|0:0,0:0:0:0:
67,128,3414,2,0,P|77:182|120:229,1,85,8|0,0:0|0:0,0:0:0:0:
37,312,3794,2,0,P|79:331|145:323,1,85,8|2,0:0|0:0,0:0:0:0:
190,238,4174,5,8,0:0:0:0:
190,238,4269,1,0,0:0:0:0:
190,238,4364,1,0,0:0:0:0:
311,278,4554,1,0,0:0:0:0:
315,150,4744,1,8,0:0:0:0:
315,150,4838,1,0,0:0:0:0:
315,150,4933,1,0,0:0:0:0:
189,125,5123,1,0,0:0:0:0:
168,251,5313,1,2,0:0:0:0:
261,337,5503,6,8,P|373:327|402:260,1,170,10|8,0:0|0:0,0:0:0:0:
451,168,6073,1,0,0:0:0:0:
380,61,6263,1,0,0:0:0:0:
279,138,6452,1,8,0:0:0:0:
189,47,6642,2,0,L|89:115,1,85,0|8,0:0|0:0,0:0:0:0:
114,223,7022,1,8,0:0:0:0:
114,223,7117,1,0,0:0:0:0:
114,223,7212,1,12,0:0:0:0:
213,302,7402,5,2,0:0:0:0:
340,304,7592,2,0,P|401:300|431:266,1,85,8|0,0:0|0:0,0:0:0:0:
455,164,7971,1,0,0:0:0:0:
343,102,8161,2,0,L|408:56,2,42.5
223,55,8541,2,0,P|157:59|110:154,1,170,8|0,0:0|0:0,0:0:0:0:
100,270,9111,1,0,0:0:0:0:
196,186,9300,1,0,0:0:0:0:
208,304,9490,2,0,L|106:362,2,85
321,257,10060,1,0,0:0:0:0:
445,228,10250,6,0,B|403:187|443:135|392:67,1,170,8|0,0:0|0:0,0:0:0:0:
268,45,10819,2,0,L|181:102,1,85
94,171,11199,1,0,0:0:0:0:
94,171,11294,1,0,0:0:0:0:
94,171,11389,1,0,0:0:0:0:
114,296,11579,2,0,B|205:276|251:191,1,170,8|0,0:0|0:0,0:0:0:0:
359,238,12149,2,0,P|366:185|346:132,1,85
471,118,12528,2,0,P|428:65|388:53,1,85,0|8,0:0|0:0,0:0:0:0:
299,23,12908,1,8,0:0:0:0:
173,58,13098,5,8,0:0:0:0:
173,58,13193,1,0,0:0:0:0:
173,58,13288,1,12,0:0:0:0:
69,133,13478,2,0,L|165:189,1,85
154,302,13857,2,0,L|265:250,1,85
335,191,14237,1,0,0:0:0:0:
335,191,14427,1,0,0:0:0:0:
335,191,14617,2,0,P|252:220|247:136,1,170,8|0,0:0|0:0,0:0:0:0:
285,45,15187,6,0,P|331:32|372:73,1,85
437,152,15566,2,0,P|456:205|422:253,1,85
363,327,15946,1,0,0:0:0:0:
248,271,16136,2,0,L|195:313,2,42.5,0|0|8,0:0|0:0|0:0,0:0:0:0:
257,143,16516,5,0,0:0:0:0:
257,143,16611,1,0,0:0:0:0:
257,143,16706,1,0,0:0:0:0:
193,42,16895,2,0,P|142:117|156:207,1,170,8|8,0:0|0:0,0:0:0:0:
200,298,17465,1,0,0:0:0:0:
318,304,17655,2,0,P|352:244|354:193,1,85,8|0,0:0|0:0,0:0:0:0:
243,183,18035,2,0,P|231:218|195:262,1,85,8|0,0:0|0:0,0:0:0:0:
112,181,18414,2,0,P|139:152|157:109,1,85,8|0,0:0|0:0,0:0:0:0:
43,85,18794,1,8,0:0:0:0:
154,184,18984,5,8,0:0:0:0:
169,198,19079,1,0,0:0:0:0:
184,212,19174,1,8,0:0:0:0:
198,227,19269,1,0,0:0:0:0:
214,240,19364,1,12,0:0:0:0:
324,283,19554,5,0,0:0:0:0:
419,212,19744,2,0,L|419:121,1,85
323,55,20123,1,0,0:0:0:0:
204,66,20313,2,0,L|155:39,2,42.5
108,137,20693,2,0,P|102:212|191:297,1,170,8|0,0:0|0:0,0:0:0:0:
213,178,21263,1,0,0:0:0:0:
304,253,21452,1,0,0:0:0:0:
198,308,21642,2,0,P|188:220|250:148,1,170
467,109,22402,5,12,0:0:0:0:
401,215,22592,2,0,P|349:235|344:292,1,85
220,269,22971,2,0,P|174:232|123:235,1,85
158,109,23351,2,0,L|116:101,2,42.5
269,66,23731,2,0,B|257:135|304:183|304:241,1,170,8|0,0:0|0:0,0:0:0:0:
257,340,24300,2,0,P|208:302|195:244,1,85,8|8,0:0|0:0,0:0:0:0:
79,272,24680,2,0,P|109:205|152:181,1,85,0|8,0:0|0:0,0:0:0:0:
37,108,25060,6,0,P|87:82|138:77,1,85,0|8,0:0|0:0,0:0:0:0:
135,74,25345,1,0,0:0:0:0:
156,74,25440,1,12,0:0:0:0:
272,37,25630,5,0,0:0:0:0:
292,153,25819,2,0,L|401:126,1,85
427,246,26199,2,0,L|470:238,2,42.5
314,286,26579,1,0,0:0:0:0:
199,318,26769,2,0,P|125:316|93:222,1,170,8|0,0:0|0:0,0:0:0:0:
5,151,27338,2,0,P|70:118|104:118,1,85
147,17,27718,2,0,P|184:54|197:104,1,85
314,73,28098,2,0,B|301:201|221:155|248:242,1,170,0|8,0:0|0:0,0:0:0:0:
131,262,28668,5,8,0:0:0:0:
131,262,28763,1,0,0:0:0:0:
131,262,28857,1,0,0:0:0:0:
105,139,29047,2,0,P|143:71|168:66,1,85,8|0,0:0|0:0,0:0:0:0:
262,55,29427,2,0,P|311:60|401:146,2,170,8|0|8,0:0|0:0|0:0,0:0:0:0:
142,51,30376,2,0,P|109:96|145:129,1,85,8|0,0:0|0:0,0:0:0:0:
207,196,30756,2,0,L|173:238,2,42.5
326,197,31136,5,8,0:0:0:0:
326,197,31231,1,0,0:0:0:0:
326,197,31326,1,8,0:0:0:0:
326,197,31421,1,0,0:0:0:0:
326,197,31516,2,2,P|290:245|125:201,2,255,14|2|10,0:0|0:0|0:0,0:0:0:0:
388,25,33035,6,0,P|329:66|222:78,1,170,8|0,0:0|0:0,0:0:0:0:
117,106,33604,1,8,0:0:0:0:
156,218,33794,1,8,0:0:0:0:
37,226,33984,1,8,0:0:0:0:
47,329,34174,2,0,B|135:329|134:277|221:277,1,170,0|8,0:0|0:0,0:0:0:0:
441,261,34933,1,0,0:0:0:0:
407,146,35123,2,0,P|382:109|320:97,1,85,0|8,0:0|0:0,0:0:0:0:
227,73,35503,1,8,0:0:0:0:
133,146,35693,2,0,L|87:104,2,42.5,0|0|8,0:0|0:0|0:0,0:0:0:0:
139,265,36073,6,0,P|185:255|219:227,1,85,0|8,0:0|0:0,0:0:0:0:
277,333,36452,2,0,P|316:288|332:241,1,85,0|8,0:0|0:0,0:0:0:0:
445,256,36832,2,0,P|418:194|384:165,1,85,0|8,0:0|0:0,0:0:0:0:
370,67,37212,2,0,P|313:55|278:67,1,85,0|8,0:0|0:0,0:0:0:0:
270,74,37497,5,0,0:0:0:0:
247,94,37592,2,0,B|177:75|155:200|13:81,2,255,8|8|8,0:0|0:0|0:0,0:0:0:0:
256,192,38921,5,2,0:0:0:0:
265,290,39111,6,0,B|335:309|357:184|499:303,2,255,8|8|8,0:0|0:0|0:0,0:0:0:0:
146,276,40440,1,2,0:0:0:0:
96,160,40630,1,8,0:0:0:0:
192,96,40819,1,8,0:0:0:0:
192,96,40914,1,0,0:0:0:0:
192,96,41009,1,8,0:0:0:0:
295,37,41199,2,0,P|369:72|414:181,1,170,12|0,0:0|0:0,0:0:0:0:
494,237,41769,2,0,P|459:257|405:266,1,85,8|0,0:0|0:0,0:0:0:0:
313,329,42149,2,0,P|302:281|311:222,1,85,8|0,0:0|0:0,0:0:0:0:
185,251,42528,2,0,P|196:192|225:155,1,85,8|0,0:0|0:0,0:0:0:0:
323,136,42908,5,0,0:0:0:0:
323,136,43098,1,0,0:0:0:0:
323,136,43288,1,0,0:0:0:0:
323,136,43478,2,0,P|292:81|176:56,1,170,12|0,0:0|0:0,0:0:0:0:
75,48,44047,2,0,P|81:97|129:147,1,85,8|0,0:0|0:0,0:0:0:0:
174,219,44427,2,0,P|239:247|269:217,1,85,8|0,0:0|0:0,0:0:0:0:
346,179,44807,1,8,0:0:0:0:
346,179,44902,1,0,0:0:0:0:
346,179,44997,1,8,0:0:0:0:
256,192,45187,12,12,46706,0:0:0:0:
383,159,46895,6,0,L|416:224,2,50.9999984436036,0|0|8,0:0|0:0|0:0,0:0:0:0:
285,70,47275,2,0,P|253:38|192:91,1,101.999996887207,0|8,0:0|0:0,0:0:0:0:
100,138,47655,2,0,L|27:198,2,50.9999984436036,0|0|8,0:0|0:0|0:0,0:0:0:0:
203,52,48035,1,0,0:0:0:0:
334,69,48225,2,0,P|401:136|329:241,1,203.999993774414,8|8,0:0|0:0,0:0:0:0:
241,276,48794,1,0,0:0:0:0:
126,209,48984,2,0,P|133:132|177:111,1,101.999996887207,8|0,0:0|0:0,0:0:0:0:
320,96,49364,5,8,0:0:0:0:
320,96,49459,1,0,0:0:0:0:
320,96,49554,1,0,0:0:0:0:
459,128,49744,2,0,P|401:213|293:236,1,203.999993774414,8|8,0:0|0:0,0:0:0:0:
167,209,50313,2,0,L|107:271,2,50.9999984436036,0|0|8,0:0|0:0|0:0,0:0:0:0:
279,119,50693,2,0,L|338:57,2,50.9999984436036,0|0|8,0:0|0:0|0:0,0:0:0:0:
144,69,51073,1,0,0:0:0:0:
32,160,51263,5,8,0:0:0:0:
128,256,51452,2,0,L|96:342,2,50.9999984436036,0|0|8,0:0|0:0|0:0,0:0:0:0:
257,224,51832,2,0,L|317:252,2,50.9999984436036,0|0|8,0:0|0:0|0:0,0:0:0:0:
320,96,52212,5,0,0:0:0:0:
331,96,52307,1,0,0:0:0:0:
341,101,52402,1,0,0:0:0:0:
351,107,52497,1,0,0:0:0:0:
358,116,52592,1,0,0:0:0:0:
416,224,52782,5,12,0:0:0:0:
288,224,52971,2,0,B|256:224|224:288|166:287,1,101.999996887207,0|8,0:0|0:0,0:0:0:0:
72,251,53351,2,0,L|26:291,2,50.9999984436036,0|0|8,0:0|0:0|0:0,0:0:0:0:
102,121,53731,1,0,0:0:0:0:
201,32,53921,2,0,B|246:74|330:76|327:210,1,203.999993774414,8|8,0:0|0:0,0:0:0:0:
468,175,54490,2,0,P|452:240|392:297,1,101.999996887207,0|8,0:0|0:0,0:0:0:0:
293,307,54870,2,0,P|236:280|208:233,1,101.999996887207,0|8,0:0|0:0,0:0:0:0:
163,114,55250,1,0,0:0:0:0:
46,30,55440,5,8,0:0:0:0:
91,165,55630,1,0,0:0:0:0:
184,34,55819,2,0,P|240:28|402:112,1,203.999993774414,8|8,0:0|0:0,0:0:0:0:
509,129,56389,2,2,P|489:170|439:208,1,101.999996887207,10|2,0:0|0:0,0:0:0:0:
413,344,56769,2,0,P|354:318|323:271,1,101.999996887207
187,291,57149,2,2,P|132:205|150:100,1,203.999993774414,10|10,0:0|0:0,0:0:0:0:
273,174,57718,1,0,0:0:0:0:
315,37,57908,2,2,P|402:129|332:305,1,305.999990661621,10|10,0:0|0:0,0:0:0:0:
222,338,58668,1,8,0:0:0:0:
222,338,58763,1,0,0:0:0:0:
222,338,58857,1,8,0:0:0:0:
82,305,59047,6,0,L|18:337,2,50.9999984436036,0|0|8,0:0|0:0|0:0,0:0:0:0:
137,172,59427,2,0,P|169:108|233:76,1,101.999996887207,0|8,0:0|0:0,0:0:0:0:
331,56,59807,2,0,L|395:24,2,50.9999984436036,0|0|8,0:0|0:0|0:0,0:0:0:0:
192,91,60186,1,0,0:0:0:0:
59,143,60376,2,0,P|117:218|254:222,1,203.999993774414,8|8,0:0|0:0,0:0:0:0:
363,226,60945,1,0,0:0:0:0:
504,199,61136,2,0,P|472:135|415:88,1,101.999996887207,8|0,0:0|0:0,0:0:0:0:
322,52,61515,5,8,0:0:0:0:
322,52,61610,1,0,0:0:0:0:
322,52,61705,1,0,0:0:0:0:
182,23,61895,2,0,P|195:119|277:187,1,203.999993774414,8|8,0:0|0:0,0:0:0:0:
362,298,62465,2,0,L|437:300,2,50.9999984436036,0|0|8,0:0|0:0|0:0,0:0:0:0:
492,237,62845,2,0,L|421:238,2,50.9999984436036,0|0|8,0:0|0:0|0:0,0:0:0:0:
383,144,63224,1,0,0:0:0:0:
246,186,63414,1,8,0:0:0:0:
122,113,63604,2,0,L|193:112,2,50.9999984436036,0|0|8,0:0|0:0|0:0,0:0:0:0:
251,50,63984,2,0,L|176:48,2,50.9999984436036,0|0|8,0:0|0:0|0:0,0:0:0:0:
330,169,64364,5,0,0:3:0:0:
331,179,64459,1,0,0:3:0:0:
327,190,64554,1,0,0:3:0:0:
322,200,64649,1,0,0:3:0:0:
314,208,64744,1,0,0:3:0:0:
195,286,64933,5,12,0:0:0:0:
52,271,65123,2,0,B|67:202|101:197|95:135,1,101.999996887207,0|8,0:0|0:0,0:0:0:0:
153,48,65503,2,0,L|177:0,2,50.9999984436036,0|0|8,0:0|0:0|0:0,0:0:0:0:
167,190,65883,1,0,0:0:0:0:
261,296,66073,2,0,B|378:341|444:228,1,203.999993774414,8|0,0:0|0:0,0:0:0:0:
314,166,66642,2,0,P|333:118|331:60,1,101.999996887207,0|8,0:0|0:0,0:0:0:0:
190,87,67022,2,0,P|126:61|57:71,1,101.999996887207,0|8,0:0|0:0,0:0:0:0:
107,210,67402,1,0,0:0:0:0:
222,294,67592,1,8,0:0:0:0:
222,294,67687,1,0,0:0:0:0:
222,294,67782,1,8,0:0:0:0:
256,192,67971,12,12,71009,0:0:0:0:
160,85,75187,5,8,0:0:0:0:
179,93,75282,1,0,0:0:0:0:
191,109,75376,1,8,0:0:0:0:
206,123,75471,1,0,0:0:0:0:
225,131,75566,1,8,0:0:0:0:
462,141,75946,5,8,0:0:0:0:
228,95,76326,2,0,P|172:164|224:208,1,170,8|8,0:0|0:0,0:0:0:0:
413,298,77085,2,0,P|349:330|253:330,1,170,8|0,0:0|0:0,0:0:0:0:
239,314,77560,1,0,0:0:0:0:
227,297,77655,2,0,P|182:292|67:348,1,170,8|0,0:0|0:0,0:0:0:0:
59,326,78129,1,0,0:0:0:0:
51,307,78224,1,0,0:0:0:0:
48,287,78319,1,0,0:0:0:0:
43,265,78414,6,0,P|114:272|220:242,1,170,8|0,0:0|0:0,0:0:0:0:
299,328,78984,2,0,P|320:293|324:237,1,85,8|0,0:0|0:0,0:0:0:0:
444,255,79363,2,0,P|435:202|392:155,1,85,8|0,0:0|0:0,0:0:0:0:
475,72,79743,2,0,P|433:53|367:61,1,85,8|2,0:0|0:0,0:0:0:0:
322,146,80123,5,8,0:0:0:0:
322,146,80218,1,0,0:0:0:0:
322,146,80313,1,0,0:0:0:0:
201,106,80503,1,0,0:0:0:0:
197,234,80693,1,8,0:0:0:0:
197,234,80787,1,0,0:0:0:0:
197,234,80882,1,0,0:0:0:0:
323,259,81072,1,0,0:0:0:0:
344,133,81262,1,2,0:0:0:0:
251,47,81452,6,8,P|139:57|110:124,1,170,10|8,0:0|0:0,0:0:0:0:
61,216,82022,1,0,0:0:0:0:
132,323,82212,1,0,0:0:0:0:
233,246,82401,1,8,0:0:0:0:
323,337,82591,2,0,L|423:269,1,85,0|8,0:0|0:0,0:0:0:0:
398,161,82971,1,8,0:0:0:0:
398,161,83066,1,0,0:0:0:0:
398,161,83161,1,12,0:0:0:0:
299,82,83351,5,2,0:0:0:0:
172,80,83541,2,0,P|111:84|81:118,1,85,8|0,0:0|0:0,0:0:0:0:
57,220,83920,1,0,0:0:0:0:
169,282,84110,2,0,L|104:328,2,42.5
289,329,84490,2,0,P|355:325|402:230,1,170,8|0,0:0|0:0,0:0:0:0:
412,114,85060,1,0,0:0:0:0:
316,198,85249,1,0,0:0:0:0:
304,80,85439,2,0,L|406:22,2,85
191,127,86009,1,0,0:0:0:0:
67,156,86199,6,0,B|109:197|69:249|120:317,1,170,8|0,0:0|0:0,0:0:0:0:
244,339,86768,2,0,L|331:282,1,85
418,213,87148,1,0,0:0:0:0:
418,213,87243,1,0,0:0:0:0:
418,213,87338,1,0,0:0:0:0:
398,88,87528,2,0,B|307:108|261:193,1,170,8|0,0:0|0:0,0:0:0:0:
153,146,88098,2,0,P|145:198|165:251,1,85
41,266,88477,2,0,P|84:319|124:331,1,85,0|8,0:0|0:0,0:0:0:0:
213,361,88857,1,8,0:0:0:0:
339,326,89047,5,8,0:0:0:0:
339,326,89142,1,0,0:0:0:0:
339,326,89237,1,12,0:0:0:0:
443,251,89427,2,0,L|347:195,1,85
358,82,89806,2,0,L|247:134,1,85
177,193,90186,1,0,0:0:0:0:
177,193,90376,1,0,0:0:0:0:
177,193,90566,2,0,P|260:164|265:248,1,170,8|0,0:0|0:0,0:0:0:0:
227,339,91136,6,0,P|181:352|140:311,1,85
75,232,91515,2,0,P|56:179|90:131,1,85
149,57,91895,1,0,0:0:0:0:
264,113,92085,2,0,L|317:71,2,42.5,0|0|8,0:0|0:0|0:0,0:0:0:0:
255,241,92465,5,0,0:0:0:0:
255,241,92560,1,0,0:0:0:0:
255,241,92655,1,0,0:0:0:0:
319,342,92844,2,0,P|370:267|356:177,1,170,8|8,0:0|0:0,0:0:0:0:
312,86,93414,1,0,0:0:0:0:
193,79,93604,2,0,P|160:140|158:191,1,85,8|0,0:0|0:0,0:0:0:0:
268,200,93984,2,0,P|281:166|317:122,1,85,8|0,0:0|0:0,0:0:0:0:
399,202,94363,2,0,P|373:232|355:275,1,85,8|0,0:0|0:0,0:0:0:0:
469,299,94743,1,8,0:0:0:0:
358,200,94933,5,8,0:0:0:0:
343,186,95028,1,0,0:0:0:0:
328,172,95123,1,8,0:0:0:0:
314,157,95218,1,0,0:0:0:0:
298,144,95313,1,12,0:0:0:0:
188,101,95503,5,0,0:0:0:0:
93,172,95693,2,0,L|93:263,1,85
189,329,96072,1,0,0:0:0:0:
308,318,96262,2,0,L|357:345,2,42.5
403,246,96642,2,0,P|410:172|321:87,1,170,8|0,0:0|0:0,0:0:0:0:
299,206,97212,1,0,0:0:0:0:
208,131,97401,1,0,0:0:0:0:
314,76,97591,2,0,P|324:164|262:236,1,170
45,275,98351,5,12,0:0:0:0:
111,169,98541,2,0,P|163:149|168:92,1,85
292,115,98920,2,0,P|338:152|389:149,1,85
354,275,99300,2,0,L|396:283,2,42.5
243,318,99680,2,0,B|255:249|208:201|208:143,1,170,8|0,0:0|0:0,0:0:0:0:
254,43,100249,2,0,P|304:82|317:140,1,85,8|8,0:0|0:0,0:0:0:0:
432,111,100629,2,0,P|403:179|360:203,1,85,0|8,0:0|0:0,0:0:0:0:
474,275,101009,6,0,P|425:302|374:307,1,85,0|8,0:0|0:0,0:0:0:0:
377,310,101294,1,0,0:0:0:0:
356,310,101389,1,12,0:0:0:0:
240,347,101579,5,0,0:0:0:0:
220,231,101768,2,0,L|111:258,1,85
85,138,102148,2,0,L|42:146,2,42.5
198,98,102528,1,0,0:0:0:0:
313,66,102718,2,0,P|387:68|419:162,1,170,8|0,0:0|0:0,0:0:0:0:
507,233,103287,2,0,P|442:266|408:266,1,85
365,367,103667,2,0,P|328:330|315:280,1,85
198,311,104047,2,0,B|210:182|290:228|263:141,1,170,0|8,0:0|0:0,0:0:0:0:
381,122,104617,5,8,0:0:0:0:
381,122,104712,1,0,0:0:0:0:
381,122,104806,1,0,0:0:0:0:
407,245,104996,2,0,P|369:313|344:318,1,85,8|0,0:0|0:0,0:0:0:0:
250,329,105376,2,0,P|201:324|111:238,2,170,8|0|8,0:0|0:0|0:0,0:0:0:0:
370,333,106325,2,0,P|403:288|367:255,1,85,8|0,0:0|0:0,0:0:0:0:
305,188,106705,2,0,L|339:146,2,42.5
186,187,107085,5,8,0:0:0:0:
186,187,107180,1,0,0:0:0:0:
186,187,107275,1,8,0:0:0:0:
186,187,107370,1,0,0:0:0:0:
186,187,107465,2,2,P|222:139|387:183,2,255,14|2|10,0:0|0:0|0:0,0:0:0:0:
124,359,108984,6,0,P|183:318|290:306,1,170,8|0,0:0|0:0,0:0:0:0:
395,278,109553,1,8,0:0:0:0:
356,166,109743,1,8,0:0:0:0:
475,158,109933,1,8,0:0:0:0:
465,55,110123,2,0,B|377:55|378:107|291:107,1,170,0|8,0:0|0:0,0:0:0:0:
71,123,110882,1,0,0:0:0:0:
105,238,111072,2,0,P|130:275|192:287,1,85,0|8,0:0|0:0,0:0:0:0:
285,311,111452,1,8,0:0:0:0:
379,238,111642,2,0,L|425:280,2,42.5,0|0|8,0:0|0:0|0:0,0:0:0:0:
373,119,112022,6,0,P|327:129|293:157,1,85,0|8,0:0|0:0,0:0:0:0:
235,51,112401,2,0,P|196:96|180:143,1,85,0|8,0:0|0:0,0:0:0:0:
67,128,112781,2,0,P|94:190|128:219,1,85,0|8,0:0|0:0,0:0:0:0:
142,317,113161,2,0,P|199:329|234:317,1,85,0|8,0:0|0:0,0:0:0:0:
242,310,113446,5,0,0:0:0:0:
265,290,113541,2,0,B|335:309|357:184|499:303,2,255,8|8|8,0:0|0:0|0:0,0:0:0:0:
256,192,114870,5,2,0:0:0:0:
247,94,115060,6,0,B|177:75|155:200|13:81,2,255,8|8|8,0:0|0:0|0:0,0:0:0:0:
366,108,116389,1,2,0:0:0:0:
416,224,116579,1,8,0:0:0:0:
320,288,116768,1,8,0:0:0:0:
320,288,116863,1,0,0:0:0:0:
320,288,116958,1,8,0:0:0:0:
217,347,117148,2,0,P|143:312|98:203,1,170,12|0,0:0|0:0,0:0:0:0:
18,147,117718,2,0,P|53:127|107:118,1,85,8|0,0:0|0:0,0:0:0:0:
199,55,118098,2,0,P|210:103|201:162,1,85,8|0,0:0|0:0,0:0:0:0:
327,133,118477,2,0,P|316:192|287:229,1,85,8|0,0:0|0:0,0:0:0:0:
416,251,118857,2,0,P|385:301|345:325,1,85,8|0,0:0|0:0,0:0:0:0:
247,342,119237,2,0,P|204:363|136:348,1,85,8|0,0:0|0:0,0:0:0:0:
189,248,119617,5,0,0:0:0:0:
189,248,119807,1,0,0:0:0:0:
189,248,119997,1,0,0:0:0:0:
189,248,120187,2,0,P|220:303|336:328,1,170,12|0,0:0|0:0,0:0:0:0:
437,336,120756,2,0,P|431:287|383:237,1,85,8|0,0:0|0:0,0:0:0:0:
338,165,121136,2,0,P|273:137|243:167,1,85,8|0,0:0|0:0,0:0:0:0:
166,205,121516,1,8,0:0:0:0:
166,205,121611,1,0,0:0:0:0:
166,205,121706,1,8,0:0:0:0:
256,192,121896,12,12,123415,0:0:0:0:
129,225,123604,6,0,L|96:160,2,50.9999984436036,0|0|8,0:0|0:0|0:0,0:0:0:0:
227,314,123984,2,0,P|259:346|320:293,1,101.999996887207,0|8,0:0|0:0,0:0:0:0:
412,246,124364,2,0,L|485:186,2,50.9999984436036,0|0|8,0:0|0:0|0:0,0:0:0:0:
309,332,124744,1,0,0:0:0:0:
178,315,124934,2,0,P|111:248|183:143,1,203.999993774414,8|8,0:0|0:0,0:0:0:0:
271,108,125503,1,0,0:0:0:0:
386,175,125693,2,0,P|379:252|335:273,1,101.999996887207,8|0,0:0|0:0,0:0:0:0:
192,288,126073,5,8,0:0:0:0:
192,288,126168,1,0,0:0:0:0:
192,288,126263,1,0,0:0:0:0:
52,255,126453,2,0,P|111:171|219:148,1,203.999993774414,8|8,0:0|0:0,0:0:0:0:
345,175,127022,2,0,L|405:113,2,50.9999984436036,0|0|8,0:0|0:0|0:0,0:0:0:0:
233,265,127402,2,0,L|174:327,2,50.9999984436036,0|0|8,0:0|0:0|0:0,0:0:0:0:
368,315,127782,1,0,0:0:0:0:
480,224,127972,5,8,0:0:0:0:
384,128,128161,2,0,L|416:42,2,50.9999984436036,0|0|8,0:0|0:0|0:0,0:0:0:0:
255,160,128541,2,0,L|195:132,2,50.9999984436036,0|0|8,0:0|0:0|0:0,0:0:0:0:
192,288,128921,5,0,0:0:0:0:
181,288,129016,1,0,0:0:0:0:
171,283,129111,1,0,0:0:0:0:
161,277,129206,1,0,0:0:0:0:
154,268,129301,1,0,0:0:0:0:
96,160,129491,5,12,0:0:0:0:
224,160,129680,2,0,B|256:160|288:96|346:97,1,101.999996887207,0|8,0:0|0:0,0:0:0:0:
440,133,130060,2,0,L|486:93,2,50.9999984436036,0|0|8,0:0|0:0|0:0,0:0:0:0:
410,263,130440,1,0,0:0:0:0:
311,352,130630,2,0,B|266:310|182:308|185:174,1,203.999993774414,8|8,0:0|0:0,0:0:0:0:
44,209,131199,2,0,P|60:144|120:87,1,101.999996887207,0|8,0:0|0:0,0:0:0:0:
219,77,131579,2,0,P|276:104|304:151,1,101.999996887207,0|8,0:0|0:0,0:0:0:0:
349,270,131959,1,0,0:0:0:0:
466,354,132149,5,8,0:0:0:0:
421,219,132339,1,0,0:0:0:0:
328,350,132528,2,0,P|272:356|110:272,1,203.999993774414,8|8,0:0|0:0,0:0:0:0:
3,255,133098,2,2,P|23:214|73:176,1,101.999996887207,10|2,0:0|0:0,0:0:0:0:
99,40,133478,2,0,P|158:66|189:113,1,101.999996887207
325,93,133858,2,2,P|380:179|362:284,1,203.999993774414,10|10,0:0|0:0,0:0:0:0:
239,210,134427,1,0,0:0:0:0:
197,347,134617,2,2,P|110:255|180:79,1,305.999990661621,10|10,0:0|0:0,0:0:0:0:
290,46,135377,1,8,0:0:0:0:
290,46,135472,1,0,0:0:0:0:
290,46,135566,1,8,0:0:0:0:
430,79,135756,6,0,L|494:47,2,50.9999984436036,0|0|8,0:0|0:0|0:0,0:0:0:0:
375,212,136136,2,0,P|343:276|279:308,1,101.999996887207,0|8,0:0|0:0,0:0:0:0:
181,328,136516,2,0,L|117:360,2,50.9999984436036,0|0|8,0:0|0:0|0:0,0:0:0:0:
320,293,136895,1,0,0:0:0:0:
452,240,137085,2,0,P|395:166|258:162,1,203.999993774414,8|8,0:0|0:0,0:0:0:0:
149,158,137654,1,0,0:0:0:0:
8,185,137845,2,0,P|40:249|97:296,1,101.999996887207,8|0,0:0|0:0,0:0:0:0:
190,332,138224,5,8,0:0:0:0:
190,332,138319,1,0,0:0:0:0:
190,332,138414,1,0,0:0:0:0:
330,361,138604,2,0,P|317:265|235:197,1,203.999993774414,8|8,0:0|0:0,0:0:0:0:
150,86,139174,2,0,L|75:84,2,50.9999984436036,0|0|8,0:0|0:0|0:0,0:0:0:0:
20,147,139554,2,0,L|91:146,2,50.9999984436036,0|0|8,0:0|0:0|0:0,0:0:0:0:
129,240,139933,1,0,0:0:0:0:
266,198,140123,1,8,0:0:0:0:
390,271,140313,2,0,L|319:272,2,50.9999984436036,0|0|8,0:0|0:0|0:0,0:0:0:0:
261,334,140693,2,0,L|336:336,2,50.9999984436036,0|0|8,0:0|0:0|0:0,0:0:0:0:
182,215,141073,5,0,0:3:0:0:
181,205,141168,1,0,0:3:0:0:
185,194,141263,1,0,0:3:0:0:
190,184,141358,1,0,0:3:0:0:
198,176,141453,1,0,0:3:0:0:
317,98,141642,5,12,0:0:0:0:
459,112,141832,2,0,B|445:182|411:187|417:249,1,101.999996887207,0|8,0:0|0:0,0:0:0:0:
359,336,142212,2,0,L|335:384,2,50.9999984436036,0|0|8,0:0|0:0|0:0,0:0:0:0:
345,194,142592,1,0,0:0:0:0:
251,88,142782,2,0,B|134:43|68:156,1,203.999993774414,8|0,0:0|0:0,0:0:0:0:
198,218,143351,2,0,P|179:266|181:324,1,101.999996887207,0|8,0:0|0:0,0:0:0:0:
322,297,143731,2,0,P|386:323|455:313,1,101.999996887207,0|8,0:0|0:0,0:0:0:0:
405,174,144111,1,0,0:0:0:0:
290,90,144301,1,8,0:0:0:0:
290,90,144396,1,0,0:0:0:0:
290,90,144491,1,8,0:0:0:0:
256,192,144680,12,12,147718,0:0:0:0:
