osu file format v5

[General]
AudioFilename: live-and-learn.mp3
AudioLeadIn: 0
PreviewTime: -1
Countdown: 0
SampleSet: Normal

[Metadata]
Title:Live and Learn
Artist:Crush 40
Creator:Pong
Version:Hard

[Difficulty]
HPDrainRate:5
CircleSize:5
OverallDifficulty:6
SliderMultiplier:1.2
SliderTickRate:1

[Events]
//Background and Video events
0,0,"super_sonic_unleashed.jpg"
//Break Periods
2,83222,90146
2,148979,156425
2,178804,189565
2,195548,197113
2,215781,220437
//Storyboard Layer 0 (Background)
//Storyboard Layer 1 (Failing)
//Storyboard Layer 2 (Passing)
//Storyboard Layer 3 (Foreground)
//Storyboard Sound Samples
//Background Colour Transformations
3,100,163,162,255

[TimingPoints]
0,348.837209302326,4,1,1,100

[HitObjects]
256,192,14302,1,0
320,192,14651,2,0,B|628:37|288:64,1,360
288,64,15872,2,0,B|-32:64,1,300
32,64,17441,5,0
96,64,17616,1,0
160,64,17965,1,0
96,128,18313,1,0
96,192,18662,2,0,B|281:192|284:290|96:288,1,300
64,320,20581,6,0,B|435:322|435:322,1,360
416,320,21976,1,2
448,256,22151,1,0
416,192,22325,1,0
448,128,22500,1,0
416,64,22674,1,0
352,32,22848,2,0,B|320:192|288:352|192:352,1,360
288,160,24418,5,2
224,224,24767,5,2
224,160,25116,5,2
192,96,25465,5,0
192,96,25639,1,0
160,32,25813,2,0,B|0:32|32:256,1,300
64,224,27035,2,0,B|384:224,1,300
224,320,28430,1,2
320,320,28779,1,2
384,320,29127,1,2
448,320,29476,1,2
448,320,29825,2,2,B|448:0,1,300
448,64,31744,6,0,B|320:64,3,120
256,96,33139,1,0
192,128,33313,1,0
128,160,33546,1,0
64,192,34011,2,0,B|96:352|192:192|224:192|256:352|288:352|320:192|352:192|384:352,1,420
320,320,35581,5,2
384,320,35930,1,0
448,320,36279,2,0,B|448:192,1,120
256,192,37674,5,2
320,128,38372,1,2
192,128,39069,1,2
192,256,39767,1,2
320,256,40465,1,2
256,192,41162,1,2
256,192,41686,2,2,B|96:96,1,180
32,32,43255,6,2,B|128:128,1,120
128,128,43953,2,2,B|224:32,1,120
212,43,44651,2,2,B|256:128|320:32,1,120
320,32,45348,2,2,B|576:32|576:320|64:352,1,720
160,32,48837,5,0
288,32,49534,1,0
288,160,50232,1,0
288,224,50930,2,0,B|416:224|416:128,1,180
416,64,51627,2,0,B|224:64,1,180
160,64,52325,2,0,B|32:64|32:96,1,120
32,160,52848,2,0,B|32:256|32:352|224:352,1,300
256,64,54767,5,0
320,96,55116,1,0
384,128,55465,1,0
448,160,55813,1,0
480,160,55988,1,0
480,224,56337,2,0,B|480:320|480:352|448:352|352:352|320:352|320:320|320:224|320:192|288:192|224:192|160:192|160:224|160:288|160:352|128:352|64:352|32:352|32:320|32:0,1,900
96,32,59302,6,0,B|224:32,1,120
256,96,60000,2,0,B|0:96,1,240
32,32,61395,5,2
32,32,61569,1,2
32,96,61918,2,0,B|32:384|96:384|128:320,1,300
160,352,63488,2,0,B|288:352,1,120
320,352,64011,1,0
384,352,64186,2,0,B|480:352|480:288,1,120
480,256,64709,2,0,B|480:64,1,180
480,32,65406,1,0
416,32,65581,2,0,B|352:32,1,60
352,32,65843,2,0,B|352:192,1,150
288,32,66976,5,2
288,32,67151,1,2
288,96,67500,2,2,B|160:96|224:160,1,120
288,160,68372,1,0
288,224,69069,2,0,B|416:224,5,120
448,224,71162,1,2
448,288,72558,5,2
448,288,72732,1,2
448,288,73081,2,0,B|416:384|288:384|288:160,1,300
320,288,74651,2,0,B|320:192|132:24|192:192|256:288|288:320,2,360
320,352,77093,2,2,B|64:352,1,240
128,288,78139,5,2
128,288,78313,1,2
128,288,78662,2,0,B|128:160,1,120
128,128,79534,1,0
192,128,79883,1,0
256,128,80232,1,0
288,128,80494,1,0
352,128,80755,1,0
416,128,81104,1,0
448,224,81627,2,2,B|448:288|253:384|-8:213|-8:213,1,480
32,352,91046,5,2
32,352,91220,1,2
32,352,91395,2,0,B|352:352,1,300
384,352,92616,2,0,B|384:32,1,300
256,64,94186,1,0
256,96,94360,1,0
256,128,94534,1,0
256,160,94709,1,0
256,224,95058,1,0
256,288,95406,2,0,B|128:288|128:96|192:32,1,300
256,96,96976,6,0,B|224:128|256:192|288:128|288:96,2,120
256,32,98197,1,0
256,32,98372,1,0
320,32,98720,1,0
384,32,99069,1,0
384,32,99244,1,0
384,32,99418,1,0
448,32,99593,2,0,B|288:320,1,300
352,320,101162,6,0,B|480:320,3,120
256,192,103255,5,2
320,128,103953,1,2
320,256,104651,1,2
192,128,105348,1,2
192,192,105697,1,2
192,256,106046,1,2
256,256,106395,1,2
320,256,106744,1,2
320,160,107267,1,2
384,64,108837,6,0,B|128:64,2,240
384,128,110930,2,2,B|521:305|32:288,1,480
32,224,113023,1,2
256,192,114418,6,0,B|352:288,1,120
352,288,115116,2,0,B|352:160,1,120
352,160,115813,2,0,B|224:160,1,120
232,160,116511,2,0,B|96:160,1,120
112,160,117209,2,0,B|192:288,1,120
192,288,117906,2,2,B|480:32,1,360
256,64,120348,5,0
256,64,120697,1,0
256,64,121046,1,0
256,64,121395,1,0
256,64,121569,1,0
288,128,122093,6,2,B|520:193|246:428|38:168|256:128,1,480
256,192,124186,1,2
192,352,124883,6,2,B|320:352,3,120
352,352,126976,5,2
352,352,127151,1,2
352,352,127500,2,0,B|352:32,1,300
352,32,129069,2,0,B|224:32,1,120
224,32,129593,1,0
160,64,130116,1,0
160,64,130465,1,0
96,64,130813,1,0
96,64,130988,1,0
96,64,131162,1,0
96,128,131511,1,0
224,192,132558,5,2
224,192,132732,1,2
224,192,133081,2,2,B|352:192,1,120
320,192,133953,2,2,B|416:192|480:192|480:128|480:32|416:32|64:32|32:32|32:128|32:192|160:192,1,720
160,192,136395,1,2
160,192,136744,1,2
160,192,137093,1,2
256,192,138139,5,2
256,192,138313,1,2
320,192,138662,2,0,B|416:192|480:192|480:128|480:32|384:32,1,300
352,32,140232,1,0
352,32,140406,1,0
288,32,140755,2,0,B|160:32,1,120
96,32,141627,1,0
96,32,141889,1,0
32,32,142151,2,2,B|32:352,1,300
96,352,143720,5,2
96,352,143895,1,2
96,352,144244,2,2,B|224:352,1,120
256,288,145116,1,0
256,224,145465,1,0
256,160,145813,1,0
256,96,146162,1,0
256,96,146337,1,0
320,96,146686,1,0
256,192,147209,12,2,148779
128,256,157325,2,0,B|256:256,4,120
32,256,159069,6,0,B|32:96|448:96,1,480
448,160,160813,2,0,B|352:256,3,120
320,288,162209,1,0
256,288,162383,1,0
192,288,162558,2,0,B|192:224,1,60
192,160,163081,5,0
192,160,163255,1,0
256,160,163604,1,0
320,160,163953,2,0,B|480:160|512:32,1,240
448,32,165000,6,0,B|256:32|96:32|32:32|32:160,1,480
32,224,166831,5,2
96,160,167180,1,2
160,224,167529,1,2
224,160,167878,1,2
288,192,168313,2,0,B|480:192|480:320|480:384,1,300
416,352,169708,2,0,B|160:352,1,240
96,352,170755,2,0,B|96:32,1,300
128,32,172325,1,0
128,32,172499,1,0
192,32,172848,1,0
192,32,173023,1,0
256,64,173720,6,0,B|256:320,3,240
256,256,176599,1,0
256,256,176947,1,0
256,256,177209,1,0
320,256,177558,2,0,B|416:256,1,90
410,256,178255,1,0
410,256,178604,1,0
256,192,190465,12,4,195348
256,192,198313,1,2
256,192,198488,1,2
320,192,198837,2,0,B|480:32|192:32,1,300
128,32,200319,2,0,B|128:160,1,120
128,192,200843,2,0,B|0:192,1,120
0,224,201366,2,0,B|0:288|0:352|192:352,1,240
192,320,202238,2,0,B|192:96,1,210
256,192,203895,5,2
256,192,204069,1,2
256,192,204418,2,0,B|192:192|192:288,1,120
192,352,205116,2,0,B|542:360|352:32,1,480
479,35,206860,2,0,B|480:96,5,60
480,160,208081,1,0
256,192,209476,5,2
256,192,209651,1,2
320,192,210000,2,0,B|480:192|480:288|480:352|416:352|384:352,1,300
288,352,211395,6,0,B|32:352|32:160,2,360
288,352,213837,2,0,B|288:96,1,240
224,96,215058,5,2
224,96,215232,1,2
160,96,215581,1,2
256,192,221337,5,2
256,192,221511,1,2
256,192,221860,2,0,B|256:288|256:384|64:384,1,300
64,288,223255,2,0,B|64:32,2,240
128,288,225174,1,0
192,288,225523,1,0
192,288,225697,1,0
192,288,225872,1,0
192,288,226046,1,0
192,288,226220,1,0
192,288,226569,1,0
480,192,226918,5,2
480,192,227093,1,2
480,128,227441,2,0,B|352:128,1,120
352,128,228139,2,0,B|160:128,1,180
128,128,228837,2,0,B|32:288,1,180
32,320,229534,2,0,B|224:320,1,180
288,320,230406,2,0,B|480:320,2,180
32,288,232499,5,2
32,288,232674,1,2
96,288,233023,2,0,B|416:288,1,300
448,288,234418,6,0,B|448:32|352:32|128:32|32:32|32:288,1,720
96,288,236860,2,0,B|416:288,1,300
64,320,238081,5,2
64,320,238255,1,2
128,320,238604,2,2,B|384:320,1,240
256,192,239651,12,0,241744
256,32,242965,2,0,B|401:58|512:192|384:320|271:400|142:344|20:187|79:84|224:32,1,840
